osu file format v14

[General]
AudioFilename: ninelie.mp3
AudioLeadIn: 0
PreviewTime: 157760
Countdown: 0
SampleSet: Soft
StackLeniency: 0.5
Mode: 0
LetterboxInBreaks: 0
WidescreenStoryboard: 1

[Editor]
Bookmarks: 89812,92603,114579,181905,184696,223068
DistanceSpacing: 1.1
BeatDivisor: 8
GridSize: 4
TimelineZoom: 1

[Metadata]
Title:ninelie
TitleUnicode:ninelie
Artist:Aimer with chelly (EGOIST)
ArtistUnicode:Aimer with chelly (EGOIST)
Creator:jonathanlfj
Version:Trust's Normal
Source:甲鉄城のカバネリ
Tags:CSLM captin1 Trust LunarSakuya 澤野弘之 Sawano Hiroyuki Kabaneri of the Iron Fortress koutetsujou no ed ending
BeatmapID:1262879
BeatmapSetID:443879

[Difficulty]
HPDrainRate:4
CircleSize:3.7
OverallDifficulty:4
ApproachRate:5
SliderMultiplier:2.69999990463257
SliderTickRate:2

[Events]
//Background and Video events
0,0,"a.jpg",0,0
//Break Periods
2,45373,54438
2,137465,147229
//Storyboard Layer 0 (Background)
//Storyboard Layer 1 (Fail)
//Storyboard Layer 2 (Pass)
//Storyboard Layer 3 (Foreground)
//Storyboard Sound Samples

[TimingPoints]
11685,697.674418604651,4,2,1,40,1,0
11685,-142.857142857143,4,2,1,40,0,0
92615,-125,4,2,1,70,0,0
148429,-142.857142857143,4,2,1,70,0,0
157847,-125,4,2,1,70,0,0
159591,-125,4,2,1,80,0,1
181917,-125,4,2,1,70,0,0
184701,697.674418604651,4,2,1,70,1,0
184701,-125,4,2,1,70,0,0
208073,-125,4,2,1,50,0,0
208422,-125,4,2,1,50,0,0
208945,-125,4,2,1,60,0,0
209468,-125,4,2,1,70,0,0
209817,-125,4,2,1,80,0,1
232142,-125,4,2,1,70,0,0
234933,-125,4,2,1,80,0,1
246096,-125,4,2,1,70,0,0
251677,-125,4,2,1,60,0,0

[Colours]
Combo1 : 249,47,47
Combo2 : 254,151,37
Combo3 : 138,83,253
Combo4 : 254,120,231

[HitObjects]
46,112,11685,6,0,P|98:164|218:124,1,188.999987556458,2|2,0:0|0:0,0:0:0:0:
234,52,12731,1,2,0:0:0:0:
138,68,13080,2,0,B|106:160|186:160|130:276,1,188.999987556458,2|2,0:0|0:0,0:0:0:0:
109,349,14126,1,0,0:0:0:0:
48,269,14475,6,0,P|119:247|207:331,1,188.999987556458,2|2,0:0|0:0,0:0:0:0:
276,372,15522,1,2,0:0:0:0:
352,316,15871,2,0,B|386:280|386:280|343:211|392:125,1,188.999987556458,2|2,0:0|0:0,0:0:0:0:
415,57,16917,1,0,0:0:0:0:
475,132,17266,6,0,P|383:148|318:62,1,188.999987556458,2|2,0:0|0:0,0:0:0:0:
255,18,18312,1,2,0:0:0:0:
189,84,18661,2,0,P|126:149|37:132,1,188.999987556458,2|2,0:0|0:0,0:0:0:0:
97,57,19708,1,0,0:0:0:0:
97,57,20057,6,0,L|113:263,1,188.999987556458,2|2,0:0|0:0,0:0:0:0:
175,311,21103,1,2,0:0:0:0:
261,272,21452,2,0,B|339:258|377:317|377:317|415:289|414:242,1,188.999987556458,2|2,0:0|0:0,0:0:0:0:
409,178,22498,1,0,0:0:0:0:
324,135,22847,6,0,P|306:72|325:-4,2,141.749990667343,2|2|0,0:3|0:0|0:0,0:0:0:0:
332,229,24243,2,0,P|239:210|138:269,1,188.999987556458,0|0,0:0|0:0,0:0:0:0:
91,316,25289,1,0,0:0:0:0:
19,253,25638,6,0,P|24:188|28:138,1,94.499993778229,2|0,0:0|0:0,0:0:0:0:
116,129,26336,2,0,P|112:176|108:223,1,94.499993778229,0|0,0:0|0:0,0:0:0:0:
186,277,27033,1,0,0:0:0:0:
267,228,27382,2,0,B|323:204|364:229|364:229|388:179|351:129,1,188.999987556458,2|0,0:0|0:0,0:0:0:0:
450,114,28429,6,0,P|469:186|459:252,2,141.749990667343,2|2|0,0:0|0:0|0:0,0:0:0:0:
361,144,29824,2,0,P|298:163|193:77,1,188.999987556458
233,12,30871,1,0,0:0:0:0:
300,75,31219,6,0,P|271:146|162:182,1,188.999987556458,2|0,0:0|0:0,0:0:0:0:
86,140,32266,1,0,0:0:0:0:
19,206,32615,2,0,B|7:277|47:316|47:316|90:282|145:287,1,188.999987556458,0|2,0:0|0:0,0:0:0:0:
204,273,33661,1,0,0:0:0:0:
278,331,34010,6,0,P|351:337|442:250,1,188.999987556458,2|0,0:0|0:0,0:0:0:0:
449,172,35057,1,0,0:0:0:0:
375,112,35405,2,0,P|302:106|211:193,1,188.999987556458,0|0,0:0|0:0,0:0:0:0:
209,270,36452,1,0,0:0:0:0:
279,333,36801,6,0,P|337:329|398:322,1,94.499993778229,2|0,0:0|0:0,0:0:0:0:
394,233,37498,2,0,P|336:237|275:244,1,94.499993778229,0|0,0:0|0:0,0:0:0:0:
209,270,38196,1,0,0:0:0:0:
140,204,38545,2,0,B|73:195|32:237|32:237|1:213|23:168,1,188.999987556458,2|0,0:0|0:0,0:0:0:0:
93,110,39591,6,0,P|213:105|268:66,1,188.999987556458,2|0,0:0|0:0,0:0:0:0:
349,20,40638,2,0,P|360:90|358:103,1,47.2499968891145,0|2,0:0|0:0,0:0:0:0:
358,112,40987,2,0,P|341:183|366:232,1,94.499993778229,2|2,0:0|0:0,0:0:0:0:
437,174,41685,1,0,0:0:0:0:
309,312,42382,6,0,P|215:291|108:349,1,188.999987556458,2|0,0:0|0:0,0:0:0:0:
16,176,43778,2,0,P|110:197|217:139,1,188.999987556458,0|2,0:0|0:0,0:0:0:0:
316,19,45173,5,2,0:3:0:0:
44,108,55638,6,0,P|132:63|188:70,1,141.749990667343,2|0,0:0|0:0,0:0:0:0:
218,75,56336,2,0,B|186:167|266:167|210:283,1,188.999987556458,2|0,0:3|0:0,0:0:0:0:
406,293,57731,2,0,P|424:220|388:99,1,188.999987556458,2|0,0:0|0:0,0:0:0:0:
226,184,59126,6,0,P|190:208|164:248,1,70.8749953336717,2|0,0:3|0:0,0:0:0:0:
124,286,59650,2,0,P|47:211|85:91,1,236.249984445572
260,25,61219,2,0,P|241:85|231:206,1,141.749990667343,2|0,0:0|0:0,0:0:0:0:
260,200,61917,6,0,P|255:223|221:273,1,70.8749953336717,2|0,0:0|0:0,0:0:0:0:
162,285,62440,2,0,P|108:266|94:83,1,236.249984445572
256,72,64010,2,0,P|303:77|349:65,1,94.499993778229,2|0,0:0|0:0,0:0:0:0:
432,21,64708,6,0,P|485:95|453:180,1,188.999987556458,2|0,0:3|0:0,0:0:0:0:
365,214,65754,1,0,0:0:0:0:
315,304,66103,2,0,P|391:314|454:267,2,141.749990667343,2|2|2,0:0|0:0|0:0,0:0:0:0:
244,232,67498,6,0,P|236:160|224:76,1,141.749990667343,2|2,0:3|0:0,0:0:0:0:
248,44,68196,2,0,P|196:52|124:60,1,94.499993778229,0|0,0:0|0:0,0:0:0:0:
123,155,68894,2,0,P|76:160|29:168,1,94.499993778229,2|0,0:0|0:0,0:0:0:0:
0,257,69591,1,2,0:0:0:0:
60,328,69940,6,0,P|160:336|216:256,1,188.999987556458,0|0,0:0|0:0,0:0:0:0:
182,183,70987,2,0,P|159:128|170:67,1,94.499993778229,2|0,0:0|0:0,0:0:0:0:
175,49,71510,1,2,0:0:0:0:
314,21,72033,2,0,P|321:76|333:129,1,94.499993778229,0|2,0:0|0:0,0:0:0:0:
392,184,72731,2,0,P|384:248|388:275,1,47.2499968891145,0|2,0:0|0:0,0:0:0:0:
383,277,73080,5,2,0:3:0:0:
316,346,73429,2,0,P|232:340|203:318,1,94.499993778229,0|0,0:0|0:0,0:0:0:0:
141,291,74126,2,0,P|153:236|151:201,1,47.2499968891145,0|2,0:0|0:0,0:0:0:0:
159,198,74475,1,0,0:0:0:0:
95,129,74824,2,0,P|63:147|-15:148,2,94.499993778229,2|2|0,0:0|0:0|0:0,0:0:0:0:
178,84,75871,6,0,P|210:66|288:65,1,94.499993778229,2|0,0:0|0:0,0:0:0:0:
313,69,76394,1,0,0:0:0:0:
313,69,76568,2,0,P|318:114|326:168,1,94.499993778229,2|0,0:0|0:0,0:0:0:0:
369,179,77091,2,0,P|364:224|356:278,1,94.499993778229,2|0,0:0|0:0,0:0:0:0:
332,313,77615,1,2,0:0:0:0:
244,276,77964,1,0,0:0:0:0:
153,301,78312,1,0,0:0:0:0:
77,357,78661,6,0,P|25:312|36:246,1,141.749990667343,2|2,0:3|0:0,0:0:0:0:
79,224,79359,2,0,P|84:129|86:96,1,94.499993778229,0|0,0:0|0:0,0:0:0:0:
176,106,80057,2,0,P|173:153|171:200,1,94.499993778229,2|0,0:0|0:0,0:0:0:0:
239,265,80754,1,2,0:0:0:0:
292,186,81103,6,0,B|336:216|333:277|333:277|395:295|439:241,1,188.999987556458,0|0,0:0|0:0,0:0:0:0:
495,217,82150,1,0,0:0:0:0:
444,137,82498,2,0,P|438:113|435:81,2,47.2499968891145,0|2|0,0:0|0:0|0:0,0:0:0:0:
371,198,83196,2,0,P|371:253|356:302,2,94.499993778229,2|2|2,0:0|0:0|0:0,0:0:0:0:
294,142,84243,6,0,P|287:94|279:70,2,47.2499968891145,2|0|2,0:3|0:0|0:0,0:0:0:0:
277,186,84766,2,0,P|203:238|142:220,1,141.749990667343,0|2,0:0|0:0,0:0:0:0:
115,206,85464,1,0,0:0:0:0:
115,206,85638,2,0,P|105:150|107:89,1,94.499993778229,2|2,0:0|0:0,0:0:0:0:
182,54,86336,2,0,P|192:110|190:171,1,94.499993778229
275,193,87033,5,2,0:3:0:0:
256,192,87382,12,2,89824,0:3:0:0:
0,204,92615,6,0,P|88:174|126:183,1,107.999996185303,12|8,0:0|0:0,0:0:0:0:
172,205,93138,1,8,0:0:0:0:
172,205,93312,1,8,1:0:0:0:
248,292,93661,2,0,P|324:286|372:277,1,107.999996185303,8|2,0:0|0:0,0:0:0:0:
431,298,94185,1,8,0:0:0:0:
431,298,94359,1,8,0:0:0:0:
484,192,94708,2,0,P|478:131|475:60,1,107.999996185303,8|2,1:0|0:0,0:0:0:0:
372,24,95405,6,0,P|325:73|235:53,1,161.999994277954,10|8,0:0|0:0,0:0:0:0:
172,28,96103,2,0,P|86:39|59:86,1,107.999996185303,8|8,1:0|0:0,0:0:0:0:
28,108,96626,2,0,B|16:178|62:199|62:199|104:173|164:194,1,161.999994277954,8|8,0:0|0:0,0:0:0:0:
210,255,97498,1,8,1:0:0:0:
210,255,97673,2,0,L|224:330,2,53.9999980926514,8|2|2,0:0|0:0|0:0,0:0:0:0:
202,179,98196,6,0,P|212:121|227:57,1,107.999996185303,10|8,0:0|0:0,0:0:0:0:
288,40,98719,1,8,0:0:0:0:
288,40,98894,1,8,1:0:0:0:
400,0,99243,2,0,P|399:86|368:129,1,107.999996185303,0|2,0:0|0:0,0:0:0:0:
344,160,99766,1,8,0:0:0:0:
344,160,99940,1,8,0:0:0:0:
240,104,100289,2,0,P|158:106|96:112,1,107.999996185303,8|2,1:0|0:0,0:0:0:0:
28,168,100987,6,0,P|52:235|140:216,1,161.999994277954,10|8,0:0|0:0,0:0:0:0:
200,208,101684,2,0,P|244:251|227:331,1,107.999996185303,8|8,1:0|0:0,0:0:0:0:
304,340,102208,2,0,P|364:321|484:257,1,161.999994277954,8|8,0:0|0:0,0:0:0:0:
508,176,103080,2,0,P|505:149|498:123,1,53.9999980926514,8|8,1:0|0:0,0:0:0:0:
424,112,103429,2,0,P|419:87|416:52,1,53.9999980926514,2|2,0:0|0:0,0:0:0:0:
352,24,103778,6,0,P|281:14|219:56,1,107.999996185303,12|8,0:0|0:0,0:0:0:0:
184,60,104301,1,10,0:0:0:0:
184,60,104475,1,8,1:0:0:0:
80,120,104824,2,0,P|84:184|92:244,1,107.999996185303,8|2,0:0|0:0,0:0:0:0:
120,300,105347,1,8,0:0:0:0:
120,300,105522,2,0,P|184:292|244:268,1,107.999996185303,8|8,0:0|1:0,0:0:0:0:
316,200,106219,1,0,0:0:0:0:
428,156,106568,6,0,P|436:236|380:316,1,161.999994277954,10|10,0:0|0:0,0:0:0:0:
336,344,107266,2,0,P|276:312|224:308,1,107.999996185303,8|10,1:0|0:0,0:0:0:0:
168,328,107789,2,0,P|92:336|40:252,1,161.999994277954,8|8,0:0|0:0,0:0:0:0:
24,156,108661,2,0,P|76:116|88:112,1,53.9999980926514,8|8,1:0|0:0,0:0:0:0:
136,128,109010,2,0,P|188:100|204:84,1,53.9999980926514,2|2,0:0|0:0,0:0:0:0:
232,48,109359,6,0,P|284:40|356:92,1,107.999996185303,10|8,0:0|0:0,0:0:0:0:
396,107,109882,1,10,0:0:0:0:
396,107,110057,1,8,1:0:0:0:
472,192,110405,2,0,P|472:252|468:288,1,53.9999980926514,10|0,0:0|0:0,0:0:0:0:
360,284,110929,2,0,P|364:212|364:200,1,53.9999980926514,8|8,0:0|0:0,0:0:0:0:
264,168,111452,2,0,P|224:184|152:176,1,107.999996185303,8|2,1:0|0:0,0:0:0:0:
56,120,112150,6,0,P|52:228|108:288,1,161.999994277954,10|10,0:0|0:0,0:0:0:0:
136,316,112847,2,0,P|196:292|252:296,1,107.999996185303,8|10,1:0|0:0,0:0:0:0:
304,328,113371,2,0,B|364:336|364:336|408:284|384:216,1,161.999994277954,8|8,0:0|0:0,0:0:0:0:
328,140,114243,2,0,L|264:128,2,53.9999980926514,8|8|8,1:0|0:0|1:0,0:0:0:0:
400,152,114766,1,8,1:0:0:0:
472,164,114940,6,0,P|496:100|468:44,1,107.999996185303,12|8,0:0|0:0,0:0:0:0:
428,20,115464,1,8,0:0:0:0:
428,20,115638,2,0,P|352:32|308:40,1,107.999996185303,8|8,1:0|0:0,0:0:0:0:
204,64,116336,2,0,P|180:28|144:0,2,53.9999980926514,2|8|8,0:0|0:0|0:0,0:0:0:0:
244,176,117033,2,0,P|304:184|356:160,1,107.999996185303,8|2,1:0|0:0,0:0:0:0:
408,124,117557,1,2,0:0:0:0:
468,168,117731,6,0,P|488:252|396:308,1,161.999994277954,8|8,0:0|0:0,0:0:0:0:
372,328,118429,2,0,B|320:316|320:316|240:332,1,107.999996185303,8|8,1:0|0:0,0:0:0:0:
196,344,118952,2,0,P|116:312|112:204,1,161.999994277954,8|10,0:0|0:0,0:0:0:0:
28,148,119824,2,0,L|52:80,1,53.9999980926514,8|8,1:0|0:0,0:0:0:0:
72,28,120173,1,2,0:0:0:0:
184,68,120522,6,0,P|240:68|316:20,1,107.999996185303,10|8,0:0|0:0,0:0:0:0:
348,8,121045,1,8,0:0:0:0:
416,36,121219,2,0,L|440:152,1,107.999996185303,8|8,1:0|0:0,0:0:0:0:
420,260,121917,2,0,P|476:280|504:316,2,53.9999980926514,2|8|8,0:0|0:0|0:0,0:0:0:0:
308,308,122615,2,0,P|232:336|180:316,1,107.999996185303,8|2,1:0|0:0,0:0:0:0:
100,280,123312,6,0,B|124:200|128:112,1,161.999994277954,10|8,0:0|0:0,0:0:0:0:
128,48,124010,1,8,1:0:0:0:
248,48,124359,1,8,0:0:0:0:
248,48,124533,2,0,P|268:112|216:188,1,161.999994277954,8|8,0:0|0:0,0:0:0:0:
112,244,125405,2,0,P|156:268|172:272,1,53.9999980926514,8|8,1:0|0:0,0:0:0:0:
192,336,125754,2,0,P|242:332|257:327,1,53.9999980926514,2|2,0:0|0:0,0:0:0:0:
308,368,126103,6,0,P|332:300|324:240,1,107.999996185303,12|8,0:0|0:0,0:0:0:0:
300,200,126626,1,8,0:0:0:0:
300,200,126801,1,8,1:0:0:0:
368,104,127150,1,8,0:0:0:0:
432,204,127498,2,0,P|464:212|496:212,2,53.9999980926514,2|8|8,0:0|0:0|0:0,0:0:0:0:
330,265,128196,2,0,P|256:288|202:269,1,107.999996185303,8|2,1:0|0:0,0:0:0:0:
160,256,128719,1,0,0:0:0:0:
128,192,128894,6,0,P|148:116|168:52,1,107.999996185303,10|0,0:0|0:0,0:0:0:0:
204,32,129417,1,8,0:0:0:0:
204,32,129591,1,8,1:0:0:0:
276,128,129940,2,0,P|264:184|264:192,2,53.9999980926514,10|8|2,0:0|0:0|0:0,0:0:0:0:
384,76,130638,1,2,0:0:0:0:
452,176,130987,2,0,P|464:216|468:252,2,53.9999980926514,8|8|2,1:0|0:0|0:0,0:0:0:0:
352,244,131685,6,0,P|264:260|212:264,1,107.999996185303,10|8,0:0|0:0,0:0:0:0:
176,284,132208,1,8,0:0:0:0:
112,248,132382,2,0,P|92:184|104:144,1,107.999996185303,8|8,1:0|0:0,0:0:0:0:
164,44,133080,2,0,P|112:28|104:24,2,53.9999980926514,2|8|10,0:0|0:0|0:0,0:0:0:0:
256,120,133778,2,0,P|320:120|364:88,1,107.999996185303,8|2,1:0|0:0,0:0:0:0:
440,16,134475,6,0,P|472:88|444:176,1,161.999994277954,10|2,0:0|0:0,0:0:0:0:
420,232,135173,2,0,P|352:240|312:280,1,107.999996185303,8|10,1:0|0:0,0:0:0:0:
280,324,135696,2,0,B|224:356|224:356|100:340,1,161.999994277954,8|2,0:0|0:0,0:0:0:0:
52,260,136568,2,0,P|20:308|16:316,2,53.9999980926514,8|8|2,1:0|0:0|0:0,0:0:0:0:
116,224,137091,2,0,P|148:172|152:160,1,53.9999980926514,2|2,0:0|0:3,0:0:0:0:
256,328,148429,6,0,B|312:192|184:188|264:36,1,283.499981334687,2|0,0:3|0:0,0:0:0:0:
328,132,149824,2,0,P|260:160|156:96,1,188.999987556458,2|0,0:0|0:0,0:0:0:0:
362,44,151219,6,0,P|423:140|368:219,3,188.999987556458,2|0|0|2,0:3|0:0|0:0|0:0,0:0:0:0:
184,191,154010,2,0,P|95:196|-2:228,3,188.999987556458,2|0|0|2,0:3|0:0|0:0|0:0,0:0:0:0:
73,49,156801,1,2,0:3:0:0:
140,228,157847,5,0,0:0:0:0:
228,312,158196,2,0,P|308:328|356:228,2,161.999994277954,2|2|2,0:0|0:0|0:0,0:0:0:0:
140,228,159591,2,0,P|144:136|156:88,1,107.999996185303,12|8,0:0|0:0,0:0:0:0:
200,69,160115,1,8,0:0:0:0:
260,112,160289,2,0,P|316:120|396:68,1,107.999996185303,8|8,1:0|0:0,0:0:0:0:
460,172,160987,2,0,P|512:156|516:156,2,53.9999980926514,2|8|10,0:0|0:0|0:0,0:0:0:0:
360,240,161684,2,0,P|288:208|216:220,1,107.999996185303,8|2,1:0|0:0,0:0:0:0:
148,243,162382,6,0,P|84:243|36:207,1,107.999996185303,10|0,0:0|0:0,0:0:0:0:
11,156,162905,1,8,0:0:0:0:
44,88,163080,2,0,P|112:76|168:68,1,107.999996185303,8|10,1:0|0:0,0:0:0:0:
200,16,163603,2,0,P|224:72|172:140,1,107.999996185303,10|0,0:0|0:0,0:0:0:0:
164,172,164126,1,10,0:0:0:0:
256,248,164475,2,0,P|282:245|309:240,1,53.9999980926514,8|8,1:0|0:0,0:0:0:0:
380,224,164824,1,2,0:0:0:0:
488,280,165173,6,0,P|496:188|464:144,1,107.999996185303,10|8,0:0|0:0,0:0:0:0:
450,115,165696,1,8,0:0:0:0:
376,124,165871,2,0,P|320:132|264:96,1,107.999996185303,8|10,1:0|0:0,0:0:0:0:
168,8,166568,2,0,P|144:76|144:88,1,53.9999980926514,2|8,0:0|0:0,0:0:0:0:
128,128,166917,1,10,0:0:0:0:
16,172,167266,1,8,1:0:0:0:
60,280,167615,1,2,0:0:0:0:
172,236,167964,6,0,P|244:216|312:228,1,107.999996185303,10|0,0:0|0:0,0:0:0:0:
340,184,168487,1,8,0:0:0:0:
340,184,168661,2,0,P|444:200|484:184,1,107.999996185303,8|10,1:0|0:0,0:0:0:0:
496,148,169184,2,0,P|492:72|412:36,1,161.999994277954,10|8,0:0|0:0,0:0:0:0:
304,60,170057,2,0,P|320:4|320:-4,2,53.9999980926514,8|8|2,1:0|0:0|0:0,0:0:0:0:
232,156,170754,6,0,P|232:240|268:284,1,107.999996185303,12|8,0:0|0:0,0:0:0:0:
300,306,171278,1,8,0:0:0:0:
254,364,171452,2,0,P|186:376|106:372,1,107.999996185303,8|8,1:0|0:0,0:0:0:0:
51,305,172150,2,0,P|-3:331|-29:337,2,53.9999980926514,2|8|10,0:0|0:0|0:0,0:0:0:0:
151,241,172847,2,0,P|181:151|154:102,1,107.999996185303,8|2,1:0|0:0,0:0:0:0:
170,22,173545,6,0,P|214:68|314:37,1,161.999994277954,10|8,0:0|0:0,0:0:0:0:
371,23,174243,2,0,P|430:57|408:120,1,107.999996185303,8|10,1:0|0:0,0:0:0:0:
392,153,174766,2,0,P|385:225|394:329,1,161.999994277954,10|10,0:0|0:0,0:0:0:0:
294,382,175638,1,8,1:0:0:0:
294,382,175987,1,2,0:0:0:0:
248,272,176336,6,0,P|178:238|132:257,1,107.999996185303,10|10,0:0|0:0,0:0:0:0:
81,262,176859,2,0,P|67:212|68:189,1,53.9999980926514,8|8,0:0|1:0,0:0:0:0:
45,93,177382,2,0,P|109:125|179:72,1,161.999994277954,8|8,0:0|0:0,0:0:0:0:
207,11,178080,1,10,0:0:0:0:
304,78,178429,2,0,P|316:160|320:197,1,107.999996185303,8|0,1:0|0:0,0:0:0:0:
299,302,179126,5,10,0:0:0:0:
256,192,179475,12,2,181917,0:3:0:0:
28,312,184701,6,0,P|140:292|164:264,1,107.999996185303,12|8,0:0|0:0,0:0:0:0:
188,252,185224,1,8,0:0:0:0:
188,252,185398,2,0,P|252:244|336:248,1,107.999996185303,8|8,1:0|0:0,0:0:0:0:
408,284,186096,2,0,P|424:344|436:372,2,53.9999980926514,2|8|10,0:0|0:0|0:0,0:0:0:0:
476,184,186794,1,8,1:0:0:0:
400,92,187143,2,0,P|348:104|324:112,1,53.9999980926514,0|2,0:0|0:0,0:0:0:0:
288,148,187491,6,0,P|288:208|248:260,1,107.999996185303,10|2,0:0|0:0,0:0:0:0:
200,288,188015,1,8,0:0:0:0:
200,288,188189,2,0,P|140:268|84:272,1,107.999996185303,8|10,1:0|0:0,0:0:0:0:
24,280,188712,2,0,P|12:220|16:196,1,53.9999980926514,8|2,0:0|0:0,0:0:0:0:
64,120,189236,1,10,0:0:0:0:
180,88,189584,2,0,P|201:51|212:13,2,53.9999980926514,8|8|2,1:0|0:0|0:0,0:0:0:0:
128,196,190282,6,0,P|128:276|152:316,1,107.999996185303,10|8,0:0|0:0,0:0:0:0:
205,343,190805,1,10,0:0:0:0:
205,343,190980,1,8,1:0:0:0:
262,242,191329,2,0,P|345:190|389:200,1,107.999996185303,10|0,0:0|0:0,0:0:0:0:
426,206,191852,1,8,0:0:0:0:
426,206,192026,1,10,0:0:0:0:
506,118,192375,2,0,P|447:90|380:99,1,107.999996185303,8|2,1:0|0:0,0:0:0:0:
293,133,193073,6,0,P|235:153|143:107,1,161.999994277954,10|10,0:0|0:0,0:0:0:0:
126,43,193771,2,0,P|80:81|78:137,1,107.999996185303,8|10,1:0|0:0,0:0:0:0:
89,203,194294,1,8,0:0:0:0:
89,203,194468,2,0,P|80:254|37:286,1,107.999996185303,2|8,0:0|0:0,0:0:0:0:
131,349,195166,2,0,P|178:336|196:337,1,53.9999980926514,8|8,1:0|0:0,0:0:0:0:
255,346,195515,1,2,0:0:0:0:
369,377,195864,6,0,P|390:321|367:258,1,107.999996185303,12|8,0:0|0:0,0:0:0:0:
326,224,196387,1,8,0:0:0:0:
326,224,196561,2,0,P|315:171|336:122,1,107.999996185303,8|8,1:0|0:0,0:0:0:0:
437,61,197259,2,0,P|488:57|517:46,2,53.9999980926514,2|8|10,0:0|0:0|0:0,0:0:0:0:
328,12,197957,2,0,P|260:11|204:40,1,107.999996185303,8|0,1:0|0:0,0:0:0:0:
140,110,198654,6,0,P|139:153|69:210,1,107.999996185303,10|2,0:0|0:0,0:0:0:0:
34,236,199177,1,8,0:0:0:0:
34,236,199352,2,0,P|35:322|66:354,1,107.999996185303,8|10,1:0|0:0,0:0:0:0:
113,363,199875,2,0,P|204:346|298:334,1,161.999994277954,8|10,0:0|0:0,0:0:0:0:
382,291,200747,2,0,P|444:307|460:315,2,53.9999980926514,8|8|2,1:0|0:0|0:0,0:0:0:0:
285,220,201445,6,0,P|265:158|296:97,1,107.999996185303,10|8,0:0|0:0,0:0:0:0:
327,65,201968,1,10,0:0:0:0:
327,65,202143,1,8,1:0:0:0:
213,28,202491,2,0,P|125:47|20:96,1,161.999994277954,10|8,0:0|0:0,0:0:0:0:
21,140,203189,1,8,0:0:0:0:
50,256,203538,1,8,1:0:0:0:
165,224,203887,2,0,P|228:210|232:210,1,53.9999980926514,2|2,0:0|0:0,0:0:0:0:
288,224,204236,6,0,P|344:269|444:227,1,161.999994277954,10|10,0:0|0:0,0:0:0:0:
482,202,204933,1,8,1:0:0:0:
476,82,205282,1,10,0:0:0:0:
476,82,205457,2,0,B|397:50|394:118|276:51,1,161.999994277954,8|10,0:0|0:0,0:0:0:0:
205,27,206329,2,0,P|192:82|178:114,1,53.9999980926514,8|8,1:0|0:0,0:0:0:0:
156,142,206677,1,8,1:0:0:0:
156,142,206852,1,8,1:0:0:0:
372,156,208073,5,2,0:0:0:0:
284,72,208422,2,0,P|204:56|156:156,2,161.999994277954,2|2|2,0:0|0:0|0:0,0:0:0:0:
372,156,209817,2,0,P|368:248|356:296,1,107.999996185303,12|8,0:0|0:0,0:0:0:0:
313,316,210341,1,8,0:0:0:0:
252,272,210515,2,0,P|196:264|116:316,1,107.999996185303,8|8,1:0|0:0,0:0:0:0:
52,212,211213,2,0,P|0:228|-4:228,2,53.9999980926514,2|8|8,0:0|0:0|0:0,0:0:0:0:
152,144,211910,2,0,P|224:176|296:164,1,107.999996185303,8|2,1:0|0:0,0:0:0:0:
364,141,212608,6,0,P|428:141|476:177,1,107.999996185303,10|0,0:0|0:0,0:0:0:0:
501,228,213131,1,8,0:0:0:0:
468,296,213306,2,0,P|400:308|344:316,1,107.999996185303,8|10,1:0|0:0,0:0:0:0:
312,368,213829,2,0,P|288:312|340:244,1,107.999996185303,10|0,0:0|0:0,0:0:0:0:
348,212,214352,1,10,0:0:0:0:
256,136,214701,2,0,P|230:139|203:144,1,53.9999980926514,8|8,1:0|0:0,0:0:0:0:
132,160,215050,1,2,0:0:0:0:
24,104,215399,6,0,P|16:196|48:240,1,107.999996185303,10|8,0:0|0:0,0:0:0:0:
62,270,215922,1,8,0:0:0:0:
136,260,216097,2,0,P|192:252|248:288,1,107.999996185303,8|10,1:0|0:0,0:0:0:0:
344,376,216794,2,0,P|368:308|368:296,1,53.9999980926514,2|8,0:0|0:0,0:0:0:0:
384,256,217143,1,10,0:0:0:0:
496,212,217492,1,8,1:0:0:0:
452,104,217841,1,2,0:0:0:0:
340,148,218190,6,0,P|268:168|200:156,1,107.999996185303,10|0,0:0|0:0,0:0:0:0:
169,133,218713,1,8,0:0:0:0:
169,133,218887,2,0,P|65:117|25:133,1,107.999996185303,8|8,1:0|0:0,0:0:0:0:
20,175,219410,2,0,P|24:251|104:287,1,161.999994277954,10|10,0:0|0:0,0:0:0:0:
206,318,220283,2,0,P|190:374|190:382,2,53.9999980926514,8|8|2,1:0|0:0|0:0,0:0:0:0:
280,228,220980,6,0,P|280:144|244:100,1,107.999996185303,12|8,0:0|0:0,0:0:0:0:
212,78,221504,1,8,0:0:0:0:
258,20,221678,2,0,P|326:8|406:12,1,107.999996185303,8|8,1:0|0:0,0:0:0:0:
461,79,222376,2,0,P|515:53|541:47,2,53.9999980926514,2|8|10,0:0|0:0|0:0,0:0:0:0:
361,143,223073,2,0,P|331:233|358:282,1,107.999996185303,8|2,1:0|0:0,0:0:0:0:
342,362,223771,6,0,P|298:316|198:347,1,161.999994277954,10|10,0:0|0:0,0:0:0:0:
141,361,224469,2,0,P|82:327|104:264,1,107.999996185303,8|10,1:0|0:0,0:0:0:0:
120,231,224992,2,0,P|127:159|118:55,1,161.999994277954,8|10,0:0|0:0,0:0:0:0:
218,2,225864,1,8,1:0:0:0:
218,2,226213,1,2,0:0:0:0:
264,112,226562,6,0,P|334:146|380:127,1,107.999996185303,10|10,0:0|0:0,0:0:0:0:
431,122,227085,2,0,P|445:172|444:195,1,53.9999980926514,8|8,0:0|1:0,0:0:0:0:
467,291,227608,2,0,P|403:259|333:312,1,161.999994277954,8|8,0:0|0:0,0:0:0:0:
305,373,228306,1,10,0:0:0:0:
208,306,228655,2,0,P|196:224|192:187,1,107.999996185303,8|2,1:0|0:0,0:0:0:0:
213,82,229352,6,0,P|272:110|351:54,1,161.999994277954,10|10,0:0|0:0,0:0:0:0:
395,6,230050,2,0,P|419:81|398:117,1,107.999996185303,8|10,1:0|0:0,0:0:0:0:
359,160,230573,2,0,P|331:210|406:310,1,161.999994277954,8|8,0:0|0:0,0:0:0:0:
473,241,231445,2,0,P|478:179|477:167,2,53.9999980926514,8|8|8,1:0|0:0|1:0,0:0:0:0:
505,309,231968,2,0,P|500:371|501:383,1,53.9999980926514,8|2,1:0|0:3,0:0:0:0:
441,335,234933,6,0,P|353:349|277:288,1,161.999994277954,12|8,0:0|0:0,0:0:0:0:
259,249,235631,2,0,P|261:176|266:103,1,107.999996185303,8|8,1:0|0:0,0:0:0:0:
181,53,236329,2,0,P|183:3|184:-45,2,53.9999980926514,2|8|8,0:0|0:0|0:0,0:0:0:0:
84,124,237026,2,0,P|77:195|109:246,1,107.999996185303,8|0,1:0|0:0,0:0:0:0:
175,313,237724,6,0,P|239:270|348:291,1,161.999994277954,10|8,0:0|0:0,0:0:0:0:
391,299,238422,2,0,P|453:296|493:252,1,107.999996185303,8|8,1:0|0:0,0:0:0:0:
500,195,238945,1,8,0:0:0:0:
456,135,239119,2,0,P|394:126|310:128,1,107.999996185303,2|8,0:0|0:0,0:0:0:0:
245,186,239817,2,0,P|191:184|137:176,1,107.999996185303,8|2,1:0|0:0,0:0:0:0:
32,117,240515,6,0,P|14:196|28:234,1,107.999996185303,10|8,0:0|0:0,0:0:0:0:
73,277,241038,1,8,0:0:0:0:
73,277,241212,2,0,P|126:278|180:286,1,107.999996185303,8|8,1:0|0:0,0:0:0:0:
290,330,241910,2,0,P|291:357|296:382,2,53.9999980926514,2|8|8,0:0|0:0|0:0,0:0:0:0:
335,228,242608,2,0,P|345:167|326:119,1,107.999996185303,8|0,1:0|0:0,0:0:0:0:
220,78,243305,6,0,P|207:129|224:180,1,107.999996185303,10|0,0:0|0:0,0:0:0:0:
262,244,243829,1,8,0:0:0:0:
335,228,244003,2,0,P|418:212|473:237,1,107.999996185303,8|8,1:0|0:0,0:0:0:0:
426,337,244701,2,0,P|343:353|288:328,1,107.999996185303,2|8,0:0|0:0,0:0:0:0:
262,244,245398,2,0,P|247:154|239:117,1,107.999996185303,8|2,1:0|0:0,0:0:0:0:
224,66,245922,1,2,0:0:0:0:
224,66,246096,6,0,P|160:75|99:49,1,107.999996185303,4|0,0:0|0:0,0:0:0:0:
26,138,246794,2,0,P|23:192|54:247,1,107.999996185303,8|0,0:1|0:0,0:0:0:0:
142,311,247491,2,0,P|153:244|163:199,1,107.999996185303,2|0,0:0|0:0,0:0:0:0:
254,127,248189,2,0,P|273:199|279:240,1,107.999996185303,8|0,0:1|0:0,0:0:0:0:
379,294,248887,6,0,P|397:228|384:170,1,107.999996185303,2|0,0:0|0:0,0:0:0:0:
501,142,249584,2,0,P|513:241|461:384,2,215.999992370606,8|2|8,0:1|0:0|0:1,0:0:0:0:
260,91,251677,5,2,0:0:0:0:
191,320,252375,2,0,P|305:320|391:252,2,215.999992370606,2|2|2,0:0|0:0|0:0,0:0:0:0:
66,117,254468,6,0,P|191:97|310:96,1,215.999992370606,2|2,0:0|0:0,0:0:0:0:
447,269,255864,2,0,P|322:289|203:290,1,215.999992370606,2|2,0:0|0:0,0:0:0:0:
116,262,256910,2,0,P|95:312|91:320,1,53.9999980926514,2|0,0:0|0:0,0:0:0:0:
