osu file format v14

[General]
AudioFilename: ninelie.mp3
AudioLeadIn: 0
PreviewTime: 157760
Countdown: 0
SampleSet: Soft
StackLeniency: 0.5
Mode: 0
LetterboxInBreaks: 0
WidescreenStoryboard: 1

[Editor]
Bookmarks: 89771,92562,181864,184655,240510
DistanceSpacing: 1.4
BeatDivisor: 8
GridSize: 4
TimelineZoom: 1

[Metadata]
Title:ninelie
TitleUnicode:ninelie
Artist:Aimer with chelly (EGOIST)
ArtistUnicode:Aimer with chelly (EGOIST)
Creator:jonathanlfj
Version:Sakuya's Insane
Source:甲鉄城のカバネリ
Tags:CSLM captin1 Trust LunarSakuya 澤野弘之 Sawano Hiroyuki Kabaneri of the Iron Fortress koutetsujou no ed ending
BeatmapID:1723657
BeatmapSetID:443879

[Difficulty]
HPDrainRate:7
CircleSize:4
OverallDifficulty:7
ApproachRate:9
SliderMultiplier:3.5
SliderTickRate:1

[Events]
//Background and Video events
0,0,"a.jpg",0,0
//Break Periods
//Storyboard Layer 0 (Background)
//Storyboard Layer 1 (Fail)
//Storyboard Layer 2 (Pass)
//Storyboard Layer 3 (Foreground)
//Storyboard Sound Samples

[TimingPoints]
11685,697.674418604651,4,2,1,40,1,0
11685,-142.857142857143,4,2,1,40,0,0
22847,-142.857142857143,4,2,1,50,0,0
45173,-166.666666666667,4,2,1,40,0,0
58254,-166.666666666667,4,2,1,40,0,0
58429,-166.666666666667,4,2,1,40,0,0
58952,-166.666666666667,4,2,1,40,0,0
59126,-166.666666666667,4,2,1,40,0,0
63661,-166.666666666667,4,2,1,20,0,0
64010,-166.666666666667,4,2,1,40,0,0
65754,-142.857142857143,4,2,1,40,0,0
66103,-142.857142857143,4,2,1,50,0,0
66626,-142.857142857143,4,2,1,60,0,0
67498,-125,4,2,1,70,0,0
92615,-100,4,2,1,70,0,0
137266,-142.857142857143,4,2,1,50,0,0
148429,-166.666666666667,4,2,1,40,0,0
157847,-125,4,2,1,40,0,0
158196,-125,4,2,1,50,0,0
158719,-125,4,2,1,60,0,0
159243,-125,4,2,1,70,0,0
159591,-90.9090909090909,4,2,1,80,0,1
181917,-100,4,2,1,70,0,0
184701,697.674418604651,4,2,1,70,1,0
208073,-125,4,2,1,50,0,0
208945,-111.111111111111,4,2,1,60,0,0
209468,-100,4,2,1,70,0,0
209817,-90.9090909090909,4,2,1,80,0,1
232142,-100,4,2,1,70,0,0
234933,-90.9090909090909,4,2,1,70,0,1
246096,-111.111111111111,4,2,1,60,0,0

[Colours]
Combo1 : 249,47,47
Combo2 : 254,151,37
Combo3 : 138,83,253
Combo4 : 254,120,231

[HitObjects]
128,76,11685,6,0,P|124:112|120:156,1,61.2499981307984,2|0,0:0|0:0,0:0:0:0:
224,296,12033,2,0,P|221:259|216:215,1,61.2499981307984,0|0,0:0|0:0,0:0:0:0:
58,267,12382,2,0,L|120:264,1,61.2499981307984,2|0,0:0|0:0,0:0:0:0:
184,140,12731,1,2,0:0:0:0:
88,180,12905,1,0,0:0:0:0:
288,156,13080,2,0,L|280:95,1,61.2499981307984,2|0,0:0|0:0,0:0:0:0:
384,228,13429,2,0,L|376:300,1,61.2499981307984,0|0,0:0|0:0,0:0:0:0:
388,132,13778,1,2,0:0:0:0:
284,212,13952,1,0,0:0:0:0:
388,132,14126,2,0,P|348:128|312:116,1,61.2499981307984,0|2,0:0|0:0,0:0:0:0:
176,60,14475,6,0,P|212:52|244:48,1,61.2499981307984,2|0,0:0|0:0,0:0:0:0:
108,160,14824,2,0,P|104:188|104:228,1,61.2499981307984,0|0,0:0|0:0,0:0:0:0:
228,140,15173,2,0,P|260:156|288:176,2,61.2499981307984,2|0|2,0:0|0:0|0:0,0:0:0:0:
204,248,15696,1,0,0:0:0:0:
356,228,15871,2,0,P|368:188|376:152,1,61.2499981307984,2|0,0:0|0:0,0:0:0:0:
204,248,16219,2,0,P|220:272|236:312,1,61.2499981307984,0|0,0:0|0:0,0:0:0:0:
104,240,16568,1,2,0:0:0:0:
172,152,16743,1,0,0:0:0:0:
104,240,16917,2,0,P|72:252|28:260,1,61.2499981307984,0|2,0:0|0:0,0:0:0:0:
256,132,17266,6,0,L|324:136,1,61.2499981307984,2|0,0:0|0:0,0:0:0:0:
312,236,17615,2,0,L|380:240,1,61.2499981307984,0|0,0:0|0:0,0:0:0:0:
196,280,17964,2,0,L|120:288,2,61.2499981307984,2|0|2,0:0|0:0|0:0,0:0:0:0:
292,336,18487,1,0,0:0:0:0:
372,256,18661,2,0,P|380:224|384:176,1,61.2499981307984,2|0,0:0|0:0,0:0:0:0:
256,104,19010,2,0,P|276:136|288:160,1,61.2499981307984,0|0,0:0|0:0,0:0:0:0:
176,184,19359,1,2,0:0:0:0:
176,68,19533,2,0,P|196:40|224:20,2,61.2499981307984,0|0|2,0:0|0:0|0:0,0:0:0:0:
72,164,20057,6,0,L|84:240,1,61.2499981307984,2|0,0:0|0:0,0:0:0:0:
260,204,20405,2,0,L|272:280,1,61.2499981307984,0|0,0:0|0:0,0:0:0:0:
108,308,20754,2,0,P|72:316|28:320,2,61.2499981307984,2|0|2,0:0|0:0|0:0,0:0:0:0:
202,191,21278,1,0,0:0:0:0:
68,112,21452,2,0,P|64:144|68:184,1,61.2499981307984,2|0,0:0|0:0,0:0:0:0:
208,252,21801,2,0,P|208:219|200:183,1,61.2499981307984,0|0,0:0|0:0,0:0:0:0:
120,304,22150,1,2,0:0:0:0:
204,352,22324,1,0,0:0:0:0:
300,328,22498,2,0,P|328:316|356:296,1,61.2499981307984,0|2,0:0|0:0,0:0:0:0:
224,108,22847,6,0,P|208:164|208:232,1,122.499996261597,2|0,0:3|0:0,0:0:0:0:
120,108,23371,1,2,0:0:0:0:
224,72,23545,2,0,L|292:72,1,61.2499981307984,0|0,0:0|0:0,0:0:0:0:
400,160,23894,2,0,L|336:160,1,61.2499981307984,0|2,0:0|0:0,0:0:0:0:
216,224,24243,2,0,P|144:204|88:212,1,122.499996261597,0|0,0:0|0:0,0:0:0:0:
192,320,24766,1,2,0:0:0:0:
312,240,24940,2,0,P|352:228|376:216,1,61.2499981307984,0|0,0:0|0:0,0:0:0:0:
220,68,25289,2,0,L|224:140,1,61.2499981307984,0|2,0:0|0:0,0:0:0:0:
336,316,25638,6,0,P|368:308|396:296,1,61.2499981307984,2|0,0:0|0:0,0:0:0:0:
304,176,25987,2,0,P|256:212|188:216,1,122.499996261597,0|0,0:0|0:0,0:0:0:0:
104,148,26510,1,0,0:0:0:0:
180,72,26685,2,0,L|260:56,1,61.2499981307984,0|2,0:0|0:0,0:0:0:0:
112,236,27033,1,0,0:0:0:0:
112,236,27382,2,0,L|104:372,1,122.499996261597,2|0,0:0|0:0,0:0:0:0:
216,256,27905,1,0,0:0:0:0:
208,148,28080,2,0,P|204:112|200:80,1,61.2499981307984,0|2,0:0|0:0,0:0:0:0:
324,252,28429,6,0,P|380:252|460:236,1,122.499996261597,2|0,0:0|0:0,0:0:0:0:
424,144,28952,1,2,0:0:0:0:
292,236,29126,2,0,L|292:308,1,61.2499981307984,0|0,0:0|0:0,0:0:0:0:
216,152,29475,1,0,0:0:0:0:
216,152,29824,2,0,P|200:84|204:20,1,122.499996261597,0|0,0:0|0:0,0:0:0:0:
308,152,30347,1,2,0:0:0:0:
200,240,30522,2,0,L|132:232,1,61.2499981307984,0|0,0:0|0:0,0:0:0:0:
308,152,30871,1,0,0:0:0:0:
312,260,31045,1,2,0:0:0:0:
404,120,31219,6,0,P|364:68|300:52,1,122.499996261597,2|0,0:0|0:0,0:0:0:0:
200,120,31743,2,0,L|192:260,1,122.499996261597,2|0,0:0|0:0,0:0:0:0:
176,352,32266,1,0,0:0:0:0:
96,280,32440,1,2,0:0:0:0:
272,300,32615,2,0,L|344:296,1,61.2499981307984,0|0,0:0|0:0,0:0:0:0:
184,160,32964,2,0,L|120:152,1,61.2499981307984,0|2,0:0|0:0,0:0:0:0:
292,40,33312,2,0,P|300:76|304:112,1,61.2499981307984,2|0,0:0|0:0,0:0:0:0:
208,248,33661,2,0,P|236:236|276:224,1,61.2499981307984,0|2,0:0|0:0,0:0:0:0:
412,344,34010,6,0,L|284:336,1,122.499996261597,2|0,0:0|0:0,0:0:0:0:
184,280,34533,1,2,0:0:0:0:
288,216,34708,2,0,L|280:144,1,61.2499981307984,0|0,0:0|0:0,0:0:0:0:
168,96,35057,2,0,L|176:168,1,61.2499981307984,0|2,0:0|0:0,0:0:0:0:
332,72,35405,2,0,B|392:52|452:80,1,122.499996261597,0|0,0:0|0:0,0:0:0:0:
384,236,35929,1,2,0:0:0:0:
260,140,36103,1,0,0:0:0:0:
292,284,36278,1,0,0:0:0:0:
168,164,36452,2,0,P|168:124|180:80,1,61.2499981307984,0|2,0:0|0:0,0:0:0:0:
169,269,36801,6,0,P|104:284|48:280,1,122.499996261597,2|0,0:0|0:0,0:0:0:0:
228,196,37324,1,2,0:0:0:0:
144,152,37498,2,0,P|92:112|64:48,1,122.499996261597,0|0,0:0|0:0,0:0:0:0:
228,100,38022,1,2,0:0:0:0:
328,156,38196,2,0,L|404:144,1,61.2499981307984,0|0,0:0|0:0,0:0:0:0:
280,296,38545,2,0,B|196:336|120:288|120:288|184:272|200:224,1,244.999992523194,2|0,0:0|0:0,0:0:0:0:
280,56,39591,6,0,L|272:188,1,122.499996261597,2|0,0:0|0:0,0:0:0:0:
372,220,40115,2,0,L|368:292,2,61.2499981307984,2|0|0,0:0|0:0|0:0,0:0:0:0:
184,164,40638,1,0,0:0:0:0:
280,280,40812,1,2,0:0:0:0:
339,135,40987,1,2,0:0:0:0:
339,135,41336,2,0,P|288:100|216:84,1,122.499996261597,2|0,0:0|0:0,0:0:0:0:
136,160,41859,1,0,0:0:0:0:
256,232,42033,2,0,L|264:300,1,61.2499981307984,0|2,0:0|0:0,0:0:0:0:
114,279,42382,6,0,P|123:219|136:159,1,122.499996261597,2|0,0:0|0:0,0:0:0:0:
264,152,42905,2,0,P|344:144|408:128,1,122.499996261597,2|0,0:0|0:0,0:0:0:0:
176,64,43429,2,0,P|136:52|88:44,1,61.2499981307984,0|2,0:0|0:0,0:0:0:0:
200,188,43778,2,0,L|212:264,1,61.2499981307984,0|0,0:0|0:0,0:0:0:0:
120,156,44126,1,0,0:0:0:0:
256,108,44301,1,2,0:0:0:0:
124,256,44475,2,0,L|56:236,1,61.2499981307984,2|0,0:0|0:0,0:0:0:0:
212,76,44824,2,0,L|220:152,1,61.2499981307984,0|2,0:0|0:0,0:0:0:0:
228,304,45173,6,0,P|312:264|408:340,1,209.999993591309,2|0,0:3|0:0,0:0:0:0:
152,184,46219,1,0,0:0:0:0:
324,236,46568,2,0,P|326:183|331:131,1,104.999996795654,2|0,0:0|0:0,0:0:0:0:
232,60,47091,1,0,0:0:0:0:
143,125,47266,2,0,B|103:185|139:233|139:233|175:205,1,157.499995193482,2|0,0:0|0:0,0:0:0:0:
248,184,47964,6,0,P|316:188|360:204,1,104.999996795654,2|0,0:3|0:0,0:0:0:0:
300,288,48487,2,0,P|428:264|424:132,1,262.499991989136,0|2,0:0|0:0,0:0:0:0:
352,76,49533,2,0,L|288:56,1,52.4999983978272,0|0,0:0|0:0,0:0:0:0:
336,176,49882,1,0,0:0:0:0:
438,150,50057,2,0,L|504:134,1,52.4999983978272,2|0,0:0|0:0,0:0:0:0:
336,176,50405,2,0,L|324:248,1,52.4999983978272,0|0,0:0|0:0,0:0:0:0:
240,192,50754,6,0,B|200:200|200:200|108:184,1,104.999996795654,2|0,0:3|0:0,0:0:0:0:
28,124,51278,2,0,B|22:168|22:168|41:196|51:231|51:231|41:287,1,157.499995193482,0|0,0:0|0:0,0:0:0:0:
148,332,51975,1,0,0:0:0:0:
148,332,52150,2,0,P|216:332|272:316,1,104.999996795654,2|0,0:0|0:0,0:0:0:0:
400,212,52847,2,0,B|432:168|432:168|420:60,1,157.499995193482,2|0,0:0|0:0,0:0:0:0:
340,36,53545,6,0,P|308:32|249:37,1,78.7499975967408,2|0,0:3|0:0,0:0:0:0:
104,168,54068,2,0,B|148:200|204:176|204:176|260:148|308:172,1,209.999993591309,0|0,0:0|0:0,0:0:0:0:
396,264,54940,2,0,L|464:260,2,52.4999983978272,2|0|0,0:0|0:0|0:0,0:0:0:0:
304,312,55464,1,0,0:0:0:0:
212,264,55638,2,0,B|184:216|204:160|204:160|144:180,1,157.499995193482,2|0,0:0|0:0,0:0:0:0:
168,76,56336,6,0,P|240:72|284:196,1,209.999993591309,2|0,0:3|0:0,0:0:0:0:
112,336,57731,2,0,B|108:292|108:292|124:232|124:232|120:176,1,157.499995193482,2|0,0:0|0:0,0:0:0:0:
56,124,58429,2,0,B|104:95|104:95|156:120|216:88,1,157.499995193482,0|0,0:0|0:0,0:0:0:0:
296,72,59126,6,0,P|295:111|305:162,1,78.7499975967408,2|0,0:3|0:0,0:0:0:0:
364,256,59650,2,0,B|296:272|256:328|256:328|216:272|152:256,1,262.499991989136,0|0,0:0|0:0,0:0:0:0:
416,116,61219,2,0,P|368:84|272:92,1,157.499995193482,2|0,0:0|0:0,0:0:0:0:
200,56,61917,6,0,L|102:52,1,78.7499975967408,2|0,0:3|0:0,0:0:0:0:
196,168,62440,2,0,B|160:272|256:324|256:324|348:272|316:168,1,367.49998878479,0|0,0:0|0:0,0:0:0:0:
160,88,64010,2,0,B|112:116|104:176|104:176|56:204|52:264,1,209.999993591309,2|2,0:0|0:3,0:0:0:0:
412,320,65754,5,0,0:0:0:0:
320,184,66103,2,0,P|300:256|288:316,1,122.499996261597,2|0,0:0|0:0,0:0:0:0:
216,192,66626,2,0,P|212:132|196:64,1,122.499996261597,2|0,0:0|0:0,0:0:0:0:
120,136,67150,2,0,P|80:156|40:172,1,61.2499981307984,2|0,0:0|0:0,0:0:0:0:
324,80,67498,6,0,P|392:100|436:164,1,140,2|0,0:3|0:0,0:0:0:0:
296,244,68022,1,2,0:0:0:0:
200,156,68196,2,0,B|120:140|60:192,1,140,0|0,0:0|0:0,0:0:0:0:
296,244,68719,1,2,0:0:0:0:
368,140,68894,2,0,P|412:128|444:120,1,70,2|0,0:0|0:0,0:0:0:0:
208,184,69243,2,0,P|200:224|196:264,1,70,0|0,0:0|0:0,0:0:0:0:
276,104,69591,2,0,P|224:80|200:72,1,70,2|0,0:0|0:0,0:0:0:0:
100,240,69940,6,0,P|116:304|180:348,1,140,0|2,0:0|0:0,0:0:0:0:
272,200,70464,1,0,0:0:0:0:
136,136,70638,2,0,P|140:92|148:56,1,70
400,88,70987,2,0,L|252:100,1,140,2|0,0:0|0:0,0:0:0:0:
384,192,71510,1,2,0:0:0:0:
272,228,71684,2,0,L|184:216,1,70,0|0,0:0|0:0,0:0:0:0:
48,112,72033,2,0,P|51:151|56:184,1,70,0|0,0:0|0:0,0:0:0:0:
160,360,72382,2,0,L|164:256,1,105,2|0,0:0|0:0,0:0:0:0:
168,220,72731,2,0,P|208:228|240:232,1,70,0|2,0:0|0:0,0:0:0:0:
136,96,73080,5,2,0:3:0:0:
72,232,73254,1,0,0:0:0:0:
224,136,73429,2,0,P|260:124|300:104,1,70,0|2,0:0|0:0,0:0:0:0:
444,252,73778,2,0,P|372:252|300:232,1,140,0|0,0:0|0:0,0:0:0:0:
208,296,74301,1,2,0:0:0:0:
240,168,74475,2,0,L|232:84,1,70,0|0,0:0|0:0,0:0:0:0:
116,236,74824,2,0,L|100:324,1,70,2|0,0:0|0:0,0:0:0:0:
328,208,75173,2,0,P|344:128|324:68,1,140,2|0,0:0|0:0,0:0:0:0:
327,73,75871,6,0,P|387:81|415:85,1,70,2|0,0:0|0:0,0:0:0:0:
160,124,76219,2,0,P|124:128|88:136,1,70,0|0,0:0|0:0,0:0:0:0:
296,256,76568,2,0,P|356:256|436:224,1,140,2|0,0:0|0:0,0:0:0:0:
176,196,77091,2,0,P|152:264|140:348,1,140,2|0,0:0|0:0,0:0:0:0:
288,132,77615,2,0,P|296:180|304:220,1,70,2|0,0:0|0:0,0:0:0:0:
140,332,77964,2,0,P|132:284|128:248,1,70,0|0,0:0|0:0,0:0:0:0:
380,296,78312,1,0,0:0:0:0:
380,296,78661,6,0,B|324:312|324:312|240:304,1,140,2|0,0:3|0:0,0:0:0:0:
196,200,79184,1,2,0:0:0:0:
196,200,79359,2,0,L|272:208,1,70,0|0,0:0|0:0,0:0:0:0:
424,108,79708,2,0,L|344:112,1,70,0|2,0:0|0:0,0:0:0:0:
124,128,80057,2,0,P|96:184|100:236,1,105,2|0,0:0|0:0,0:0:0:0:
108,252,80405,2,0,L|100:336,1,70,0|0,0:0|0:0,0:0:0:0:
284,232,80754,2,0,L|360:228,1,70,2|0,0:0|0:0,0:0:0:0:
192,148,81103,2,0,P|252:116|300:52,1,140,0|2,0:0|0:0,0:0:0:0:
140,232,81626,5,0,0:0:0:0:
76,124,81801,2,0,L|4:128,1,70,0|2,0:0|0:0,0:0:0:0:
96,304,82150,2,0,P|160:316|216:272,2,140,0|0|0,0:0|0:0|0:0,0:0:0:0:
208,168,83022,1,0,0:0:0:0:
324,88,83196,2,0,L|336:176,1,70,2|0,0:0|0:0,0:0:0:0:
120,140,83545,2,0,L|108:232,1,70,2|0,0:0|0:0,0:0:0:0:
264,284,83894,1,2,0:0:0:0:
208,168,84068,1,0,0:0:0:0:
72,300,84243,6,0,P|112:304|148:300,1,70,2|0,0:3|0:0,0:0:0:0:
264,284,84591,2,0,P|336:252|404:280,1,140,2|0,0:0|0:0,0:0:0:0:
208,356,85115,1,0,0:0:0:0:
212,208,85289,1,2,0:0:0:0:
104,316,85464,1,0,0:0:0:0:
264,280,85638,2,0,L|336:272,1,70,2|0,0:0|0:0,0:0:0:0:
120,192,85987,2,0,P|160:128|240:116,1,140,2|0,0:0|0:0,0:0:0:0:
328,156,86510,2,0,L|412:148,1,70,0|0,0:0|0:0,0:0:0:0:
304,60,86859,1,2,0:0:0:0:
236,216,87033,5,2,0:3:0:0:
236,216,87208,1,0,0:0:0:0:
356,316,87382,1,0,0:0:0:0:
328,156,87557,1,2,0:0:0:0:
248,316,87731,2,0,L|160:300,1,70,2|0,0:0|0:0,0:0:0:0:
340,188,88080,2,0,L|424:180,1,70,0|2,0:0|0:0,0:0:0:0:
188,152,88429,5,2,0:0:0:0:
188,152,88603,1,0,0:0:0:0:
288,32,88778,2,0,L|280:108,1,70,0|2,0:0|0:0,0:0:0:0:
260,244,89126,1,2,0:0:0:0:
200,68,89301,1,0,0:0:0:0:
140,236,89475,1,2,0:0:0:0:
328,180,89650,1,2,0:0:0:0:
352,336,89824,1,2,0:3:0:0:
256,192,89998,12,12,92615,0:0:0:0:
360,116,92964,5,8,0:0:0:0:
360,116,93138,1,8,0:0:0:0:
244,60,93312,2,0,L|144:56,1,87.5,8|0,1:0|0:0,0:0:0:0:
272,224,93661,2,0,L|372:228,1,87.5,8|0,0:0|0:0,0:0:0:0:
192,156,94010,1,2,0:0:0:0:
152,304,94184,1,8,0:0:0:0:
288,136,94359,2,0,P|268:96|228:64,1,87.5,8|2,0:0|0:0,0:0:0:0:
48,236,94708,2,0,L|228:224,1,175,8|2,1:0|0:0,0:0:0:0:
344,284,95231,1,0,0:0:0:0:
344,284,95405,6,0,L|340:372,1,87.5,10|0,0:0|0:0,0:0:0:0:
304,144,95754,1,0,0:0:0:0:
436,224,95929,1,8,0:0:0:0:
248,272,96103,2,0,B|144:284|144:284|72:252,1,175,8|8,1:0|0:0,0:0:0:0:
128,132,96626,1,8,0:0:0:0:
284,184,96801,2,0,P|312:212|340:256,1,87.5,2|0,0:0|0:0,0:0:0:0:
88,348,97150,2,0,P|96:304|112:264,1,87.5,8|2,0:0|0:0,0:0:0:0:
264,332,97498,1,8,1:0:0:0:
164,184,97673,1,8,0:0:0:0:
332,232,97847,2,0,L|236:240,1,87.5,2|2,0:0|0:0,0:0:0:0:
80,92,98196,6,0,B|144:80|144:80|200:88|200:88|272:80,1,175,10|8,0:0|0:0,0:0:0:0:
128,196,98719,1,8,0:0:0:0:
272,180,98894,2,0,P|316:184|372:188,1,87.5,8|0,1:0|0:0,0:0:0:0:
220,304,99243,1,0,0:0:0:0:
128,196,99417,1,0,0:0:0:0:
264,112,99591,2,0,L|256:212,1,87.5,2|8,0:0|0:0,0:0:0:0:
136,288,99940,1,8,0:0:0:0:
356,208,100115,2,0,L|372:300,1,87.5,2|8,0:0|1:0,0:0:0:0:
172,204,100464,1,0,0:0:0:0:
336,112,100638,1,2,0:0:0:0:
336,112,100812,1,2,0:0:0:0:
128,100,100987,6,0,P|72:176|80:264,1,175,10|0,0:0|0:0,0:0:0:0:
232,132,101510,1,8,0:0:0:0:
316,64,101684,2,0,L|412:60,1,87.5,8|0,1:0|0:0,0:0:0:0:
244,212,102033,1,8,0:0:0:0:
204,52,102208,1,8,0:0:0:0:
104,164,102382,1,2,0:0:0:0:
104,164,102557,1,0,0:0:0:0:
276,152,102731,2,0,L|284:256,1,87.5,8|2,0:0|0:0,0:0:0:0:
192,344,103080,1,8,1:0:0:0:
356,284,103254,1,8,0:0:0:0:
184,132,103429,2,0,L|192:232,1,87.5,2|2,0:0|0:0,0:0:0:0:
190,219,103690,1,0,0:0:0:0:
190,219,103778,6,0,P|124:232|24:188,1,175,12|8,0:0|0:0,0:0:0:0:
256,104,104301,1,10,0:0:0:0:
321,219,104475,2,0,P|388:232|488:188,1,175,8|8,1:0|0:0,0:0:0:0:
288,112,104998,1,0,0:0:0:0:
240,244,105173,2,0,L|228:336,1,87.5,2|8,0:0|0:0,0:0:0:0:
388,148,105522,2,0,L|400:56,1,87.5,8|2,0:0|0:0,0:0:0:0:
204,152,105871,1,8,1:0:0:0:
368,252,106045,2,0,P|416:248|468:228,2,87.5,0|0|2,0:0|0:0|0:0,0:0:0:0:
253,66,106568,6,0,P|165:62|109:130,1,175,10|0,0:0|0:0,0:0:0:0:
92,280,107091,1,10,0:0:0:0:
204,152,107266,2,0,L|224:248,1,87.5,8|0,1:0|0:0,0:0:0:0:
368,336,107615,2,0,L|384:240,1,87.5,10|8,0:0|0:0,0:0:0:0:
264,76,107964,1,2,0:0:0:0:
142,225,108138,1,0,0:0:0:0:
320,168,108312,2,0,L|420:176,1,87.5,8|2,0:0|0:0,0:0:0:0:
168,116,108661,2,0,L|72:124,1,87.5,8|8,1:0|0:0,0:0:0:0:
288,216,109010,1,2,0:0:0:0:
260,64,109184,1,2,0:0:0:0:
200,248,109359,6,0,B|224:296|224:296|280:323|348:288,1,175,10|8,0:0|0:0,0:0:0:0:
400,168,109882,1,10,0:0:0:0:
300,64,110057,2,0,P|288:104|276:160,1,87.5,8|0,1:0|0:0,0:0:0:0:
240,312,110405,1,10,0:0:0:0:
192,156,110580,1,0,0:0:0:0:
360,200,110754,2,0,P|384:184|432:148,1,87.5,2|8,0:0|0:0,0:0:0:0:
248,72,111103,1,8,0:0:0:0:
224,232,111278,2,0,P|228:292|232:320,1,87.5,2|8,0:0|1:0,0:0:0:0:
132,168,111626,1,0,0:0:0:0:
64,292,111801,1,2,0:0:0:0:
132,168,111975,1,2,0:0:0:0:
231,319,112150,6,0,P|315:305|360:213,1,175,10|0,0:0|0:0,0:0:0:0:
268,104,112673,1,10,0:0:0:0:
140,196,112847,2,0,L|232:204,1,87.5,8|0,1:0|0:0,0:0:0:0:
384,184,113196,1,10,0:0:0:0:
284,120,113371,1,8,0:0:0:0:
208,308,113545,2,0,L|296:296,1,87.5,2|0,0:0|0:0,0:0:0:0:
392,224,113894,1,8,0:0:0:0:
284,120,114068,2,0,P|268:161|252:202,1,87.5,2|8,0:0|1:0,0:0:0:0:
392,312,114417,1,8,0:0:0:0:
430,190,114591,1,8,1:0:0:0:
468,68,114766,1,8,1:0:0:0:
240,32,114940,6,0,B|204:120|204:120|212:152|236:208,1,175,12|8,0:0|0:0,0:0:0:0:
348,180,115464,1,8,0:0:0:0:
248,296,115638,2,0,B|300:276|300:276|340:280|372:292|372:292|428:276,1,175,8|8,1:0|0:0,0:0:0:0:
260,33,116336,2,0,L|284:121,1,87.5,2|8,0:0|0:0,0:0:0:0:
137,227,116684,2,0,L|145:123,1,87.5,8|0,0:0|0:0,0:0:0:0:
380,149,117033,2,0,P|320:213|232:209,1,175,8|2,1:0|0:0,0:0:0:0:
144,140,117557,1,2,0:0:0:0:
52,284,117731,6,0,P|128:264|208:316,1,175,8|0,0:0|0:0,0:0:0:0:
324,304,118254,1,8,0:0:0:0:
276,152,118429,2,0,L|260:252,1,87.5,8|0,1:0|0:0,0:0:0:0:
376,212,118778,1,8,0:0:0:0:
264,108,118952,1,8,0:0:0:0:
164,228,119126,2,0,L|176:316,1,87.5,2|0,0:0|0:0,0:0:0:0:
364,236,119475,2,0,P|388:160|368:68,1,175,10|8,0:0|1:0,0:0:0:0:
260,276,119998,1,8,0:0:0:0:
176,160,120173,2,0,L|268:152,1,87.5,2|0,0:0|0:0,0:0:0:0:
208,336,120522,6,0,L|34:348,1,175,10|8,0:0|0:0,0:0:0:0:
68,224,121045,1,8,0:0:0:0:
192,220,121219,2,0,P|212:148|176:48,1,175,8|8,1:0|0:0,0:0:0:0:
60,120,121743,1,2,0:0:0:0:
76,256,121917,2,0,P|100:304|124:352,1,87.5,2|8,0:0|0:0,0:0:0:0:
252,246,122266,1,8,0:0:0:0:
128,181,122440,1,0,0:0:0:0:
260,346,122615,2,0,L|337:296,1,87.5,8|0,1:0|0:0,0:0:0:0:
206,187,122964,1,2,0:0:0:0:
78,303,123138,1,0,0:0:0:0:
254,373,123312,6,0,P|334:329|422:345,1,175,10|0,0:0|0:0,0:0:0:0:
460,168,123836,2,0,L|360:184,1,87.5,8|8,0:0|1:0,0:0:0:0:
248,256,124184,1,0,0:0:0:0:
260,112,124359,2,0,P|264:64|276:8,1,87.5,8|8,0:0|0:0,0:0:0:0:
136,136,124708,2,0,P|144:184|148:236,1,87.5,2|0,0:0|0:0,0:0:0:0:
72,68,125057,1,8,0:0:0:0:
208,92,125231,1,2,0:0:0:0:
60,200,125405,2,0,P|44:248|32:292,1,87.5,8|8,1:0|0:0,0:0:0:0:
176,344,125754,2,0,P|176:296|180:240,1,87.5,2|2,0:0|0:0,0:0:0:0:
268,56,126103,6,0,B|256:168|256:168|280:232,1,175,12|8,0:0|0:0,0:0:0:0:
164,180,126626,1,8,0:0:0:0:
235,323,126801,2,0,P|321:321|380:260,1,175,8|8,1:0|0:0,0:0:0:0:
360,140,127324,1,2,0:0:0:0:
256,68,127498,2,0,P|208:56|164:52,1,87.5,2|8,0:0|0:0,0:0:0:0:
368,176,127847,2,0,P|412:168|460:144,1,87.5,8|0,0:0|0:0,0:0:0:0:
232,172,128196,2,0,P|224:236|240:348,1,175,8|2,1:0|0:0,0:0:0:0:
136,224,128719,1,0,0:0:0:0:
328,260,128894,6,0,P|366:238|400:212,1,87.5,10|0,0:0|0:0,0:0:0:0:
216,152,129243,2,0,P|164:132|132:108,1,87.5,0|8,0:0|0:0,0:0:0:0:
52,248,129591,2,0,L|60:356,1,87.5,8|0,1:0|0:0,0:0:0:0:
176,284,129940,1,10,0:0:0:0:
236,172,130115,1,8,0:0:0:0:
292,300,130289,2,0,P|272:344|240:376,1,87.5,2|0,0:0|0:0,0:0:0:0:
108,204,130638,2,0,P|116:112|176:52,1,175,2|8,0:0|1:0,0:0:0:0:
312,104,131161,1,8,0:0:0:0:
204,236,131336,2,0,L|196:324,1,87.5,2|0,0:0|0:0,0:0:0:0:
320,184,131685,6,0,P|360:260|376:364,1,175,10|8,0:0|0:0,0:0:0:0:
232,276,132208,1,8,0:0:0:0:
224,144,132382,2,0,P|312:148|392:112,1,175,8|8,1:0|0:0,0:0:0:0:
292,32,132905,1,2,0:0:0:0:
128,112,133080,2,0,L|136:200,1,87.5,2|8,0:0|0:0,0:0:0:0:
264,224,133429,2,0,P|256:284|252:332,1,87.5,10|0,0:0|0:0,0:0:0:0:
104,292,133778,1,8,1:0:0:0:
104,292,134126,1,2,0:0:0:0:
208,352,134301,1,0,0:0:0:0:
320,308,134475,6,0,B|392:256|416:152,1,175,10|0,0:0|0:0,0:0:0:0:
284,56,134998,2,0,L|303:141,1,87.5,2|8,0:0|1:0,0:0:0:0:
180,124,135347,1,0,0:0:0:0:
284,244,135522,2,0,P|324:240|375:216,1,87.5,10|8,0:0|0:0,0:0:0:0:
188,208,135871,1,2,0:0:0:0:
228,336,136045,1,0,0:0:0:0:
204,120,136219,2,0,P|156:128|116:152,1,87.5,2|0,0:0|0:0,0:0:0:0:
24,308,136568,2,0,P|64:324|108:332,1,87.5,8|8,1:0|0:0,0:0:0:0:
240,328,136917,1,2,0:0:0:0:
344,240,137091,1,2,0:0:0:0:
268,108,137266,6,0,P|144:80|84:176,1,244.999992523194,2|2,0:3|0:0,0:0:0:0:
268,108,138312,1,0,0:0:0:0:
120,280,138661,2,0,L|256:260,1,122.499996261597,2|0,0:0|0:0,0:0:0:0:
64,208,139184,1,0,0:0:0:0:
160,168,139359,2,0,P|208:144|256:84,1,122.499996261597,2|0,0:0|0:0,0:0:0:0:
416,196,140057,6,0,P|432:264|436:328,1,122.499996261597,2|0,0:3|0:0,0:0:0:0:
364,348,140580,2,0,P|308:324|236:316,1,122.499996261597,0|0,0:0|0:0,0:0:0:0:
120,256,141103,2,0,L|192:248,1,61.2499981307984,0|0,0:0|0:0,0:0:0:0:
264,152,141452,2,0,L|196:160,1,61.2499981307984,2|0,0:0|0:0,0:0:0:0:
280,236,141801,2,0,L|300:312,1,61.2499981307984,0|0,0:0|0:0,0:0:0:0:
352,140,142150,2,0,L|340:72,1,61.2499981307984,2|0,0:0|0:0,0:0:0:0:
424,236,142498,1,0,0:0:0:0:
424,236,142673,1,0,0:0:0:0:
292,304,142847,6,0,P|240:288|164:292,1,122.499996261597,2|0,0:3|0:0,0:0:0:0:
64,200,143371,2,0,P|120:208|180:184,1,122.499996261597,0|0,0:0|0:0,0:0:0:0:
304,144,143894,2,0,L|232:128,1,61.2499981307984,0|0,0:0|0:0,0:0:0:0:
112,80,144243,2,0,L|184:64,1,61.2499981307984,2|0,0:0|0:0,0:0:0:0:
204,228,144591,2,0,L|188:308,1,61.2499981307984,0|0,0:0|0:0,0:0:0:0:
320,288,144940,2,0,L|308:228,1,61.2499981307984,2|0,0:0|0:0,0:0:0:0:
224,128,145289,1,0,0:0:0:0:
112,192,145464,1,0,0:0:0:0:
208,360,145638,6,0,P|224:304|208:232,1,122.499996261597,2|0,0:3|0:0,0:0:0:0:
160,88,146161,2,0,P|156:124|156:164,1,61.2499981307984,0|0,0:0|0:0,0:0:0:0:
272,132,146510,1,0,0:0:0:0:
384,184,146684,2,0,P|372:216|348:252,1,61.2499981307984,0|0,0:0|0:0,0:0:0:0:
344,96,147033,2,0,P|360:56|376:20,1,61.2499981307984,2|0,0:0|0:0,0:0:0:0:
276,184,147382,2,0,P|240:196|204:196,1,61.2499981307984,0|0,0:0|0:0,0:0:0:0:
112,84,147731,2,0,P|176:104|244:104,1,122.499996261597,2|0,0:0|0:0,0:0:0:0:
388,48,148254,1,0,0:0:0:0:
348,196,148429,6,0,B|340:272|268:288|268:288|184:216|96:296,1,314.999990386963,2|0,0:3|0:0,0:0:0:0:
260,174,149824,2,0,B|233:143|224:95|251:52|251:52|224:63,1,157.499995193482,2|0,0:0|0:0,0:0:0:0:
325,108,150522,2,0,P|381:112|437:104,1,104.999996795654
175,112,151219,6,0,P|119:120|63:112,1,104.999996795654,2|0,0:3|0:0,0:0:0:0:
26,236,151917,2,0,B|43:302|106:324|106:324|169:236|273:264,1,314.999990386963,0|0,0:0|0:0,0:0:0:0:
456,232,153312,2,0,P|452:179|376:99,1,157.499995193482,2|0,0:0|0:0,0:0:0:0:
300,160,154010,6,0,L|310:269,1,104.999996795654,2|0,0:3|0:0,0:0:0:0:
51,230,154708,2,0,P|83:133|178:95,1,209.999993591309,0|0,0:0|0:0,0:0:0:0:
284,76,155580,2,0,L|336:40,2,52.4999983978272,0|0|0,0:0|0:0|0:0,0:0:0:0:
316,224,156103,2,0,P|423:219|465:124,1,209.999993591309,2|2,0:0|0:3,0:0:0:0:
196,224,157847,5,0,0:0:0:0:
196,224,158196,2,0,L|184:72,1,140,2|0,0:0|0:0,0:0:0:0:
336,196,158719,2,0,L|348:352,1,140,2|0,0:0|0:0,0:0:0:0:
112,276,159243,2,0,L|104:188,1,70,2|0,0:0|0:0,0:0:0:0:
164,76,159591,6,0,P|244:40|344:84,1,192.500005874634,12|8,0:0|0:0,0:0:0:0:
256,232,160115,1,8,0:0:0:0:
404,184,160289,2,0,P|408:284|348:356,1,192.500005874634,8|8,1:0|0:0,0:0:0:0:
252,128,160812,1,0,0:0:0:0:
140,280,160987,2,0,P|192:280|240:272,1,96.250002937317,2|8,0:0|0:0,0:0:0:0:
54,199,161336,2,0,P|36:244|28:292,1,96.250002937317,10|0,0:0|0:0,0:0:0:0:
184,144,161684,2,0,P|180:88|168:28,1,96.250002937317,8|0,1:0|0:0,0:0:0:0:
428,148,162033,2,0,P|388:212|252:220,1,192.500005874634,2|10,0:0|0:0,0:0:0:0:
352,68,162557,5,0,0:0:0:0:
460,248,162731,2,0,L|452:344,1,96.250002937317,0|8,0:0|0:0,0:0:0:0:
216,276,163080,2,0,L|208:164,1,96.250002937317,8|0,1:0|0:0,0:0:0:0:
364,36,163429,1,10,0:0:0:0:
352,164,163603,2,0,L|344:272,1,96.250002937317,10|0,0:0|0:0,0:0:0:0:
128,176,163952,1,0,0:0:0:0:
244,112,164126,2,0,P|230:63|204:4,1,96.250002937317,10|0,0:0|0:0,0:0:0:0:
208,252,164475,2,0,P|196:296|188:356,1,96.250002937317,8|8,1:0|0:0,0:0:0:0:
472,200,164824,2,0,B|429:175|385:195|385:195|341:215|285:195,1,192.500005874634,2|10,0:0|0:0,0:0:0:0:
224,84,165347,5,0,0:0:0:0:
244,316,165522,2,0,P|291:326|338:331,1,96.250002937317,8|8,0:0|0:0,0:0:0:0:
167,168,165871,2,0,P|120:160|72:159,1,96.250002937317,8|0,1:0|0:0,0:0:0:0:
304,223,166219,2,0,P|391:188|438:106,1,192.500005874634,10|2,0:0|0:0,0:0:0:0:
448,272,166743,1,8,0:0:0:0:
323,116,166917,2,0,L|312:21,1,96.250002937317,10|0,0:0|0:0,0:0:0:0:
173,197,167266,2,0,L|157:313,1,96.250002937317,8|0,1:0|0:0,0:0:0:0:
324,232,167615,2,0,P|368:224|424:188,1,96.250002937317,2|0,0:0|0:0,0:0:0:0:
104,108,167964,6,0,P|80:144|64:196,1,96.250002937317,10|0,0:0|0:0,0:0:0:0:
252,304,168312,1,0,0:0:0:0:
172,196,168487,1,8,0:0:0:0:
288,72,168661,2,0,B|295:131|274:196|274:196|306:180|352:176,1,192.500005874634,8|10,1:0|0:0,0:0:0:0:
392,28,169184,1,10,0:0:0:0:
430,243,169359,2,0,P|394:275|350:291,1,96.250002937317
133,334,169708,2,0,L|241:330,1,96.250002937317,8|0,0:0|0:0,0:0:0:0:
384,184,170057,2,0,L|280:172,1,96.250002937317,8|8,1:0|0:0,0:0:0:0:
64,224,170405,1,2,0:0:0:0:
196,194,170580,1,2,0:0:0:0:
324,36,170754,6,0,L|308:236,1,192.500005874634,12|8,0:0|0:0,0:0:0:0:
200,328,171278,1,8,0:0:0:0:
20,248,171452,2,0,P|128:200|204:224,1,192.500005874634,8|8,1:0|0:0,0:0:0:0:
300,104,171975,1,0,0:0:0:0:
308,328,172150,2,0,L|300:228,1,96.250002937317,2|8,0:0|0:0,0:0:0:0:
168,44,172498,2,0,L|176:144,1,96.250002937317,10|0,0:0|0:0,0:0:0:0:
432,160,172847,2,0,L|328:144,1,96.250002937317,8|0,1:0|0:0,0:0:0:0:
96,300,173196,2,0,L|292:276,1,192.500005874634,2|10,0:0|0:0,0:0:0:0:
188,160,173719,5,0,0:0:0:0:
320,260,173894,2,0,L|308:368,1,96.250002937317,0|8,0:0|0:0,0:0:0:0:
372,84,174243,1,8,1:0:0:0:
372,84,174591,2,0,L|388:196,1,96.250002937317,10|10,0:0|0:0,0:0:0:0:
208,164,174940,1,0,0:0:0:0:
296,28,175115,1,0,0:0:0:0:
340,264,175289,2,0,P|292:268|232:264,1,96.250002937317,10|0,0:0|0:0,0:0:0:0:
444,196,175638,2,0,P|460:248|460:296,1,96.250002937317,8|8,1:0|0:0,0:0:0:0:
127,295,175987,2,0,P|129:244|149:187,1,96.250002937317,2|0,0:0|0:0,0:0:0:0:
352,80,176336,6,0,L|360:200,1,96.250002937317,10|0,0:0|0:0,0:0:0:0:
152,32,176684,2,0,L|120:252,1,192.500005874634,10|8,0:0|1:0,0:0:0:0:
323,344,177208,2,0,L|307:240,1,96.250002937317,0|8,0:0|0:0,0:0:0:0:
136,320,177557,1,2,0:0:0:0:
240,144,177731,2,0,P|300:128|360:128,1,96.250002937317,2|8,0:0|0:0,0:0:0:0:
456,324,178080,2,0,P|356:320|308:240,1,192.500005874634,10|8,0:0|1:0,0:0:0:0:
188,112,178603,2,0,L|168:220,1,96.250002937317,0|0,0:0|0:0,0:0:0:0:
144,348,178952,1,2,0:0:0:0:
308,248,179126,5,10,0:0:0:0:
170,206,179301,1,0,0:0:0:0:
360,88,179475,2,0,L|380:196,1,96.250002937317,0|8,0:0|0:0,0:0:0:0:
128,144,179824,1,8,1:0:0:0:
272,160,179998,1,0,0:0:0:0:
24,96,180173,2,0,L|32:196,1,96.250002937317,8|10,0:0|0:0,0:0:0:0:
272,160,180522,5,2,0:0:0:0:
96,256,180696,1,0,0:0:0:0:
272,160,180871,1,8,0:0:0:0:
188,324,181045,2,0,L|284:336,1,96.250002937317,2|8,0:0|1:0,0:0:0:0:
176,176,181394,1,8,0:0:0:0:
396,332,181568,5,8,1:0:0:0:
426,202,181743,1,8,1:0:0:0:
456,72,181917,1,2,0:3:0:0:
256,192,182091,12,12,184701,0:0:0:0:
120,276,185050,6,0,L|112:176,1,87.5,8|8,0:0|0:0,0:0:0:0:
184,40,185398,2,0,P|208:120|264:192,1,175,8|8,1:0|0:0,0:0:0:0:
452,120,185922,1,0,0:0:0:0:
360,244,186096,2,0,L|356:348,1,87.5,2|8,0:0|0:0,0:0:0:0:
224,144,186445,2,0,L|216:256,1,87.5,10|0,0:0|0:0,0:0:0:0:
408,80,186794,1,8,1:0:0:0:
116,48,187143,1,0,0:0:0:0:
248,144,187317,1,2,0:0:0:0:
88,304,187491,6,0,P|55:224|70:139,1,175,10|2,0:0|0:0,0:0:0:0:
244,252,188015,1,8,0:0:0:0:
400,200,188189,1,8,1:0:0:0:
400,200,188538,2,0,L|404:96,1,87.5,10|8,0:0|0:0,0:0:0:0:
212,232,188887,2,0,L|208:336,1,87.5,2|0,0:0|0:0,0:0:0:0:
280,120,189236,2,0,L|256:24,1,87.5,10|0,0:0|0:0,0:0:0:0:
116,188,189584,1,8,1:0:0:0:
292,212,189759,1,8,0:0:0:0:
116,188,189933,2,0,L|96:288,1,87.5,2|2,0:0|0:0,0:0:0:0:
383,114,190282,6,0,P|295:74|215:106,1,175,10|8,0:0|0:0,0:0:0:0:
280,292,190805,1,10,0:0:0:0:
296,180,190980,1,8,1:0:0:0:
192,224,191154,1,0,0:0:0:0:
456,336,191329,2,0,L|280:316,1,175,10|0,0:0|0:0,0:0:0:0:
72,240,191852,1,8,0:0:0:0:
200,136,192026,2,0,L|168:252,1,87.5,10|2,0:0|0:0,0:0:0:0:
292,356,192375,2,0,L|284:252,1,87.5,8|0,1:0|0:0,0:0:0:0:
388,128,192724,1,2,0:0:0:0:
436,288,192898,1,2,0:0:0:0:
188,228,193073,6,0,P|104:200|20:220,1,175,10|0,0:0|0:0,0:0:0:0:
260,332,193596,2,0,P|339:293|386:221,1,175,10|0,0:0|0:0,0:0:0:0:
140,332,194119,1,10,0:0:0:0:
140,332,194294,1,8,0:0:0:0:
294,125,194468,2,0,L|284:212,1,87.5,2|0,0:0|0:0,0:0:0:0:
248,324,194817,1,8,0:0:0:0:
168,216,194991,1,2,0:0:0:0:
464,148,195166,2,0,P|424:168|376:176,1,87.5,8|8,1:0|0:0,0:0:0:0:
96,140,195515,2,0,P|136:120|184:112,1,87.5,2|2,0:0|0:0,0:0:0:0:
296,372,195864,6,0,L|272:192,1,175,12|8,0:0|0:0,0:0:0:0:
384,292,196387,1,8,0:0:0:0:
164,248,196561,2,0,L|192:64,1,175,8|8,1:0|0:0,0:0:0:0:
60,272,197084,1,0,0:0:0:0:
280,200,197259,2,0,L|376:192,1,87.5,2|8,0:0|0:0,0:0:0:0:
168,112,197608,2,0,P|268:104|336:52,1,175,10|8,0:0|1:0,0:0:0:0:
92,36,198131,1,0,0:0:0:0:
136,244,198305,1,0,0:0:0:0:
256,208,198480,1,2,0:0:0:0:
376,168,198654,6,0,B|360:256,1,87.5,10|0,0:0|0:0,0:0:0:0:
224,68,199003,2,0,L|244:168,1,87.5,2|8,0:0|0:0,0:0:0:0:
112,308,199352,2,0,P|124:216|100:136,1,175,8|10,1:0|0:0,0:0:0:0:
101,138,199875,1,8,0:0:0:0:
248,288,200050,1,2,0:0:0:0:
299,109,200224,1,0,0:0:0:0:
150,195,200398,2,0,L|236:185,1,87.5,10|0,0:0|0:0,0:0:0:0:
465,305,200747,2,0,L|379:295,1,87.5,8|8,1:0|0:0,0:0:0:0:
396,83,201096,1,2,0:0:0:0:
325,194,201271,1,0,0:0:0:0:
253,306,201445,6,0,P|161:295|80:274,1,175,10|8,0:0|0:0,0:0:0:0:
185,191,201968,1,10,0:0:0:0:
339,251,202143,2,0,P|348:311|346:354,1,87.5,8|0,1:0|0:0,0:0:0:0:
278,144,202491,2,0,P|323:75|416:40,1,175,10|2,0:0|0:0,0:0:0:0:
405,172,203015,1,8,0:0:0:0:
274,251,203189,1,8,0:0:0:0:
126,210,203364,1,2,0:0:0:0:
254,51,203538,2,0,P|262:98|266:155,1,87.5,8|0,1:0|0:0,0:0:0:0:
137,349,203887,2,0,P|166:308|201:270,1,87.5,2|2,0:0|0:0,0:0:0:0:
447,275,204236,6,0,P|397:273|350:264,1,87.5,10|0,0:0|0:0,0:0:0:0:
223,203,204584,1,0,0:0:0:0:
380,163,204759,1,10,0:0:0:0:
202,102,204933,2,0,P|148:132|116:207,1,131.25,8|0,1:0|0:0,0:0:0:0:
117,225,205282,2,0,L|21:205,1,87.5,10|8,0:0|0:0,0:0:0:0:
285,227,205631,2,0,L|381:247,1,87.5,0|0,0:0|0:0,0:0:0:0:
105,143,205980,2,0,L|82:-28,1,87.5,10|0,0:0|0:0,0:0:0:0:
293,169,206329,5,8,1:0:0:0:
258,328,206503,1,8,0:0:0:0:
188,130,206677,1,8,1:0:0:0:
416,178,206852,1,8,1:0:0:0:
416,178,208073,5,2,0:0:0:0:
209,277,208422,2,0,L|356:256,1,140,2|0,0:0|0:0,0:0:0:0:
146,185,208945,2,0,P|90:183|20:112,1,157.499995193482,2|0,0:0|0:0,0:0:0:0:
300,37,209469,2,0,B|294:131,1,87.5,2|0,0:0|0:0,0:0:0:0:
80,267,209817,6,0,P|68:170|121:89,1,192.500005874634,12|8,0:0|0:0,0:0:0:0:
190,295,210341,1,8,0:0:0:0:
335,178,210515,2,0,P|339:278|279:350,1,192.500005874634,8|8,1:0|0:0,0:0:0:0:
239,122,211038,1,2,0:0:0:0:
449,234,211213,2,0,P|449:286|439:338,1,96.250002937317,2|8,0:0|0:0,0:0:0:0:
434,108,211562,2,0,P|442:60|459:14,1,96.250002937317,8|0,0:0|0:0,0:0:0:0:
335,178,211910,2,0,L|232:186,1,96.250002937317,8|0,1:0|0:0,0:0:0:0:
45,125,212259,2,0,P|48:223|125:257,1,192.500005874634,2|10,0:0|0:0,0:0:0:0:
256,91,212783,5,0,0:0:0:0:
406,201,212957,2,0,L|297:223,1,96.250002937317,0|8,0:0|0:0,0:0:0:0:
127,81,213306,2,0,L|234:90,1,96.250002937317,8|0,1:0|0:0,0:0:0:0:
442,194,213655,1,10,0:0:0:0:
283,226,213829,2,0,L|188:241,1,96.250002937317,10|0,0:0|0:0,0:0:0:0:
384,306,214178,1,0,0:0:0:0:
348,120,214352,2,0,P|347:72|363:14,1,96.250002937317,10|0,0:0|0:0,0:0:0:0:
290,279,214701,2,0,P|286:325|270:383,1,96.250002937317,8|8,1:0|0:0,0:0:0:0:
73,184,215050,2,0,B|116:159|160:179|160:179|204:199|260:179,1,192.500005874634,2|10,0:0|0:0,0:0:0:0:
85,78,215573,5,0,0:0:0:0:
124,277,215748,2,0,P|125:332|120:378,1,96.250002937317,8|8,0:0|0:0,0:0:0:0:
230,116,216097,2,0,P|219:58|215:11,1,96.250002937317,8|0,1:0|0:0,0:0:0:0:
351,224,216445,2,0,P|258:253|183:201,1,192.500005874634,10|2,0:0|0:0,0:0:0:0:
215,20,216969,1,8,0:0:0:0:
384,110,217143,2,0,P|331:116|284:133,1,96.250002937317,10|0,0:0|0:0,0:0:0:0:
171,363,217492,2,0,L|184:267,1,96.250002937317,8|0,1:0|0:0,0:0:0:0:
380,281,217841,2,0,P|335:297|290:325,1,96.250002937317,2|0,0:0|0:0,0:0:0:0:
74,209,218189,6,0,P|127:226|178:230,1,96.250002937317,10|0,0:0|0:0,0:0:0:0:
290,202,218538,1,0,0:0:0:0:
144,115,218713,1,8,0:0:0:0:
334,105,218887,2,0,B|376:118|376:118|420:180|383:265,1,192.500005874634,8|8,1:0|0:0,0:0:0:0:
226,124,219410,1,10,0:0:0:0:
482,113,219585,2,0,P|491:163|491:224,1,96.250002937317
223,363,219934,2,0,L|236:253,1,96.250002937317,10|0,0:0|0:0,0:0:0:0:
326,61,220283,2,0,L|339:170,1,96.250002937317,8|8,1:0|0:0,0:0:0:0:
116,234,220631,1,2,0:0:0:0:
226,124,220806,1,0,0:0:0:0:
41,92,220980,6,0,L|25:292,1,192.500005874634,12|8,0:0|0:0,0:0:0:0:
268,352,221504,1,8,0:0:0:0:
151,163,221678,2,0,L|160:364,1,192.500005874634,8|8,1:0|0:0,0:0:0:0:
275,172,222201,1,2,0:0:0:0:
367,338,222376,2,0,P|366:285|359:238,1,96.250002937317,2|8,0:0|0:0,0:0:0:0:
164,72,222724,2,0,P|162:116|168:168,1,96.250002937317,10|0,0:0|0:0,0:0:0:0:
421,158,223073,2,0,P|379:144|317:142,1,96.250002937317,8|0,1:0|0:0,0:0:0:0:
83,302,223422,2,0,B|122:275|122:275|187:263|273:303,1,192.500005874634,2|10,0:0|0:0,0:0:0:0:
169,168,223945,5,0,0:0:0:0:
384,187,224120,2,0,L|278:195,1,96.250002937317,0|10,0:0|0:0,0:0:0:0:
73,175,224468,2,0,L|176:168,1,96.250002937317,8|0,1:0|0:0,0:0:0:0:
113,46,224817,2,0,L|221:51,1,96.250002937317,10|8,0:0|0:0,0:0:0:0:
360,207,225166,1,0,0:0:0:0:
314,25,225341,1,0,0:0:0:0:
169,168,225515,2,0,P|216:156|267:153,1,96.250002937317,10|0,0:0|0:0,0:0:0:0:
419,313,225864,2,0,P|372:313|319:325,1,96.250002937317,8|8,1:0|0:0,0:0:0:0:
404,55,226213,2,0,P|452:67|515:73,1,96.250002937317,2|0,0:0|0:0,0:0:0:0:
243,234,226562,6,0,P|227:184|227:133,1,96.250002937317,10|0,0:0|0:0,0:0:0:0:
73,17,226910,2,0,P|46:92|45:209,1,192.500005874634,10|8,0:0|1:0,0:0:0:0:
350,120,227434,2,0,L|246:136,1,96.250002937317,0|8,0:0|0:0,0:0:0:0:
402,238,227783,1,2,0:0:0:0:
213,329,227957,2,0,P|197:269|197:209,1,96.250002937317,0|8,0:0|0:0,0:0:0:0:
440,72,228306,2,0,P|436:172|360:220,1,192.500005874634,10|8,0:0|1:0,0:0:0:0:
158,99,228829,2,0,L|264:107,1,96.250002937317,0|2,0:0|0:0,0:0:0:0:
313,313,229178,1,0,0:0:0:0:
166,267,229352,5,10,0:0:0:0:
365,219,229527,1,0,0:0:0:0:
253,106,229701,2,0,L|246:220,1,96.250002937317,0|10,0:0|0:0,0:0:0:0:
236,349,230050,1,8,1:0:0:0:
149,152,230224,1,0,0:0:0:0:
362,175,230399,2,0,L|369:270,1,96.250002937317,10|8,0:0|0:0,0:0:0:0:
131,343,230748,5,2,0:0:0:0:
262,232,230922,1,0,0:0:0:0:
149,152,231097,1,8,0:0:0:0:
245,342,231271,1,2,0:0:0:0:
49,287,231445,2,0,L|61:177,1,96.250002937317,8|8,1:0|0:0,0:0:0:0:
237,27,231794,5,8,1:0:0:0:
269,162,231969,1,8,1:0:0:0:
300,298,232143,1,2,0:3:0:0:
256,192,232317,12,12,234933,0:0:0:0:
93,256,235282,5,8,0:0:0:0:
93,256,235457,1,8,0:0:0:0:
198,320,235631,2,0,P|315:292|397:289,1,192.500005874634,8|8,1:0|0:0,0:0:0:0:
386,288,236329,2,0,P|375:221|372:187,1,96.250002937317,2|8,0:0|0:0,0:0:0:0:
245,23,236677,2,0,P|217:105|206:217,1,192.500005874634,8|8,0:0|1:0,0:0:0:0:
256,311,237201,1,0,0:0:0:0:
94,196,237375,2,0,P|97:135|107:94,1,96.250002937317,0|2,0:0|0:0,0:0:0:0:
353,76,237724,6,0,P|328:170|232:175,1,192.500005874634,10|0,0:0|0:0,0:0:0:0:
164,26,238247,1,8,0:0:0:0:
50,145,238422,2,0,L|167:122,1,96.250002937317,8|0,1:0|0:0,0:0:0:0:
339,41,238771,2,8,L|318:146,1,96.250002937317,8|8,0:0|0:0,0:0:0:0:
232,371,239119,2,0,B|213:322|213:322|220:280|244:242|244:242|226:190,1,192.500005874634,2|8,0:0|0:0,0:0:0:0:
227,191,239817,1,8,1:0:0:0:
70,85,239991,2,0,P|73:195|144:245,1,192.500005874634,8|2,0:0|0:0,0:0:0:0:
322,165,240515,6,0,P|388:152|498:205,1,192.500005874634,10|8,0:0|0:0,0:0:0:0:
256,280,241038,1,8,0:0:0:0:
191,165,241212,2,0,P|124:152|14:204,1,192.500005874634,8|8,1:0|0:0,0:0:0:0:
224,272,241735,1,2,0:0:0:0:
288,118,241910,2,0,P|299:70|302:21,1,96.250002937317,2|8,0:0|0:0,0:0:0:0:
125,245,242259,2,0,L|137:342,1,96.250002937317,8|0,0:0|0:0,0:0:0:0:
308,232,242608,1,8,1:0:0:0:
144,132,242782,2,0,P|96:136|40:161,2,96.250002937317,0|0|2,0:0|0:0|0:0,0:0:0:0:
273,65,243305,6,0,P|356:98|457:65,1,192.500005874634,10|0,0:0|0:0,0:0:0:0:
306,246,243829,1,8,0:0:0:0:
202,149,244003,2,0,P|119:116|18:149,1,192.500005874634,8|8,1:0|0:0,0:0:0:0:
156,249,244526,1,10,0:0:0:0:
309,110,244701,2,0,L|421:107,1,96.250002937317,2|0,0:0|0:0,0:0:0:0:
291,329,245050,2,0,L|274:217,1,96.250002937317,8|0,0:0|0:0,0:0:0:0:
480,181,245398,1,8,1:0:0:0:
390,278,245573,1,8,0:0:0:0:
215,150,245747,2,0,P|252:138|326:141,1,96.250002937317,2|2,0:0|0:0,0:0:0:0:
104,88,246096,6,0,P|86:163|121:232,2,157.499995193482,4|0|8,0:0|0:0|0:1,0:0:0:0:
226,255,247143,1,0,0:0:0:0:
304,101,247491,2,0,L|310:197,1,78.7499975967408,2|0,0:0|0:0,0:0:0:0:
226,255,247840,2,0,P|135:232|70:262,1,157.499995193482,0|8,0:0|0:1,0:0:0:0:
154,338,248364,1,0,0:0:0:0:
154,338,248538,2,0,P|227:362|301:337,1,157.499995193482,0|2,0:0|0:0,0:0:0:0:
108,162,249236,5,0,0:0:0:0:
332,70,249584,2,0,L|317:238,1,157.499995193482,8|0,0:1|0:0,0:0:0:0:
108,162,250282,2,0,L|115:74,1,78.7499975967408,2|0,0:0|0:0,0:0:0:0:
217,169,250631,2,0,L|202:337,1,157.499995193482,0|8,0:0|0:1,0:0:0:0:
339,231,251154,1,0,0:0:0:0:
325,124,251329,2,0,L|315:38,1,78.7499975967408,0|0,0:0|0:0,0:0:0:0:
164,96,251677,6,0,P|152:128|152:176,2,78.7499975967408,2|0|0,0:0|0:0|0:0,0:0:0:0:
232,243,252201,1,2,0:0:0:0:
132,279,252375,2,0,P|97:285|44:286,1,78.7499975967408,2|0,0:0|0:0,0:0:0:0:
233,347,252724,2,0,P|278:338|317:337,1,78.7499975967408,0|0,0:0|0:0,0:0:0:0:
389,261,253073,2,0,P|440:277|473:278,2,78.7499975967408,2|0|0,0:0|0:0|0:0,0:0:0:0:
345,164,253596,1,2,0:0:0:0:
446,99,253771,2,0,L|448:185,1,78.7499975967408,2|0,0:0|0:0,0:0:0:0:
342,85,254119,2,0,L|345:174,1,78.7499975967408
275,244,254468,6,0,P|241:255|195:256,2,78.7499975967408,2|0|0,0:0|0:0|0:0,0:0:0:0:
344,163,254992,1,2,0:0:0:0:
218,76,255166,2,0,P|214:108|219:155,1,78.7499975967408,2|0,0:0|0:0,0:0:0:0:
285,321,255515,2,0,P|285:288|274:241,1,78.7499975967408,0|0,0:0|0:0,0:0:0:0:
178,294,255864,1,2,0:0:0:0:
271,351,256038,1,0,0:0:0:0:
379,348,256212,2,0,P|407:336|439:300,1,78.7499975967408,0|2,0:0|0:0,0:0:0:0:
353,165,256561,5,2,0:0:0:0:
352,259,256736,1,0,0:0:0:0:
450,143,256910,1,2,0:0:0:0:
274,96,257084,1,2,0:0:0:0:
