osu file format v14

[General]
AudioFilename: ninelie.mp3
AudioLeadIn: 0
PreviewTime: 157760
Countdown: 0
SampleSet: Soft
StackLeniency: 0.5
Mode: 0
LetterboxInBreaks: 0
WidescreenStoryboard: 1

[Editor]
Bookmarks: 89812,92603,114579,181905,184696,223068
DistanceSpacing: 1
BeatDivisor: 4
GridSize: 4
TimelineZoom: 1

[Metadata]
Title:ninelie
TitleUnicode:ninelie
Artist:Aimer with chelly (EGOIST)
ArtistUnicode:Aimer with chelly (EGOIST)
Creator:jonathanlfj
Version:Easy
Source:甲鉄城のカバネリ
Tags:CSLM captin1 Trust LunarSakuya 澤野弘之 Sawano Hiroyuki Kabaneri of the Iron Fortress koutetsujou no ed ending
BeatmapID:1311344
BeatmapSetID:443879

[Difficulty]
HPDrainRate:2
CircleSize:3.3
OverallDifficulty:2.5
ApproachRate:3
SliderMultiplier:1.9
SliderTickRate:2

[Events]
//Background and Video events
0,0,"a.jpg",0,0
//Break Periods
2,45373,54896
2,90024,91175
2,137466,146989
2,182117,183261
2,232342,233493
//Storyboard Layer 0 (Background)
//Storyboard Layer 1 (Fail)
//Storyboard Layer 2 (Pass)
//Storyboard Layer 3 (Foreground)
//Storyboard Sound Samples

[TimingPoints]
11685,697.674418604651,4,2,1,40,1,0
11685,-125,4,2,1,40,0,0
22847,-125,4,2,1,50,0,0
45173,-142.857142857143,4,2,1,40,0,0
66103,-142.857142857143,4,2,1,50,0,0
66626,-142.857142857143,4,2,1,60,0,0
67498,-125,4,2,1,70,0,0
92615,-111.111111111111,4,2,1,70,0,0
137266,-125,4,2,1,50,0,0
148429,-125,4,2,1,40,0,0
157847,-111.111111111111,4,2,1,40,0,0
158196,-111.111111111111,4,2,1,50,0,0
158719,-111.111111111111,4,2,1,60,0,0
159243,-111.111111111111,4,2,1,70,0,0
159591,-111.111111111111,4,2,1,80,0,1
181917,-111.111111111111,4,2,1,70,0,0
184701,697.674418604651,4,2,1,70,1,0
184701,-111.111111111111,4,2,1,70,0,0
208073,-111.111111111111,4,2,1,50,0,0
208422,-111.111111111111,4,2,1,50,0,0
208945,-111.111111111111,4,2,1,60,0,0
209468,-111.111111111111,4,2,1,70,0,0
209817,-111.111111111111,4,2,1,80,0,1
232142,-111.111111111111,4,2,1,70,0,0
234933,-111.111111111111,4,2,1,70,0,1
246096,-125,4,2,1,60,0,0
251677,-125,4,2,1,60,0,0

[Colours]
Combo1 : 249,47,47
Combo2 : 254,151,37
Combo3 : 138,83,253
Combo4 : 254,120,231

[HitObjects]
52,252,11685,6,0,P|128:228|204:240,1,152,2|2,0:0|0:0,0:0:0:0:
340,332,13080,2,0,P|364:280|356:180,1,152,2|2,0:0|0:0,0:0:0:0:
224,84,14475,2,0,L|64:92,2,152,2|2|2,0:0|0:0|0:0,0:0:0:0:
392,76,16568,1,2,0:0:0:0:
316,224,17266,6,0,P|324:280|408:340,1,152,2|2,0:0|0:0,0:0:0:0:
404,168,18661,2,0,P|336:120|248:136,1,152,2|2,0:0|0:0,0:0:0:0:
148,240,20057,1,2,0:0:0:0:
316,224,20754,1,2,0:0:0:0:
169,140,21452,1,2,0:0:0:0:
239,293,22150,1,2,0:0:0:0:
274,128,22847,6,0,B|255:48|168:32|168:32|131:52|90:55,1,228,2|0,0:3|0:0,0:0:0:0:
14,32,24243,2,0,P|0:97|39:198,1,152,0|0,0:0|0:0,0:0:0:0:
146,293,25638,2,0,B|181:266|181:266|295:277,1,152,2|0,0:0|0:0,0:0:0:0:
372,286,26685,1,0,0:0:0:0:
436,339,27033,2,0,B|455:305|455:305|449:182,1,152,0|0,0:0|0:0,0:0:0:0:
353,52,28429,6,0,B|303:75|244:58|244:58|184:39|127:66,1,228,2|0,0:0|0:0,0:0:0:0:
69,123,29824,2,0,P|100:203|84:272,1,152,0|0,0:0|0:0,0:0:0:0:
237,342,31219,2,0,B|270:334|270:334|353:358,2,114,2|2|0,0:0|0:0|0:0,0:0:0:0:
154,361,32615,1,0,0:0:0:0:
262,232,33312,1,2,0:0:0:0:
103,291,34010,6,0,B|85:250|87:216|87:216|134:145|93:62,1,228,2|0,0:0|0:0,0:0:0:0:
23,32,35405,2,0,P|123:44|184:21,1,152,0|0,0:0|0:0,0:0:0:0:
308,125,36801,2,0,P|381:110|455:128,1,152,2|0,0:0|0:0,0:0:0:0:
503,197,37847,1,0,0:0:0:0:
451,263,38196,2,0,P|377:277|303:259,1,152,0|0,0:0|0:0,0:0:0:0:
163,353,39591,6,0,P|134:232|181:139,1,228,2|0,0:0|0:0,0:0:0:0:
251,102,40987,2,0,P|305:111|344:108,1,76,2|0,0:0|0:0,0:0:0:0:
477,35,42033,1,0,0:0:0:0:
467,118,42382,2,0,L|487:236,2,114,2|2|0,0:0|0:0|0:0,0:0:0:0:
399,68,43778,2,0,P|344:54|247:60,1,152,0|2,0:0|0:0,0:0:0:0:
121,130,45173,5,2,0:3:0:0:
74,87,56336,6,0,B|125:109|172:87|172:87|126:165|154:246,1,265.999991882324,2|2,0:3|0:0,0:0:0:0:
256,356,58429,1,0,0:0:0:0:
357,246,59126,2,0,B|408:236|456:256|456:256|520:184|504:88|400:44|328:100,1,398.999987823487,2|2,0:3|0:0,0:0:0:0:
208,156,61917,6,0,B|188:112|196:60|196:60|116:92|32:48,1,265.999991882324,2|0,0:3|0:0,0:0:0:0:
104,180,64010,2,0,P|115:241|104:328,1,132.999995941162,2|2,0:0|0:3,0:0:0:0:
324,360,65754,1,0,0:0:0:0:
271,300,66103,2,0,P|259:236|263:188,2,99.7499969558717,2|2|2,0:0|0:0|0:0,0:0:0:0:
324,360,67498,6,0,P|392:328|477:336,1,152,2|0,0:3|0:0,0:0:0:0:
380,189,68894,2,0,P|378:144|398:100,2,76,2|0|2,0:0|0:0|0:0,0:0:0:0:
458,160,69940,2,0,P|463:83|392:32,1,152,0|0,0:0|0:0,0:0:0:0:
330,57,70987,2,0,P|274:70|206:62,1,114,2|2,0:0|0:0,0:0:0:0:
99,26,72033,6,0,L|3:36,2,76,0|2|0,0:0|0:0|0:0,0:0:0:0:
177,173,73429,2,0,L|255:183,2,76,0|2|0,0:0|0:0|0:0,0:0:0:0:
93,317,74824,2,0,L|11:328,2,76,2|2|0,0:0|0:0|0:0,0:0:0:0:
168,353,75871,6,0,B|235:303|313:334|313:334|346:285|411:286,1,266,2|2,0:0|0:0,0:0:0:0:
465,173,77615,2,0,P|409:160|378:162,1,76,2|0,0:0|0:0,0:0:0:0:
311,188,78312,1,0,0:0:0:0:
230,164,78661,6,0,P|185:112|195:28,1,152,2|0,0:3|0:0,0:0:0:0:
111,179,80057,2,0,P|113:212|95:258,2,76,2|0|2,0:0|0:0|0:0,0:0:0:0:
31,205,81103,2,0,P|29:297|158:309,1,228,2|0,0:0|0:0,0:0:0:0:
196,256,82498,1,2,0:0:0:0:
79,135,83196,2,0,P|40:123|5:125,1,76,2|2,0:0|0:0,0:0:0:0:
31,205,83894,1,0,0:0:0:0:
114,210,84243,6,0,B|147:193|161:153|161:153|238:194|317:154,1,228,2|2,0:3|0:0,0:0:0:0:
378,114,85638,2,0,B|396:147|385:188|385:188|401:243|473:256|508:211,1,228,2|0,0:0|0:0,0:0:0:0:
256,192,87033,12,2,89824,0:3:0:0:
386,290,92615,6,0,P|321:317|242:257,1,170.999994781494,12|8,0:0|1:0,0:0:0:0:
324,232,93661,1,8,0:0:0:0:
405,206,94010,2,0,L|504:216,2,85.4999973907472,2|8|8,0:0|0:0|1:0,0:0:0:0:
278,88,95405,2,0,L|104:75,1,170.999994781494,10|8,0:0|1:0,0:0:0:0:
38,126,96452,1,8,0:0:0:0:
88,195,96801,2,0,B|102:228|102:228|82:324,2,128.249996086121,2|2|2,0:0|0:0|0:0,0:0:0:0:
38,126,98196,6,0,P|102:112|172:182,1,170.999994781494,10|8,0:0|1:0,0:0:0:0:
249,143,99243,1,0,0:0:0:0:
329,172,99591,2,0,P|380:163|421:134,2,85.4999973907472,2|8|8,0:0|0:0|1:0,0:0:0:0:
174,98,100987,2,0,P|156:175|186:264,1,170.999994781494,10|8,0:0|1:0,0:0:0:0:
247,316,102033,1,8,0:0:0:0:
329,337,102382,2,0,P|397:324|468:344,2,128.249996086121,2|2|2,0:0|0:0|0:0,0:0:0:0:
247,316,103778,6,0,P|161:338|84:301,1,170.999994781494,12|8,0:0|1:0,0:0:0:0:
51,228,104824,2,0,L|75:46,1,170.999994781494,8|8,0:0|0:0,0:0:0:0:
147,15,105871,1,8,1:0:0:0:
244,155,106568,2,0,P|280:163|315:62,1,170.999994781494,10|8,0:0|1:0,0:0:0:0:
230,72,107615,2,0,P|180:100|181:211,1,170.999994781494,10|8,0:0|0:0,0:0:0:0:
249,247,108661,2,0,P|293:247|345:232,1,85.4999973907472,8|2,1:0|0:0,0:0:0:0:
395,177,109359,6,0,P|381:224|378:356,1,170.999994781494,10|8,0:0|1:0,0:0:0:0:
290,347,110405,2,0,P|218:329|105:337,1,170.999994781494,10|8,0:0|0:0,0:0:0:0:
41,362,111452,1,8,1:0:0:0:
36,190,112150,2,0,B|66:165|66:165|126:160|208:203,1,170.999994781494,10|8,0:0|1:0,0:0:0:0:
256,252,113196,2,0,P|318:257|374:170,1,170.999994781494,10|8,0:0|0:0,0:0:0:0:
336,97,114243,1,8,1:0:0:0:
251,83,114591,1,8,1:0:0:0:
181,133,114940,6,0,P|89:153|-13:142,1,170.999994781494,12|8,0:0|1:0,0:0:0:0:
35,230,115987,1,8,0:0:0:0:
115,259,116336,2,0,P|190:240|298:256,1,170.999994781494,2|8,0:0|1:0,0:0:0:0:
434,327,117731,2,0,P|453:274|452:230,1,85.4999973907472,8|0,0:0|0:0,0:0:0:0:
395,182,118429,2,0,P|383:137|384:88,2,85.4999973907472,8|8|2,1:0|0:0|0:0,0:0:0:0:
453,245,119475,2,0,B|418:272|373:264|373:264|335:235|289:241,1,170.999994781494,10|2,0:0|0:0,0:0:0:0:
224,293,120522,6,0,B|177:313|177:313|37:296,1,170.999994781494,10|8,0:0|1:0,0:0:0:0:
6,230,121568,1,8,0:0:0:0:
56,160,121917,2,0,B|103:140|103:140|243:157,1,170.999994781494,2|8,0:0|1:0,0:0:0:0:
377,83,123312,2,0,B|424:88|424:88|512:62,2,128.249996086121,10|8|8,0:0|0:0|0:0,0:0:0:0:
305,129,124708,2,0,P|291:82|304:39,1,85.4999973907472,2|8,0:0|0:0,0:0:0:0:
224,6,125405,2,0,P|192:31|144:42,1,85.4999973907472,8|2,1:0|0:0,0:0:0:0:
62,40,126103,6,0,P|82:122|70:207,1,170.999994781494,12|8,0:0|1:0,0:0:0:0:
19,276,127150,1,8,0:0:0:0:
103,285,127498,2,0,L|272:265,1,170.999994781494,2|8,0:0|1:0,0:0:0:0:
421,179,128894,2,0,L|337:164,1,85.4999973907472,10|0,0:0|0:0,0:0:0:0:
253,151,129591,2,0,L|155:164,2,85.4999973907472,8|10|2,1:0|0:0|0:0,0:0:0:0:
337,164,130638,2,0,P|315:94|221:71,1,170.999994781494,2|2,0:0|0:0,0:0:0:0:
253,151,131685,6,0,P|292:151|448:110,1,170.999994781494,10|8,0:0|1:0,0:0:0:0:
493,166,132731,1,8,0:0:0:0:
499,251,133080,2,0,P|426:282|324:296,1,170.999994781494,2|8,0:0|1:0,0:0:0:0:
177,230,134475,2,0,P|154:172|159:88,2,128.249996086121,10|2|10,0:0|0:0|0:0,0:0:0:0:
106,278,135871,2,0,P|114:316|103:367,1,85.4999973907472,2|2,0:0|0:0,0:0:0:0:
30,320,136568,1,8,1:0:0:0:
177,230,137266,5,2,0:3:0:0:
469,107,148429,6,0,B|482:60|445:25|384:26|361:82|387:118|387:118|419:167|405:226,1,304,2|2,0:3|0:0,0:0:0:0:
294,330,150522,1,0,0:0:0:0:
205,206,151219,2,0,B|173:194|140:206|140:206|120:180|70:151|13:169|-31:215|-26:289|3:348|99:364|147:295,1,456,2|2,0:3|0:0,0:0:0:0:
294,330,154010,6,0,B|346:303|360:241|360:241|432:268|432:268|442:198|507:175,1,304,2|0,0:3|0:0,0:0:0:0:
501,28,156103,2,0,P|425:46|362:104,1,152,2|2,0:0|0:3,0:0:0:0:
291,337,157847,1,0,0:0:0:0:
216,295,158196,2,0,B|180:293|180:293|133:310|133:310|91:308,2,128.249996086121,2|2|2,0:0|0:0|0:0,0:0:0:0:
291,255,159591,6,0,P|294:191|219:125,1,170.999994781494,12|8,0:0|1:0,0:0:0:0:
52,172,160987,2,0,P|44:120|52:76,1,85.4999973907472,2|10,0:0|0:0,0:0:0:0:
96,16,161684,1,8,1:0:0:0:
168,60,162033,2,0,P|228:68|356:48,1,170.999994781494,2|0,0:0|0:0,0:0:0:0:
415,89,163080,2,0,B|408:137|426:174|426:174|414:224,1,128.249996086121,8|10,1:0|0:0,0:0:0:0:
339,316,164126,6,0,P|297:335|240:332,1,85.4999973907472,10|8,0:0|1:0,0:0:0:0:
280,253,164824,1,2,0:0:0:0:
152,138,165522,2,0,P|133:179|135:226,1,85.4999973907472,8|8,0:0|1:0,0:0:0:0:
215,196,166219,1,10,0:0:0:0:
93,76,166917,2,0,P|46:77|3:102,2,85.4999973907472,10|8|2,0:0|1:0|0:0,0:0:0:0:
176,58,167964,6,0,P|173:101|151:138,1,85.4999973907472,10|0,0:0|0:0,0:0:0:0:
69,159,168661,2,0,P|98:203|190:211,1,128.249996086121,8|10,1:0|0:0,0:0:0:0:
280,156,169708,2,0,P|318:149|373:163,2,85.4999973907472,8|8|2,0:0|1:0|0:0,0:0:0:0:
319,231,170754,6,0,P|415:224|448:150,1,170.999994781494,12|8,0:0|1:0,0:0:0:0:
313,58,172150,2,0,P|269:54|208:72,1,85.4999973907472,2|10,0:0|0:0,0:0:0:0:
160,113,172847,1,8,1:0:0:0:
119,188,173196,2,0,L|135:367,1,170.999994781494,2|0,0:0|0:0,0:0:0:0:
50,376,174243,2,0,L|40:278,1,85.4999973907472,8|10,1:0|0:0,0:0:0:0:
209,257,175289,2,0,L|217:342,2,85.4999973907472,10|8|2,0:0|1:0|0:0,0:0:0:0:
284,216,176336,5,10,0:0:0:0:
351,268,176684,2,0,P|409:241|359:174,1,170.999994781494,10|8,0:0|0:0,0:0:0:0:
284,216,177731,1,2,0:0:0:0:
209,257,178080,2,0,P|155:205|216:163,1,170.999994781494,10|0,0:0|0:0,0:0:0:0:
284,216,179126,2,0,P|395:217|472:168,1,170.999994781494,10|8,0:0|1:0,0:0:0:0:
474,109,180173,2,0,B|487:65|487:65|432:92|365:89,1,170.999994781494,8|8,0:0|0:0,0:0:0:0:
291,45,181219,2,0,P|247:44|205:53,1,85.4999973907472,8|8,1:0|1:0,0:0:0:0:
145,112,181917,5,2,0:3:0:0:
145,112,184701,6,0,B|126:153|136:196|136:196|148:239|127:278,2,170.999994781494,12|8|2,0:0|1:0|0:0,0:0:0:0:
212,59,186445,1,10,0:0:0:0:
277,114,186794,2,0,P|285:174|281:203,1,85.4999973907472,8|0,1:0|0:0,0:0:0:0:
230,266,187491,2,0,P|274:281|336:268,2,85.4999973907472,10|2|8,0:0|0:0|1:0,0:0:0:0:
152,302,188538,1,10,0:0:0:0:
66,296,188887,2,0,B|34:261|34:219|34:219|57:182|53:133,1,170.999994781494,2|8,0:0|1:0,0:0:0:0:
207,63,190282,6,0,P|248:90|297:96,1,85.4999973907472,10|8,0:0|0:0,0:0:0:0:
367,79,190980,1,8,1:0:0:0:
341,160,191329,2,0,P|350:253|372:337,1,170.999994781494,10|10,0:0|0:0,0:0:0:0:
291,363,192375,2,0,P|279:310|258:264,1,85.4999973907472,8|2,1:0|0:0,0:0:0:0:
205,221,193073,2,0,B|168:240|168:240|76:247,2,128.249996086121,10|10|10,0:0|0:0|0:0,0:0:0:0:
241,143,194468,1,2,0:0:0:0:
177,85,194817,2,0,L|81:92,1,85.4999973907472,8|8,0:0|1:0,0:0:0:0:
205,221,195864,6,0,P|271:223|326:131,2,170.999994781494,12|8|2,0:0|1:0|0:0,0:0:0:0:
241,143,197608,1,10,0:0:0:0:
285,70,197957,2,0,P|321:61|384:79,1,85.4999973907472,8|0,1:0|0:0,0:0:0:0:
411,143,198654,2,0,P|406:186|425:235,2,85.4999973907472,10|2|8,0:0|0:0|1:0,0:0:0:0:
489,177,199701,1,10,0:0:0:0:
495,262,200050,2,0,B|473:301|427:310|427:310|387:292|340:298,1,170.999994781494,2|8,0:0|1:0,0:0:0:0:
264,330,201096,1,2,0:0:0:0:
194,280,201445,6,0,P|182:229|184:193,2,85.4999973907472,10|8|8,0:0|0:0|1:0,0:0:0:0:
116,316,202491,2,0,P|99:253|112:139,1,170.999994781494,10|8,0:0|0:0,0:0:0:0:
164,83,203538,2,0,P|221:100|265:101,1,85.4999973907472,8|2,1:0|0:0,0:0:0:0:
324,65,204236,2,0,P|388:51|425:54,2,85.4999973907472,10|0|8,0:0|0:0|1:0,0:0:0:0:
318,150,205282,2,0,P|341:220|303:309,1,170.999994781494,10|10,0:0|0:0,0:0:0:0:
221,322,206329,1,8,1:0:0:0:
159,263,206677,2,0,L|147:205,1,42.7499986953736,8|8,1:0|1:0,0:0:0:0:
435,129,208073,5,2,0:0:0:0:
364,80,208422,2,0,P|349:141|403:210,2,128.249996086121,2|2|2,0:0|0:0|0:0,0:0:0:0:
435,129,209817,6,0,P|372:153|243:151,1,170.999994781494,12|8,0:0|1:0,0:0:0:0:
109,96,211212,2,0,L|96:0,2,85.4999973907472,2|8|8,0:0|0:0|1:0,0:0:0:0:
166,159,212259,2,0,P|178:234|158:326,1,170.999994781494,2|0,0:0|0:0,0:0:0:0:
82,365,213305,1,8,1:0:0:0:
14,311,213654,2,0,P|5:291|1:256,1,42.7499986953736,10|10,0:0|0:0,0:0:0:0:
49,151,214352,6,0,P|61:109|60:53,1,85.4999973907472,10|8,0:0|1:0,0:0:0:0:
142,38,215050,2,0,B|184:60|184:60|321:54,1,170.999994781494,2|8,0:0|0:0,0:0:0:0:
381,97,216096,1,8,1:0:0:0:
326,162,216445,2,0,B|284:184|284:184|147:178,1,170.999994781494,10|10,0:0|0:0,0:0:0:0:
85,219,217491,2,0,B|75:260|75:260|83:314,1,85.4999973907472,8|2,1:0|0:0,1:0:0:0:
152,353,218189,6,0,P|243:338|339:346,1,170.999994781494,10|8,0:0|1:0,0:0:0:0:
390,291,219236,2,0,L|380:233,1,42.7499986953736,8|10,0:0|0:0,0:0:0:0:
293,156,219933,2,0,L|304:62,2,85.4999973907472,10|8|2,0:0|1:0|0:0,0:0:0:0:
216,193,220980,6,0,B|174:213|174:213|116:175|120:104,1,170.999994781494,12|8,0:0|1:0,0:0:0:0:
17,244,222375,2,0,P|43:282|92:318,1,85.4999973907472,2|10,0:0|0:0,0:0:0:0:
158,317,223073,1,8,1:0:0:0:
237,285,223422,2,0,P|312:287|400:346,1,170.999994781494,2|0,0:0|0:0,0:0:0:0:
459,283,224468,2,0,P|466:239|457:190,1,85.4999973907472,8|10,1:0|0:0,0:0:0:0:
324,93,225515,2,0,P|317:50|323:8,2,85.4999973907472,10|8|2,0:0|1:0|0:0,0:0:0:0:
389,148,226561,5,10,0:0:0:0:
313,188,226910,2,0,P|245:192|128:166,1,170.999994781494,10|8,0:0|0:0,0:0:0:0:
93,241,227957,1,0,0:0:0:0:
92,326,228305,2,0,P|175:307|260:310,1,170.999994781494,10|2,0:0|0:0,0:0:0:0:
339,343,229352,2,0,P|366:303|275:237,1,170.999994781494,10|8,0:0|1:0,0:0:0:0:
215,194,230398,2,0,P|182:113|253:75,1,170.999994781494,10|8,0:0|0:0,0:0:0:0:
286,146,231445,1,8,1:0:0:0:
293,231,231794,2,0,L|286:287,2,42.7499986953736,8|8|2,1:0|1:0|0:3,0:0:0:0:
293,231,234933,6,0,B|234:233|234:233|180:254|180:254|122:256,1,170.999994781494,12|8,0:0|1:0,0:0:0:0:
62,198,235980,1,8,0:0:0:0:
102,122,236329,2,0,B|155:120|155:120|209:99|209:99|268:97,1,170.999994781494,2|8,0:0|1:0,0:0:0:0:
401,205,237724,2,0,P|425:269|374:352,1,170.999994781494,10|8,0:0|1:0,0:0:0:0:
289,362,238771,1,8,0:0:0:0:
204,347,239119,2,0,P|155:280|178:200,1,170.999994781494,2|8,0:0|1:0,0:0:0:0:
314,96,240515,6,0,L|143:83,1,170.999994781494,10|8,0:0|1:0,0:0:0:0:
103,158,241561,1,8,0:0:0:0:
66,235,241910,2,0,L|236:247,1,170.999994781494,2|8,0:0|1:0,0:0:0:0:
393,179,243305,2,0,P|444:125|384:48,1,170.999994781494,10|8,0:0|1:0,0:0:0:0:
341,113,244352,1,8,0:0:0:0:
281,174,244701,2,0,P|237:107|288:46,1,170.999994781494,2|8,0:0|1:0,0:0:0:0:
393,179,246096,6,0,P|413:245|409:331,1,152,4|8,0:0|0:1,0:0:0:0:
248,368,247491,2,0,P|174:336|85:337,1,152,2|8,0:0|0:1,0:0:0:0:
12,192,248887,2,0,P|109:171|169:128,2,152,2|8|2,0:0|0:1|0:0,0:0:0:0:
32,28,250980,1,8,0:1:0:0:
152,143,251677,6,0,P|176:212|172:292,1,152,2|2,0:0|0:0,0:0:0:0:
339,289,253073,2,0,P|335:214|360:143,1,152,2|2,0:0|0:0,0:0:0:0:
256,12,254468,1,2,0:0:0:0:
152,143,255166,1,2,0:0:0:0:
256,276,255864,1,2,0:0:0:0:
359,143,256561,1,2,0:0:0:0:
276,144,256910,2,0,L|228:144,1,38,2|2,0:0|0:0,0:0:0:0:
