osu file format v14

[General]
AudioFilename: ninelie.mp3
AudioLeadIn: 0
PreviewTime: 157760
Countdown: 0
SampleSet: Soft
StackLeniency: 0.5
Mode: 0
LetterboxInBreaks: 0
WidescreenStoryboard: 1

[Editor]
Bookmarks: 89812,92603,114579,181905,184696,223068
DistanceSpacing: 1.4
BeatDivisor: 12
GridSize: 4
TimelineZoom: 1

[Metadata]
Title:ninelie
TitleUnicode:ninelie
Artist:Aimer with chelly (EGOIST)
ArtistUnicode:Aimer with chelly (EGOIST)
Creator:jonathanlfj
Version:Chris' Hard
Source:甲鉄城のカバネリ
Tags:CSLM captin1 Trust LunarSakuya 澤野弘之 Sawano Hiroyuki Kabaneri of the Iron Fortress koutetsujou no ed ending
BeatmapID:1160979
BeatmapSetID:443879

[Difficulty]
HPDrainRate:5
CircleSize:4
OverallDifficulty:6
ApproachRate:8
SliderMultiplier:3.19999990463257
SliderTickRate:2

[Events]
//Background and Video events
0,0,"a.jpg",0,0
//Break Periods
2,89850,91865
2,181943,183951
2,232168,234183
//Storyboard Layer 0 (Background)
//Storyboard Layer 1 (Fail)
//Storyboard Layer 2 (Pass)
//Storyboard Layer 3 (Foreground)
//Storyboard Sound Samples

[TimingPoints]
11685,697.674418604651,4,2,1,40,1,0
11685,-142.857142857143,4,2,1,40,0,0
22150,-129.87012987013,4,2,1,40,0,0
22847,-117.647058823529,4,2,1,50,0,0
45173,-166.666666666667,4,2,1,30,0,0
55987,-181.818181818182,4,2,1,30,0,0
56336,-200,4,2,1,20,0,0
65754,-166.666666666667,4,2,1,30,0,0
66103,-166.666666666667,4,2,1,45,0,0
66626,-142.857142857143,4,2,1,60,0,0
67150,-125,4,2,1,60,0,0
67498,-111.111111111111,4,2,1,70,0,0
81365,-111.111111111111,4,2,1,5,0,0
81452,-111.111111111111,4,2,1,70,0,0
89824,-200,4,2,1,70,0,0
92615,-100,4,2,1,70,0,1
92702,-100,4,2,1,70,0,0
114940,-111.111111111111,4,2,1,70,0,0
136917,-125,4,2,1,55,0,0
137266,-142.857142857143,4,2,1,40,0,0
148429,-200,4,2,1,30,0,0
157847,-166.666666666667,4,2,1,40,0,0
158196,-142.857142857143,4,2,1,50,0,0
158719,-125,4,2,1,60,0,0
159243,-111.111111111111,4,2,1,70,0,0
159591,-100,4,2,1,80,0,1
181917,-200,4,2,1,70,0,0
184701,697.674418604651,4,2,1,70,1,0
184701,-111.111111111111,4,2,1,70,0,0
208073,-142.857142857143,4,2,1,50,0,0
208422,-125,4,2,1,50,0,0
208945,-111.111111111111,4,2,1,60,0,0
209468,-100,4,2,1,70,0,0
209817,-90.9090909090909,4,2,1,80,0,1
226474,-90.9090909090909,4,2,1,5,0,1
226561,-90.9090909090909,4,2,1,80,0,1
232142,-100,4,2,1,70,0,0
234933,-100,4,2,1,80,0,1
246096,-111.111111111111,4,2,1,70,0,0
251677,-125,4,2,1,60,0,0

[Colours]
Combo1 : 249,47,47
Combo2 : 254,151,37
Combo3 : 138,83,253
Combo4 : 254,120,231

[HitObjects]
359,86,11685,6,0,P|386:136|342:238,1,167.999989866257,2|0,0:0|0:0,0:0:0:0:
296,266,12382,2,0,L|184:257,1,111.999993244171,2|0,0:0|0:0,0:0:0:0:
86,181,13080,2,0,L|77:70,1,111.999993244171,2|0,0:0|0:0,0:0:0:0:
131,39,13603,1,0,0:0:0:0:
131,39,13778,2,0,P|193:49|242:33,1,111.999993244171,2|0,0:0|0:0,0:0:0:0:
358,64,14475,6,0,B|371:125|435:134|435:134|425:161|419:188,1,167.999989866257,2|0,0:0|0:0,0:0:0:0:
461,232,15173,2,0,P|494:304|490:373,1,111.999993244171,2|0,0:0|0:0,0:0:0:0:
373,353,15871,2,0,L|312:341,1,55.9999966220857,2|0,0:0|0:0,0:0:0:0:
262,316,16219,2,0,L|207:326,1,55.9999966220857
155,360,16568,2,0,P|111:345|81:285,1,111.999993244171,2|0,0:0|0:0,0:0:0:0:
56,168,17266,6,0,B|71:56|71:56|116:23,1,167.999989866257,2|0,0:0|0:0,0:0:0:0:
149,75,17964,2,0,L|266:67,1,111.999993244171,2|0,0:0|0:0,0:0:0:0:
383,78,18661,2,0,B|410:93|410:93|405:177,1,111.999993244171,2|0,0:0|0:0,0:0:0:0:
399,235,19185,1,0,0:0:0:0:
399,235,19359,2,0,L|281:250,1,111.999993244171,2|0,0:0|0:0,0:0:0:0:
198,334,20057,6,0,B|85:318|85:318|140:290,1,167.999989866257,2|0,0:0|0:0,0:0:0:0:
183,258,20754,2,0,L|174:136,1,111.999993244171,2|0,0:0|0:0,0:0:0:0:
225,33,21452,2,0,P|252:29|289:29,1,55.9999966220857,2|0,0:0|0:0,0:0:0:0:
338,49,21801,2,0,P|365:53|393:53,1,55.9999966220857
380,125,22150,2,0,P|352:124|319:117,1,61.5999969422532,2|0,0:0|0:0,0:0:0:0:
250,103,22499,2,0,P|222:103|187:108,1,61.5999969422532,2|0,0:0|0:0,0:0:0:0:
139,162,22847,6,0,P|127:232|151:309,1,135.999998540878,2|0,0:3|0:0,0:0:0:0:
195,347,23371,1,2,0:0:0:0:
260,311,23545,2,0,L|411:299,1,135.999998540878,2|0,0:0|0:0,0:0:0:0:
441,241,24068,2,0,L|450:170,1,67.9999992704392,2|2,0:0|0:0,0:0:0:0:
338,73,24591,2,0,L|344:149,2,67.9999992704392,0|2|2,0:0|0:0|0:0,0:0:0:0:
188,80,25289,2,0,P|146:87|116:84,1,67.9999992704392,0|2,0:0|0:0,0:0:0:0:
63,133,25638,6,0,B|80:161|80:161|75:271,1,135.999998540878,2|0,0:0|0:0,0:0:0:0:
79,339,26161,1,2,0:0:0:0:
153,335,26336,2,0,B|188:326|188:326|294:342,1,135.999998540878,2|0,0:0|0:0,0:0:0:0:
359,360,26859,1,2,0:0:0:0:
359,360,27033,2,0,L|369:292,1,67.9999992704392,2|0,0:0|0:0,0:0:0:0:
315,239,27382,2,0,L|305:171,1,67.9999992704392,0|2,0:0|0:0,0:0:0:0:
388,219,27731,2,0,L|465:212,2,67.9999992704392,2|0|0,0:0|0:0|0:0,0:0:0:0:
315,239,28254,1,2,0:0:0:0:
241,224,28429,6,0,P|215:172|209:84,1,135.999998540878,2|0,0:0|0:0,0:0:0:0:
263,45,28952,1,2,0:0:0:0:
329,78,29126,2,0,B|382:90|429:76|429:76|383:61,1,135.999998540878,2|0,0:0|0:0,0:0:0:0:
390,140,29650,2,0,L|401:211,1,67.9999992704392,2|2,0:0|0:0,0:0:0:0:
251,223,30173,2,0,L|240:155,2,67.9999992704392,0|2|2,0:0|0:0|0:0,0:0:0:0:
105,184,30871,2,0,L|115:254,1,67.9999992704392,0|2,0:0|0:0,0:0:0:0:
138,321,31219,6,0,P|204:305|273:331,1,135.999998540878,2|0,0:0|0:0,0:0:0:0:
333,361,31743,2,0,P|396:382|461:366,1,135.999998540878,2|0,0:0|0:0,0:0:0:0:
492,297,32266,1,0,0:0:0:0:
492,297,32440,1,2,0:0:0:0:
443,239,32615,2,0,L|356:258,2,67.9999992704392,2|0|0,0:0|0:0|0:0,0:0:0:0:
480,173,33138,1,2,0:0:0:0:
456,102,33312,2,0,L|380:93,1,67.9999992704392,2|0,0:0|0:0,0:0:0:0:
323,57,33661,2,0,L|255:64,1,67.9999992704392,2|0,0:0|0:0,0:0:0:0:
181,54,34010,6,0,B|159:36|159:36|135:89|154:145,1,135.999998540878,2|0,0:3|0:0,0:0:0:0:
192,204,34533,1,2,0:0:0:0:
192,204,34708,2,0,P|124:198|67:234,1,135.999998540878,2|0,0:0|0:0,0:0:0:0:
26,294,35231,2,0,P|29:325|38:361,1,67.9999992704392,2|2,0:0|0:0,0:0:0:0:
187,356,35754,2,0,P|195:323|198:289,2,67.9999992704392,0|2|2,0:0|0:0|0:0,0:0:0:0:
336,346,36452,2,0,P|361:367|411:382,1,67.9999992704392,0|2,0:0|0:0,0:0:0:0:
445,325,36801,6,0,L|431:188,1,135.999998540878,2|0,0:0|0:0,0:0:0:0:
410,117,37324,1,2,0:0:0:0:
410,117,37498,2,0,B|374:138|374:138|326:137|272:106,1,135.999998540878,2|0,0:0|0:0,0:0:0:0:
220,71,38022,1,2,0:0:0:0:
220,71,38196,2,0,P|183:79|150:99,1,67.9999992704392,2|0,0:0|0:0,0:0:0:0:
90,129,38545,2,0,P|92:166|98:210,1,67.9999992704392,0|2,0:0|0:0,0:0:0:0:
157,239,38894,2,0,B|163:279|154:334|154:334|112:344,1,135.999998540878,2|0,0:0|0:0,0:0:0:0:
261,314,39591,6,0,P|314:300|399:335,1,135.999998540878,2|0,0:0|0:0,0:0:0:0:
443,377,40115,1,2,0:0:0:0:
487,317,40289,2,0,P|464:252|484:191,1,135.999998540878,2|0,0:0|0:0,0:0:0:0:
436,132,40812,2,0,L|428:64,1,67.9999992704392,2|2,0:0|0:0,0:0:0:0:
285,110,41336,2,0,L|277:183,2,67.9999992704392,0|2|2,0:0|0:0|0:0,0:0:0:0:
139,73,42033,2,0,L|127:2,1,67.9999992704392,0|2,0:0|0:0,0:0:0:0:
79,124,42382,6,0,B|110:146|110:146|220:154,1,135.999998540878,2|0,0:0|0:0,0:0:0:0:
191,226,42905,2,0,P|169:286|213:350,1,135.999998540878,2|0,0:0|0:0,0:0:0:0:
243,280,43429,2,0,P|275:273|311:272,1,67.9999992704392,0|2,0:0|0:0,0:0:0:0:
374,310,43778,2,0,P|380:344|383:378,2,67.9999992704392,2|0|0,0:0|0:0|0:0,0:0:0:0:
310,271,44301,1,2,0:0:0:0:
367,223,44475,2,0,P|370:189|375:155,1,67.9999992704392,2|0,0:0|0:0,0:0:0:0:
308,121,44824,2,0,P|304:87|299:53,1,67.9999992704392,2|0,0:0|0:0,0:0:0:0:
309,5,45173,6,0,P|418:12|482:165,1,287.999982627869,2|0,0:3|0:0,0:0:0:0:
434,255,46568,2,0,L|281:240,1,143.999991313935,2|0,0:0|0:0,0:0:0:0:
260,284,47266,2,0,L|116:298,1,143.999991313935
64,291,47964,2,0,P|47:251|43:200,1,95.9999942092898,2|0,0:3|0:0,0:0:0:0:
82,163,48487,2,0,B|99:123|102:65|102:65|51:76,1,143.999991313935
138,4,49359,2,0,L|193:8,2,47.9999971046449,2|0|0,0:0|0:0|0:0,0:0:0:0:
206,84,50057,2,0,L|253:80,1,47.9999971046449,2|0,0:0|0:0,0:0:0:0:
297,51,50405,1,2,0:0:0:0:
383,112,50754,6,0,P|408:161|408:244,1,95.9999942092898,2|0,0:3|0:0,0:0:0:0:
418,254,51278,2,0,P|364:276|251:254,1,143.999991313935
243,169,52150,2,0,L|294:155,2,47.9999971046449,2|0|0,0:0|0:0|0:0,0:0:0:0:
156,229,52847,2,0,L|48:220,1,95.9999942092898,2|0,0:0|0:0,0:0:0:0:
22,183,53371,1,0,0:0:0:0:
22,183,53545,2,0,L|12:71,1,95.9999942092898,2|0,0:3|0:0,0:0:0:0:
47,46,54068,2,0,B|133:39|95:88|185:81,1,143.999991313935
286,66,54940,2,0,P|314:49|335:31,2,47.9999971046449,2|0|0,0:0|0:0|0:0,0:0:0:0:
250,165,55638,2,0,P|243:192|241:226,1,47.9999971046449,2|0,0:0|0:0,0:0:0:0:
263,254,55987,2,0,P|270:281|271:311,1,44.0000000314713,2|0,0:0|0:0,0:0:0:0:
255,338,56336,6,0,L|497:321,1,239.999992847443,2|0,0:3|0:0,0:0:0:0:
453,243,57731,2,0,P|440:196|448:125,1,119.999996423721,2|0,0:0|0:0,0:0:0:0:
491,119,58429,2,0,P|504:72|496:1,1,119.999996423721
452,3,59126,2,0,L|367:17,1,79.9999976158142,2|0,0:3|0:0,0:0:0:0:
330,27,59650,2,0,B|199:8|199:8|236:72,1,199.999994039536
326,215,61219,2,0,B|256:211|277:236|187:228,1,119.999996423721,2|0,0:0|0:0,0:0:0:0:
201,273,61917,6,0,L|119:282,1,79.9999976158142,2|0,0:3|0:0,0:0:0:0:
85,306,62440,2,0,B|27:253|33:159|33:159|93:191|158:156,1,279.99999165535
203,93,64010,2,0,P|262:46|349:62,1,159.999995231628,0|2,0:0|0:3,0:0:0:0:
341,56,65754,1,0,0:0:0:0:
341,56,66103,2,0,P|326:112|336:161,1,95.9999942092898,2|0,0:0|0:0,0:0:0:0:
359,204,66626,2,0,B|339:180|339:180|298:174|252:195,1,111.999993244171,2|0,0:0|0:0,0:0:0:0:
242,260,67150,2,0,L|174:253,1,63.9999980926514,2|0,0:0|0:0,0:0:0:0:
100,238,67498,6,0,P|91:200|88:164,1,71.9999956569673,2|0,0:3|0:0,0:0:0:0:
113,91,67847,2,0,P|145:74|182:63,1,71.9999956569673,2|0,0:0|0:0,0:0:0:0:
235,119,68196,2,0,P|291:135|378:125,1,143.999991313935,2|0,0:0|0:0,0:0:0:0:
438,78,68719,1,2,0:0:0:0:
500,126,68894,2,0,B|508:161|508:161|496:285,1,143.999991313935,2|0,0:0|0:0,0:0:0:0:
446,329,69417,1,2,0:0:0:0:
367,325,69591,2,0,P|324:315|285:314,1,71.9999956569673,2|0,0:0|0:0,0:0:0:0:
222,343,69940,2,0,P|186:340|151:331,1,71.9999956569673,2|0,0:0|0:0,0:0:0:0:
80,294,70289,6,0,P|72:232|89:152,1,143.999991313935,2|0,0:0|0:0,0:0:0:0:
167,142,70812,1,2,0:0:0:0:
167,62,70987,2,0,L|238:56,1,71.9999956569673,2|0,0:0|0:0,0:0:0:0:
314,30,71336,1,0,0:0:0:0:
314,30,71510,2,0,P|335:77|338:169,1,143.999991313935,2|0,0:0|0:0,0:0:0:0:
286,228,72033,1,0,0:0:0:0:
332,292,72208,1,2,0:0:0:0:
281,352,72382,2,0,L|203:359,1,71.9999956569673,2|0,0:0|0:0,0:0:0:0:
149,305,72731,2,0,L|71:298,1,71.9999956569673,2|0,0:0|0:0,0:0:0:0:
23,240,73080,5,2,0:3:0:0:
19,161,73254,1,2,0:0:0:0:
92,191,73429,2,0,P|129:179|166:155,1,71.9999956569673,2|0,0:0|0:0,0:0:0:0:
212,104,73778,2,0,P|182:86|147:76,1,71.9999956569673,2|0,0:0|0:0,0:0:0:0:
239,181,74126,2,0,B|276:185|310:167,1,71.9999956569673,2|0,0:0|0:0,0:0:0:0:
340,95,74475,2,0,P|384:150|362:227,1,143.999991313935,2|0,0:0|0:0,0:0:0:0:
324,282,74998,1,2,0:0:0:0:
324,282,75173,2,0,B|289:274|289:274|250:277,1,71.9999956569673,2|0,0:0|0:0,0:0:0:0:
224,351,75522,2,0,B|189:359|189:359|153:356,1,71.9999956569673,2|0,0:0|0:0,0:0:0:0:
143,277,75871,6,0,L|153:202,1,71.9999956569673,2|0,0:0|0:0,0:0:0:0:
161,127,76219,2,0,L|91:155,1,71.9999956569673,2|0,0:0|0:0,0:0:0:0:
21,185,76568,2,0,L|80:231,1,71.9999956569673,2|0,0:0|0:0,0:0:0:0:
152,205,76917,1,2,0:0:0:0:
94,153,77091,2,0,P|118:105|90:17,1,143.999991313935,2|0,0:0|0:0,0:0:0:0:
162,63,77615,2,0,B|183:70|183:70|240:64,1,71.9999956569673,2|0,0:0|0:0,0:0:0:0:
294,14,77964,2,0,L|365:19,1,71.9999956569673,2|0,0:0|0:0,0:0:0:0:
413,81,78312,1,2,0:0:0:0:
481,40,78487,1,2,0:0:0:0:
413,81,78661,6,0,P|401:126|418:222,1,143.999991313935,2|2,0:3|0:0,0:0:0:0:
459,287,79184,1,2,0:0:0:0:
405,341,79359,2,0,B|324:324|336:364|250:341,1,143.999991313935,2|0,0:0|0:0,0:0:0:0:
192,306,79882,1,2,0:0:0:0:
248,250,80057,2,0,B|265:281|265:281|276:326,1,71.9999956569673,2|0,0:0|0:0,0:0:0:0:
192,306,80405,2,0,L|109:299,1,71.9999956569673,2|0,0:0|0:0,0:0:0:0:
48,335,80754,2,0,P|31:298|21:257,1,71.9999956569673,2|0,0:0|0:0,0:0:0:0:
62,198,81103,2,0,P|83:160|89:94,1,107.999993485451,2|0,0:0|0:0,0:0:0:0:
65,64,81452,6,0,B|178:78|178:78|143:44,1,143.999991313935,2|0,0:0|0:0,0:0:0:0:
231,32,81975,1,2,0:0:0:0:
263,104,82150,2,0,P|260:172|203:227,1,143.999991313935,2|0,0:0|0:0,0:0:0:0:
133,201,82673,1,2,0:0:0:0:
106,275,82847,2,0,P|99:312|102:354,1,71.9999956569673,2|0,0:0|0:0,0:0:0:0:
178,360,83196,2,0,L|252:355,1,71.9999956569673,2|0,0:0|0:0,0:0:0:0:
306,299,83545,2,0,L|453:315,1,143.999991313935,2|0,0:0|0:0,0:0:0:0:
449,314,84243,5,2,0:3:0:0:
484,243,84417,1,2,0:0:0:0:
462,166,84591,2,0,L|384:174,1,71.9999956569673,2|0,0:0|0:0,0:0:0:0:
326,86,84940,2,0,L|397:93,1,71.9999956569673,2|0,0:0|0:0,0:0:0:0:
311,161,85289,1,2,0:0:0:0:
245,115,85464,1,2,0:0:0:0:
167,101,85638,2,0,P|129:106|87:108,1,71.9999956569673,2|0,0:0|0:0,0:0:0:0:
39,164,85987,2,0,P|50:205|51:244,1,71.9999956569673,2|0,0:0|0:0,0:0:0:0:
4,298,86336,2,0,P|40:262|132:278,1,143.999991313935,2|0,0:0|0:0,0:0:0:0:
183,328,86859,1,2,0:0:0:0:
261,316,87033,6,0,P|269:265|268:235,1,71.9999956569673,2|0,0:3|0:0,0:0:0:0:
346,227,87382,2,0,P|338:176|339:146,1,71.9999956569673,2|0,0:0|0:0,0:0:0:0:
265,124,87731,2,0,P|237:96|202:75,1,71.9999956569673,2|0,0:0|0:0,0:0:0:0:
352,76,88080,2,0,P|377:50|408:32,1,71.9999956569673,2|0,0:0|0:0,0:0:0:0:
424,109,88429,1,2,0:0:0:0:
352,76,88603,2,0,L|272:75,1,71.9999956569673,2|0,0:0|0:0,0:0:0:0:
230,136,88952,1,2,0:0:0:0:
157,103,89126,2,0,L|163:31,1,71.9999956569673,2|0,0:0|0:0,0:0:0:0:
100,160,89475,1,2,0:0:0:0:
115,237,89650,1,2,0:0:0:0:
381,6,92615,6,0,L|212:23,1,159.999995231628,4|0,0:0|0:0,0:0:0:0:
138,97,93138,1,8,0:0:0:0:
220,169,93312,2,0,P|248:95|221:22,1,159.999995231628,8|0,0:1|0:0,0:0:0:0:
138,97,93836,2,0,L|56:89,1,79.9999976158142,8|0,0:0|0:0,0:0:0:0:
4,186,94184,1,8,0:0:0:0:
68,278,94359,2,0,L|75:368,1,79.9999976158142,8|0,0:0|0:0,0:0:0:0:
186,347,94708,2,0,P|235:293|322:303,1,159.999995231628,8|0,0:1|0:0,0:0:0:0:
404,368,95231,1,8,0:0:0:0:
491,298,95405,6,0,P|526:232|501:146,1,159.999995231628,2|0,0:0|0:0,0:0:0:0:
407,208,95929,1,8,0:0:0:0:
404,96,96103,2,0,L|241:86,1,159.999995231628,8|0,0:1|0:0,0:0:0:0:
169,169,96626,2,0,P|163:224|168:271,1,79.9999976158142,8|0,0:0|0:0,0:0:0:0:
251,319,96975,1,8,0:0:0:0:
326,235,97150,2,0,P|332:180|327:133,1,79.9999976158142,8|0,0:0|0:0,0:0:0:0:
169,169,97498,1,8,0:1:0:0:
244,86,97673,2,0,B|244:47|253:13|253:13|206:32|160:31,1,159.999995231628,8|2,0:0|0:0,0:0:0:0:
123,31,98109,1,2,0:0:0:0:
123,31,98196,6,0,L|43:22,1,79.9999976158142,2|0,0:3|0:0,0:0:0:0:
16,131,98545,2,0,L|96:140,1,79.9999976158142,8|8,0:0|0:0,0:0:0:0:
119,248,98894,2,0,B|42:242|42:242|17:283|30:319,1,159.999995231628,8|2,1:0|0:0,0:0:0:0:
128,373,99417,2,0,L|207:368,1,79.9999976158142,10|0,0:0|0:0,0:0:0:0:
221,257,99766,1,8,0:0:0:0:
312,321,99940,2,0,P|328:281|334:239,1,79.9999976158142,8|2,0:0|0:0,0:0:0:0:
242,180,100289,2,0,P|226:220|220:262,1,79.9999976158142,8|0,0:1|0:0,0:0:0:0:
342,138,100638,1,2,0:0:0:0:
342,138,100812,1,2,0:0:0:0:
292,36,100987,6,0,L|386:30,2,79.9999976158142,10|0|0,0:0|0:0|0:0,0:0:0:0:
190,84,101510,1,10,0:0:0:0:
190,84,101684,2,0,L|26:69,1,159.999995231628,8|8,0:1|0:0,0:0:0:0:
56,179,102208,2,0,P|65:217|70:268,1,79.9999976158142,8|2,0:0|0:0,0:0:0:0:
98,366,102557,1,2,0:0:0:0:
184,295,102731,2,0,P|212:257|226:218,1,79.9999976158142,10|2,0:0|0:0,0:0:0:0:
313,158,103080,2,0,P|311:207|317:252,1,79.9999976158142,8|8,0:1|0:0,0:0:0:0:
288,347,103429,1,2,0:0:0:0:
395,316,103603,1,2,0:0:0:0:
395,316,103690,1,2,0:0:0:0:
395,316,103778,6,0,B|421:327|421:327|481:320,1,79.9999976158142,2|0,0:3|0:0,0:0:0:0:
495,211,104126,2,0,L|503:127,1,79.9999976158142,8|8,0:0|0:0,0:0:0:0:
444,35,104475,2,0,B|389:40|389:40|348:21|348:21|288:26,1,159.999995231628,8|0,0:1|0:0,0:0:0:0:
281,179,104998,2,0,P|304:155|327:111,1,79.9999976158142,8|0,0:0|0:0,0:0:0:0:
215,93,105347,1,8,0:0:0:0:
163,193,105522,2,0,L|80:203,1,79.9999976158142,8|0,0:0|0:0,0:0:0:0:
10,288,105871,2,0,L|183:298,1,159.999995231628,8|0,0:1|0:0,0:0:0:0:
256,368,106394,1,0,0:0:0:0:
342,297,106568,6,0,L|502:288,1,159.999995231628,10|0,0:0|0:0,0:0:0:0:
453,186,107091,1,8,0:0:0:0:
489,79,107266,2,0,P|447:86|405:82,1,79.9999976158142,8|0,0:1|0:0,0:0:0:0:
302,48,107615,1,8,0:0:0:0:
302,48,107789,2,0,P|214:53|163:110,1,159.999995231628,8|0,0:0|0:0,0:0:0:0:
183,212,108312,2,0,P|184:252|173:299,1,79.9999976158142,8|0,0:0|0:0,0:0:0:0:
166,101,108661,1,8,0:1:0:0:
265,153,108836,2,0,L|433:133,1,159.999995231628,0|2,0:0|0:0,0:0:0:0:
459,171,109272,1,2,0:0:0:0:
459,171,109359,6,0,P|454:215|459:265,1,79.9999976158142,2|0,0:3|0:0,0:0:0:0:
399,347,109708,2,0,P|363:320|317:300,1,79.9999976158142,8|8,0:0|0:0,0:0:0:0:
223,336,110057,2,0,P|156:374|72:354,1,159.999995231628,8|2,0:1|0:0,0:0:0:0:
138,263,110580,2,0,P|137:218|127:166,1,79.9999976158142,10|0,0:0|0:0,0:0:0:0:
61,95,110929,1,8,0:0:0:0:
61,95,111103,2,0,B|144:76,1,79.9999976158142,8|2,0:0|0:0,0:0:0:0:
235,135,111452,2,0,L|325:133,1,79.9999976158142,8|0,0:1|0:0,0:0:0:0:
357,29,111801,1,2,0:0:0:0:
468,30,111975,1,2,0:0:0:0:
510,134,112150,6,0,P|499:177|499:231,1,79.9999976158142,10|2,0:0|0:0,0:0:0:0:
406,278,112498,2,0,P|403:238|393:199,1,79.9999976158142,0|10,0:0|0:0,0:0:0:0:
307,130,112847,2,0,B|244:119|191:150|191:150|225:170,1,159.999995231628,8|2,0:1|0:0,0:0:0:0:
287,264,113371,1,8,0:0:0:0:
234,362,113545,1,2,0:0:0:0:
234,362,113719,1,2,0:0:0:0:
122,372,113894,1,10,0:0:0:0:
61,277,114068,1,2,0:0:0:0:
115,178,114243,2,0,L|99:91,1,79.9999976158142,8|2,0:1|0:0,0:0:0:0:
0,50,114591,2,0,L|11:129,1,79.9999976158142,8|8,0:1|0:1,0:0:0:0:
170,35,114940,6,0,B|214:24|214:24|239:41|239:41|263:25|316:23,1,143.999991313935,4|0,0:0|0:0,0:0:0:0:
392,75,115464,1,10,0:0:0:0:
378,176,115638,2,0,P|353:239|286:265,1,143.999991313935,8|8,0:1|0:0,0:0:0:0:
199,212,116161,2,0,L|121:208,1,71.9999956569673,2|0,0:0|0:0,0:0:0:0:
32,244,116510,1,8,0:0:0:0:
127,279,116684,2,0,B|132:244|132:244|126:201,1,71.9999956569673,8|2,0:0|0:0,0:0:0:0:
52,337,117033,2,0,P|96:369|181:356,1,143.999991313935,8|2,0:1|0:0,0:0:0:0:
255,287,117557,1,2,0:0:0:0:
331,356,117731,6,0,P|399:372|460:337,1,143.999991313935,8|0,0:0|0:0,0:0:0:0:
481,197,118254,1,10,0:0:0:0:
391,150,118429,2,0,L|387:293,1,143.999991313935,8|8,0:1|0:0,0:0:0:0:
292,257,118952,2,0,L|295:181,1,71.9999956569673,10|2,0:0|0:0,0:0:0:0:
311,85,119301,1,8,0:0:0:0:
146,125,119475,2,0,L|221:121,1,71.9999956569673,8|2,0:0|0:0,0:0:0:0:
311,85,119824,1,8,0:1:0:0:
381,13,119998,2,0,L|227:4,1,143.999991313935,8|0,0:0|0:0,0:0:0:0:
140,35,120522,6,0,B|124:68|124:68|149:94|149:94|140:133|150:168,1,143.999991313935,2|8,0:3|0:0,0:0:0:0:
163,265,121045,1,10,0:0:0:0:
87,198,121219,2,0,P|149:165|218:181,1,143.999991313935,8|8,0:1|0:0,0:0:0:0:
262,272,121743,2,0,L|254:357,1,71.9999956569673,2|2,0:0|0:0,0:0:0:0:
163,265,122091,1,8,0:0:0:0:
262,272,122266,2,0,P|297:269|337:261,1,71.9999956569673,8|2,0:0|0:0,0:0:0:0:
429,231,122615,2,0,P|367:215|305:159,1,143.999991313935,8|2,0:1|0:0,0:0:0:0:
294,63,123138,1,2,0:0:0:0:
156,159,123312,6,0,P|218:143|280:87,1,143.999991313935,10|0,0:0|0:0,0:0:0:0:
176,54,123836,1,10,0:0:0:0:
85,98,124010,2,0,B|59:127|59:127|76:247,1,143.999991313935,8|8,0:1|0:0,0:0:0:0:
162,279,124533,2,0,L|238:262,1,71.9999956569673,10|2,0:0|0:0,0:0:0:0:
81,324,124882,1,8,0:0:0:0:
167,376,125057,2,0,L|238:374,1,71.9999956569673,8|2,0:0|0:0,0:0:0:0:
324,320,125405,1,8,0:1:0:0:
412,368,125580,2,0,P|472:346|495:269,1,143.999991313935,8|2,0:0|0:0,0:0:0:0:
419,184,126103,6,0,B|399:231|415:283|415:283|377:252,1,143.999991313935,4|8,0:0|0:0,0:0:0:0:
290,213,126626,1,10,0:0:0:0:
330,120,126801,2,0,B|367:79|424:81|424:81|403:71|387:53,1,143.999991313935,8|8,0:1|0:0,0:0:0:0:
296,26,127324,2,0,L|223:27,1,71.9999956569673,2|2,0:0|0:0,0:0:0:0:
151,97,127673,1,8,0:0:0:0:
51,78,127847,2,0,P|60:120|58:162,1,71.9999956569673,8|2,0:0|0:0,0:0:0:0:
3,237,128196,2,0,B|33:218|34:218|34:218|68:229|107:218|126:181,1,143.999991313935,8|2,0:1|0:0,0:0:0:0:
133,80,128719,1,2,0:0:0:0:
60,149,128894,6,0,P|62:218|125:255,1,143.999991313935,8|2,0:0|0:0,0:0:0:0:
232,228,129417,1,10,0:0:0:0:
327,108,129591,2,0,P|324:170|255:206,1,143.999991313935,8|8,0:1|0:0,0:0:0:0:
187,132,130115,2,0,L|192:59,1,71.9999956569673,10|2,0:0|0:0,0:0:0:0:
282,15,130464,1,8,0:0:0:0:
396,94,130638,2,0,P|361:106|320:107,1,71.9999956569673,8|2,0:0|0:0,0:0:0:0:
439,29,130987,1,8,0:1:0:0:
439,29,131161,2,0,B|486:62|471:125|471:125|509:116,1,143.999991313935,8|2,0:0|0:0,0:0:0:0:
505,218,131685,6,0,L|345:202,1,143.999991313935,2|8,0:3|0:0,0:0:0:0:
263,229,132208,1,10,0:0:0:0:
201,149,132382,2,0,B|226:176|226:176|223:288,1,143.999991313935,8|8,0:1|0:0,0:0:0:0:
121,284,132905,2,0,L|125:210,1,71.9999956569673,2|2,0:0|0:0,0:0:0:0:
107,112,133254,1,8,0:0:0:0:
201,149,133429,2,0,P|237:141|271:120,1,71.9999956569673,8|2,0:0|0:0,0:0:0:0:
148,20,133778,2,0,P|84:12|21:61,1,143.999991313935,8|2,0:1|0:0,0:0:0:0:
107,112,134301,1,2,0:0:0:0:
41,188,134475,6,0,B|32:267|74:246|65:328,1,143.999991313935,10|0,0:0|0:0,0:0:0:0:
188,296,134998,1,10,0:0:0:0:
133,211,135173,2,0,P|191:194|266:230,1,143.999991313935,8|8,0:1|0:0,0:0:0:0:
314,314,135696,2,0,B|337:325|337:325|397:318,1,71.9999956569673,10|0,0:0|0:0,0:0:0:0:
459,253,136045,1,10,0:0:0:0:
447,153,136219,2,0,B|420:160|420:160|369:151,1,71.9999956569673,10|2,0:0|0:0,0:0:0:0:
279,123,136568,2,0,L|201:109,1,71.9999956569673,8|10,0:1|0:0,0:0:0:0:
157,35,136917,2,0,L|90:47,1,63.9999980926514,2|2,0:0|0:0,0:0:0:0:
5,33,137266,6,0,P|2:88|34:136,1,111.999993244171,2|0,0:3|0:0,0:0:0:0:
90,186,137789,2,0,P|87:231|81:259,1,55.9999966220857,2|0,0:0|0:0,0:0:0:0:
141,295,138137,1,0,0:0:0:0:
141,295,138312,2,0,P|167:301|206:295,1,55.9999966220857,2|0,0:0|0:0,0:0:0:0:
273,282,138661,1,0,0:0:0:0:
273,282,138835,2,0,L|264:212,1,55.9999966220857,2|0,0:0|0:0,0:0:0:0:
315,165,139184,1,0,0:0:0:0:
315,165,139359,2,0,L|330:33,1,111.999993244171,2|0,0:0|0:0,0:0:0:0:
255,22,139882,1,0,0:0:0:0:
410,33,140057,6,0,P|434:90|433:154,1,111.999993244171,2|0,0:3|0:0,0:0:0:0:
407,213,140580,2,0,L|393:274,1,55.9999966220857,2|0,0:0|0:0,0:0:0:0:
428,338,140929,1,0,0:0:0:0:
355,367,141103,2,0,L|296:374,1,55.9999966220857,2|0,0:0|0:0,0:0:0:0:
242,319,141452,1,0,0:0:0:0:
163,324,141626,2,0,P|155:354|156:389,1,55.9999966220857,2|0,0:0|0:0,0:0:0:0:
242,319,141975,1,0,0:0:0:0:
200,252,142150,2,0,P|146:247|97:278,1,111.999993244171,2|0,0:0|0:0,0:0:0:0:
163,324,142673,1,0,0:0:0:0:
45,326,142847,6,0,L|57:209,1,111.999993244171,2|0,0:3|0:0,0:0:0:0:
12,148,143371,2,0,P|38:137|88:127,1,55.9999966220857,2|0,0:0|0:0,0:0:0:0:
139,152,143719,1,0,0:0:0:0:
139,152,143894,2,0,P|167:161|198:162,1,55.9999966220857,2|0,0:0|0:0,0:0:0:0:
265,133,144243,1,0,0:0:0:0:
265,133,144417,2,0,L|254:78,1,55.9999966220857,2|0,0:0|0:0,0:0:0:0:
320,36,144766,1,0,0:0:0:0:
320,36,144940,2,0,L|441:52,1,111.999993244171,2|0,0:0|0:0,0:0:0:0:
495,4,145464,1,0,0:0:0:0:
463,137,145638,6,0,L|351:122,1,111.999993244171,2|0,0:3|0:0,0:0:0:0:
275,141,146161,2,0,L|284:210,1,55.9999966220857,2|0,0:0|0:0,0:0:0:0:
342,247,146510,1,0,0:0:0:0:
356,323,146684,2,0,L|353:382,1,55.9999966220857,2|0,0:0|0:0,0:0:0:0:
279,351,147033,1,0,0:0:0:0:
279,351,147208,1,0,0:0:0:0:
204,328,147382,2,0,P|176:330|135:338,1,55.9999966220857,2|0,0:0|0:0,0:0:0:0:
82,291,147731,1,0,0:0:0:0:
137,213,147905,2,0,P|147:179|149:151,1,55.9999966220857,2|0,0:0|0:0,0:0:0:0:
92,68,148254,1,0,0:0:0:0:
92,68,148429,6,0,P|142:92|285:-3,1,239.999992847443,2|0,0:3|0:0,0:0:0:0:
370,19,149824,2,0,L|379:140,1,119.999996423721,2|0,0:0|0:0,0:0:0:0:
388,181,150522,2,0,P|386:234|332:287,1,119.999996423721
356,324,151219,6,0,L|266:320,1,79.9999976158142,2|0,0:3|0:0,0:0:0:0:
208,263,151917,2,0,P|133:266|104:343,1,159.999995231628
35,151,153312,2,0,B|60:135|60:135|68:87|59:35,1,119.999996423721,2|0,0:0|0:0,0:0:0:0:
104,41,154010,6,0,L|196:51,1,79.9999976158142,2|0,0:3|0:0,0:0:0:0:
271,42,154708,2,0,B|321:28|321:28|356:49|356:49|401:31|401:31|443:49|443:49|493:32|493:32|502:74|480:114,1,319.999990463257,2|0,0:0|0:0,0:0:0:0:
327,248,156801,6,0,B|303:304|316:383|316:383|329:356,1,159.999995231628,2|0,0:3|0:0,0:0:0:0:
429,320,157847,2,0,L|434:268,1,47.9999971046449
417,195,158196,2,0,P|386:158|321:140,1,111.999993244171,2|0,0:0|0:0,0:0:0:0:
249,93,158719,2,0,B|236:122|236:122|332:87,1,127.999996185303,2|0,0:0|0:0,0:0:0:0:
464,42,159243,2,0,L|383:28,1,71.9999956569673,2|0,0:0|0:0,0:0:0:0:
175,63,159591,6,0,P|153:117|200:202,1,159.999995231628,4|8,0:0|0:0,0:0:0:0:
307,231,160115,1,8,0:0:0:0:
226,308,160289,2,0,B|162:302|162:302|130:321|130:321|69:314,1,159.999995231628,8|8,0:1|0:0,0:0:0:0:
18,215,160812,1,0,0:0:0:0:
40,104,160987,2,0,P|36:60|20:21,1,79.9999976158142,10|8,0:0|0:0,0:0:0:0:
127,158,161336,2,0,P|113:195|110:235,1,79.9999976158142,10|0,0:0|0:0,0:0:0:0:
219,53,161684,2,0,L|130:63,1,79.9999976158142,8|0,0:1|0:0,0:0:0:0:
215,144,162033,2,0,L|304:154,1,79.9999976158142,2|0,0:0|0:0,0:0:0:0:
389,92,162382,6,0,P|406:160|364:244,1,159.999995231628,8|0,0:0|0:0,0:0:0:0:
294,152,162905,1,8,0:0:0:0:
265,260,163080,2,2,P|261:311|265:345,1,79.9999976158142,8|0,0:1|0:0,0:0:0:0:
369,238,163429,1,10,0:0:0:0:
294,152,163603,2,0,P|221:163|164:230,1,159.999995231628,10|0,0:0|0:0,0:0:0:0:
121,328,164126,2,0,P|75:326|3:228,1,159.999995231628,10|8,0:0|0:1,0:0:0:0:
46,140,164650,2,0,L|30:59,2,79.9999976158142,8|2|2,0:0|0:0|0:0,0:0:0:0:
157,149,165173,6,0,B|249:136|220:186|316:175,1,159.999995231628,2|8,0:3|0:0,0:0:0:0:
317,17,165696,1,10,0:0:0:0:
317,17,165871,2,0,P|296:58|290:105,1,79.9999976158142,8|0,0:1|0:0,0:0:0:0:
311,255,166219,2,0,P|380:221|387:145,1,159.999995231628,10|0,0:0|0:0,0:0:0:0:
471,70,166743,1,10,0:0:0:0:
507,175,166917,2,0,L|501:269,1,79.9999976158142,10|0,0:0|0:0,0:0:0:0:
409,318,167266,2,0,L|414:238,1,79.9999976158142,8|0,0:1|0:0,0:0:0:0:
316,175,167615,2,0,L|310:269,1,79.9999976158142,2|0,0:0|0:0,0:0:0:0:
214,314,167964,6,0,P|161:350|66:328,1,159.999995231628,10|2,0:0|0:0,0:0:0:0:
5,241,168487,1,10,0:0:0:0:
89,166,168661,2,0,P|109:134|71:18,1,159.999995231628,8|8,0:1|0:0,0:0:0:0:
161,100,169184,2,0,P|201:90|250:90,1,79.9999976158142,10|0,0:0|0:0,0:0:0:0:
329,155,169533,1,0,0:0:0:0:
426,99,169708,2,0,P|440:62|441:15,1,79.9999976158142,10|0,0:0|0:0,0:0:0:0:
329,155,170057,1,8,0:1:0:0:
316,266,170231,1,0,0:0:0:0:
406,331,170405,1,2,0:0:0:0:
506,312,170580,1,2,0:0:0:0:
436,213,170754,6,0,L|274:196,1,159.999995231628,4|8,0:0|0:0,0:0:0:0:
178,154,171278,1,8,0:0:0:0:
119,249,171452,2,0,P|206:259|266:222,1,159.999995231628,8|8,0:1|0:0,0:0:0:0:
178,154,171975,1,0,0:0:0:0:
103,237,172150,2,0,L|22:275,1,79.9999976158142,10|8,0:0|0:0,0:0:0:0:
76,138,172498,2,0,P|46:107|23:68,1,79.9999976158142,10|0,0:0|0:0,0:0:0:0:
136,50,172847,1,8,0:1:0:0:
136,50,173022,1,0,0:0:0:0:
178,154,173196,2,0,P|180:196|172:238,1,79.9999976158142,2|0,0:0|0:0,0:0:0:0:
258,68,173545,6,0,B|314:60|314:60|356:76|356:76|418:64,1,159.999995231628,8|2,0:0|0:0,0:0:0:0:
509,5,174068,1,10,0:0:0:0:
510,117,174243,2,0,P|503:145|499:204,1,79.9999976158142,8|0,0:1|0:0,0:0:0:0:
487,306,174591,1,10,0:0:0:0:
387,253,174766,2,0,P|317:263|269:339,1,159.999995231628,10|0,0:0|0:0,0:0:0:0:
166,376,175289,2,0,P|170:340|162:296,1,79.9999976158142,10|0,0:0|0:0,0:0:0:0:
103,201,175638,1,8,0:1:0:0:
103,201,175812,1,8,0:0:0:0:
30,286,175987,2,0,L|38:386,1,79.9999976158142,10|0,0:0|0:0,0:0:0:0:
103,201,176336,6,0,L|109:38,1,159.999995231628,2|0,0:3|0:0,0:0:0:0:
215,6,176859,1,8,0:0:0:0:
255,110,177033,2,0,P|329:127|405:85,1,159.999995231628,8|10,0:1|0:0,0:0:0:0:
317,13,177557,1,2,0:0:0:0:
255,110,177731,2,0,P|250:148|250:200,1,79.9999976158142,2|8,0:0|0:0,0:0:0:0:
329,267,178080,2,0,L|408:255,1,79.9999976158142,10|0,0:0|0:0,0:0:0:0:
290,360,178429,2,0,L|117:335,1,159.999995231628,8|0,0:1|0:0,0:0:0:0:
43,265,178952,1,2,0:0:0:0:
123,157,179126,6,0,B|149:126|149:126|136:249,1,159.999995231628,10|0,0:0|0:0,0:0:0:0:
246,220,179650,1,10,0:0:0:0:
275,112,179824,2,0,B|249:81|249:81|262:204,1,159.999995231628,8|2,0:1|0:0,0:0:0:0:
338,284,180347,2,0,P|393:294|464:226,1,159.999995231628,10|0,0:0|0:0,0:0:0:0:
399,134,180871,2,0,P|385:165|380:213,1,79.9999976158142,10|2,0:0|0:0,0:0:0:0:
500,144,181219,2,0,P|496:104|479:68,1,79.9999976158142,8|0,0:1|0:0,0:0:0:0:
382,12,181568,1,2,0:0:0:0:
297,85,181743,1,2,0:0:0:0:
151,276,184701,6,0,L|304:249,1,143.999991313935,4|8,0:0|0:0,0:0:0:0:
365,320,185224,1,8,0:0:0:0:
380,220,185398,2,0,P|372:176|379:138,1,71.9999956569673,8|0,0:1|0:0,0:0:0:0:
452,83,185747,2,0,P|390:110|330:50,1,143.999991313935,8|0,0:0|0:0,0:0:0:0:
239,103,186271,1,8,0:0:0:0:
239,103,186445,2,0,L|157:117,1,71.9999956569673,8|0,0:0|0:0,0:0:0:0:
94,184,186794,2,0,L|100:13,1,143.999991313935,8|0,0:1|0:0,0:0:0:0:
12,92,187317,1,0,0:0:0:0:
12,92,187491,6,0,L|10:166,1,71.9999956569673,10|0,0:0|0:0,0:0:0:0:
104,200,187840,2,0,L|105:128,1,71.9999956569673,0|8,0:0|0:0,0:0:0:0:
23,263,188189,2,0,L|60:335,1,71.9999956569673,8|0,0:1|0:0,0:0:0:0:
169,353,188538,2,0,L|136:288,1,71.9999956569673,2|8,0:0|0:0,0:0:0:0:
236,273,188887,2,0,P|289:281|353:215,1,143.999991313935,10|8,0:0|0:0,0:0:0:0:
263,172,189410,1,2,0:0:0:0:
347,116,189584,2,0,L|426:124,1,71.9999956569673,8|8,0:1|0:0,0:0:0:0:
351,223,189933,2,0,L|430:231,1,71.9999956569673,10|2,0:0|0:0,0:0:0:0:
426,331,190282,6,0,B|351:324|351:324|311:319|281:293,1,143.999991313935,2|0,0:3|0:0,0:0:0:0:
234,213,190805,1,10,0:0:0:0:
234,213,190980,2,0,P|245:172|245:133,1,71.9999956569673,8|0,0:1|0:0,0:0:0:0:
85,49,191329,2,0,P|102:116|167:160,1,143.999991313935,10|0,0:0|0:0,0:0:0:0:
257,54,191852,1,8,0:0:0:0:
257,54,192026,2,0,P|221:53|186:60,1,71.9999956569673,10|0,0:0|0:0,0:0:0:0:
334,121,192375,2,0,B|393:138|444:134|444:134|468:107,1,143.999991313935,8|2,0:1|0:0,0:0:0:0:
439,12,192898,1,2,0:0:0:0:
399,173,193073,6,0,L|405:247,1,71.9999956569673,10|0,0:0|0:0,0:0:0:0:
293,276,193422,2,0,B|298:240|298:240|315:206,1,71.9999956569673,2|8,0:0|0:0,0:0:0:0:
344,355,193771,2,0,B|294:371|294:371|258:361|258:361|195:376,1,143.999991313935,8|8,0:1|0:0,0:0:0:0:
106,353,194294,1,10,0:0:0:0:
164,271,194468,2,0,L|172:177,1,71.9999956569673,2|0,0:0|0:0,0:0:0:0:
120,111,194817,1,10,0:0:0:0:
120,111,194991,1,2,0:0:0:0:
211,67,195166,2,0,P|222:31|225:-8,1,71.9999956569673,8|2,0:1|0:0,0:0:0:0:
283,150,195515,2,0,P|279:185|268:220,1,71.9999956569673,2|2,0:0|0:0,0:0:0:0:
331,53,195864,6,0,P|387:51|451:108,1,143.999991313935,4|8,0:0|0:0,0:0:0:0:
408,198,196387,1,10,0:0:0:0:
473,274,196561,2,0,L|482:355,1,71.9999956569673,8|0,0:1|0:0,0:0:0:0:
383,371,196910,2,0,B|281:363|281:363|330:340,1,143.999991313935,10|0,0:0|0:0,0:0:0:0:
307,244,197433,1,8,0:0:0:0:
243,165,197608,2,0,B|225:150|225:150|160:142,1,71.9999956569673,10|0,0:0|0:0,0:0:0:0:
99,78,197957,2,0,B|126:101|126:101|243:85,1,143.999991313935,8|0,0:1|0:0,0:0:0:0:
320,34,198480,1,2,0:0:0:0:
420,36,198654,6,0,P|429:78|431:119,1,71.9999956569673,10|0,0:0|0:0,0:0:0:0:
277,172,199003,2,0,P|327:157|358:158,1,71.9999956569673,2|8,0:0|0:0,0:0:0:0:
370,255,199352,2,0,P|320:270|289:269,1,71.9999956569673,8|0,0:1|0:0,0:0:0:0:
220,371,199701,2,0,P|211:335|208:300,1,71.9999956569673,10|0,0:0|0:0,0:0:0:0:
149,218,200050,1,2,0:0:0:0:
149,218,200224,1,8,0:0:0:0:
80,143,200398,2,0,P|86:108|90:70,1,71.9999956569673,10|0,0:0|0:0,0:0:0:0:
210,28,200747,1,8,0:1:0:0:
184,117,200922,2,0,P|248:120|296:58,1,143.999991313935,10|0,0:0|0:0,0:0:0:0:
392,90,201445,6,0,P|391:155|472:205,1,143.999991313935,2|10,0:3|0:0,0:0:0:0:
479,298,201968,1,10,0:0:0:0:
393,352,202143,2,0,L|312:350,1,71.9999956569673,8|0,0:1|0:0,0:0:0:0:
249,279,202491,1,10,0:0:0:0:
249,279,202666,2,0,B|216:258|216:258|100:272,1,143.999991313935,10|2,0:0|0:0,0:0:0:0:
12,251,203189,2,0,L|20:179,1,71.9999956569673,10|2,0:0|0:0,0:0:0:0:
122,102,203538,2,0,L|132:254,1,143.999991313935,8|2,0:1|0:0,0:0:0:0:
230,266,204061,1,2,0:0:0:0:
203,168,204236,6,0,B|254:164|254:164|291:185|291:185|344:179,1,143.999991313935,2|10,0:3|0:0,0:0:0:0:
418,114,204759,1,10,0:0:0:0:
409,13,204933,2,0,L|336:7,1,71.9999956569673,8|0,0:1|0:0,0:0:0:0:
267,72,205282,1,10,0:0:0:0:
267,72,205457,2,0,P|280:138|342:179,1,143.999991313935,10|2,0:0|0:0,0:0:0:0:
323,278,205980,2,0,P|279:294|237:292,1,71.9999956569673,8|2,0:0|0:0,0:0:0:0:
156,319,206329,1,8,0:1:0:0:
103,233,206503,1,2,0:0:0:0:
168,156,206677,1,8,0:1:0:0:
261,194,206852,1,8,0:1:0:0:
205,198,208073,6,0,L|260:193,1,55.9999966220857
332,139,208422,6,0,B|353:104|353:41|353:41|333:58,1,127.999996185303,2|0,0:0|0:0,0:0:0:0:
344,228,208945,6,0,B|343:268|375:333|375:333|391:296,1,143.999991313935,2|0,0:0|0:0,0:0:0:0:
495,188,209468,6,0,L|414:177,1,79.9999976158142,2|0,0:0|0:0,0:0:0:0:
240,146,209817,6,0,P|163:151|122:236,1,176.000000125885,4|8,0:0|0:0,0:0:0:0:
204,323,210340,1,8,0:0:0:0:
80,312,210515,2,0,L|67:125,1,176.000000125885,8|0,0:1|0:0,0:0:0:0:
181,88,211038,1,2,0:0:0:0:
87,7,211212,2,0,L|-7:19,1,88.0000000629425,10|8,0:0|0:0,0:0:0:0:
181,88,211561,2,0,L|275:100,1,88.0000000629425,8|0,0:0|0:0,0:0:0:0:
390,83,211910,2,0,P|405:45|414:-1,1,88.0000000629425,8|0,0:1|0:0,0:0:0:0:
341,181,212259,2,0,P|349:224|365:265,1,88.0000000629425,0|2,0:0|0:0,0:0:0:0:
467,334,212608,6,0,B|445:303|445:303|377:292|317:345,1,176.000000125885,10|0,0:0|0:0,0:0:0:0:
200,380,213131,1,8,0:0:0:0:
93,318,213305,2,0,L|107:216,1,88.0000000629425,8|0,0:1|0:0,0:0:0:0:
182,360,213654,1,10,0:0:0:0:
261,265,213829,2,0,L|241:81,1,176.000000125885,10|0,0:0|0:0,0:0:0:0:
366,88,214352,2,0,P|408:74|448:46,1,88.0000000629425,8|2,0:0|0:0,0:0:0:0:
242,91,214701,2,0,P|206:65|164:51,1,88.0000000629425,8|0,0:1|0:0,0:0:0:0:
62,120,215050,2,0,P|57:164|66:207,1,88.0000000629425,2|2,0:0|0:0,0:0:0:0:
167,267,215398,6,0,B|256:237|218:209|315:178,1,176.000000125885,2|8,0:3|0:0,0:0:0:0:
430,226,215922,1,10,0:0:0:0:
327,294,216096,2,0,B|314:338|314:338|319:389,1,88.0000000629425,8|0,0:1|0:0,0:0:0:0:
430,226,216445,2,0,B|453:148|453:148|440:47,1,176.000000125885,8|2,0:0|0:0,0:0:0:0:
324,13,216968,1,10,0:0:0:0:
324,136,217143,2,0,P|281:129|241:103,1,88.0000000629425,8|0,0:0|0:0,0:0:0:0:
200,220,217491,2,0,P|159:222|110:209,1,88.0000000629425,8|0,0:1|0:0,0:0:0:0:
85,330,217840,2,0,P|46:352|-1:364,1,88.0000000629425,2|2,0:0|0:0,0:0:0:0:
191,325,218189,6,0,B|295:320|256:369|360:359,1,176.000000125885,8|8,0:0|0:0,0:0:0:0:
420,251,218712,1,10,0:0:0:0:
348,149,218887,2,0,B|327:283|327:283|317:243,1,176.000000125885,8|8,0:1|0:0,0:0:0:0:
198,208,219410,2,0,L|191:20,1,176.000000125885,10|0,0:0|0:0,0:0:0:0:
86,97,219933,2,0,L|78:198,1,88.0000000629425,8|2,0:0|0:0,0:0:0:0:
118,301,220282,1,8,0:1:0:0:
118,301,220457,1,0,0:0:0:0:
198,208,220631,2,0,L|239:122,1,88.0000000629425,2|2,0:0|0:0,0:0:0:0:
338,60,220980,6,0,B|439:63|405:109|502:114,1,176.000000125885,4|10,0:0|0:0,0:0:0:0:
352,158,221503,1,10,0:0:0:0:
352,158,221677,2,0,P|305:213|322:317,1,176.000000125885,8|8,0:1|0:0,0:0:0:0:
462,361,222201,1,2,0:0:0:0:
410,249,222375,2,0,L|308:231,1,88.0000000629425,8|8,0:0|0:0,0:0:0:0:
266,124,222724,2,0,L|179:139,1,88.0000000629425,8|2,0:0|0:0,0:0:0:0:
106,239,223073,2,0,L|4:221,1,88.0000000629425,8|0,0:1|0:0,0:0:0:0:
146,133,223422,2,0,L|233:118,1,88.0000000629425,2|2,0:0|0:0,0:0:0:0:
346,70,223771,6,0,B|362:55|373:33|373:33|366:110|417:167,1,176.000000125885,8|0,0:0|0:0,0:0:0:0:
490,64,224294,1,10,0:0:0:0:
407,155,224468,2,0,L|414:253,1,88.0000000629425,8|0,0:1|0:0,0:0:0:0:
478,347,224817,2,0,B|379:316|404:378|307:347,1,176.000000125885,10|0,0:0|0:0,0:0:0:0:
208,271,225340,1,10,0:0:0:0:
102,335,225515,2,0,P|64:343|13:342,1,88.0000000629425,10|0,0:0|0:0,0:0:0:0:
208,271,225864,2,0,P|225:233|235:181,1,88.0000000629425,8|8,0:1|0:0,0:0:0:0:
122,134,226212,2,0,B|121:178|135:224|135:224|99:202,1,132.000000094414,2|0,0:0|0:0,0:0:0:0:
40,219,226561,6,0,L|46:125,1,88.0000000629425,2|0,0:3|0:0,0:0:0:0:
141,54,226910,1,10,0:0:0:0:
141,54,227084,1,10,0:0:0:0:
259,89,227259,2,0,L|253:176,1,88.0000000629425,8|0,0:1|0:0,0:0:0:0:
344,260,227608,2,0,B|383:283|383:283|513:262,1,176.000000125885,10|0,0:0|0:0,0:0:0:0:
462,148,228131,1,10,0:0:0:0:
506,33,228305,2,0,L|402:21,1,88.0000000629425,10|0,0:0|0:0,0:0:0:0:
296,6,228654,2,0,B|193:-5|227:38|122:26,1,176.000000125885,8|2,0:1|0:0,0:0:0:0:
38,115,229177,1,2,0:0:0:0:
96,223,229352,6,0,B|112:275|95:349|95:349|84:320|67:300,1,176.000000125885,2|8,0:3|0:0,0:0:0:0:
6,201,229875,1,10,0:0:0:0:
147,292,230050,2,0,B|207:281|207:281|256:305|256:305|331:287,1,176.000000125885,8|8,0:1|0:0,0:0:0:0:
269,175,230573,2,0,P|291:136|326:108,1,88.0000000629425,10|0,0:0|0:0,0:0:0:0:
441,150,230922,1,2,0:0:0:0:
490,262,231096,2,0,P|467:300|432:328,1,88.0000000629425,8|2,0:0|0:0,0:0:0:0:
314,290,231445,1,8,0:1:0:0:
269,175,231619,1,2,0:0:0:0:
157,122,231794,1,8,0:1:0:0:
34,119,231968,1,8,0:1:0:0:
39,122,234933,6,0,P|10:180|40:268,1,159.999995231628,4|8,0:0|0:0,0:0:0:0:
129,332,235457,1,10,0:0:0:0:
218,264,235631,2,0,P|247:191|217:119,1,159.999995231628,8|8,0:1|0:0,0:0:0:0:
130,48,236154,1,2,0:0:0:0:
217,119,236329,2,0,B|309:132|285:96|374:107,1,159.999995231628,2|8,0:0|0:0,0:0:0:0:
436,201,236852,1,2,0:0:0:0:
346,268,237026,2,0,L|337:172,2,79.9999976158142,8|0|2,0:1|0:0|0:0,0:0:0:0:
414,357,237550,1,2,0:0:0:0:
260,351,237724,6,0,P|216:299|123:292,1,159.999995231628,8|0,0:0|0:0,0:0:0:0:
36,353,238247,1,10,0:0:0:0:
26,241,238422,2,0,P|70:189|163:182,1,159.999995231628,8|8,0:1|0:0,0:0:0:0:
264,214,238945,1,10,0:0:0:0:
278,103,239119,2,0,L|268:21,1,79.9999976158142,2|8,0:0|0:0,0:0:0:0:
362,185,239468,2,0,L|352:264,2,79.9999976158142,8|2|10,0:0|0:0|0:0,0:0:0:0:
389,76,239991,2,0,L|473:78,1,79.9999976158142,8|2,0:0|0:0,0:0:0:0:
362,185,240340,1,2,0:0:0:0:
269,121,240515,6,0,L|101:137,1,159.999995231628,2|8,0:3|0:0,0:0:0:0:
30,216,241038,1,10,0:0:0:0:
122,279,241212,2,0,L|281:263,1,159.999995231628,8|8,0:1|0:0,0:0:0:0:
362,185,241736,1,2,0:0:0:0:
446,257,241910,2,0,B|452:296|452:296|445:339,1,79.9999976158142,2|8,0:0|0:0,0:0:0:0:
362,185,242259,2,0,B|356:146|356:146|363:103,1,79.9999976158142,8|2,0:0|0:0,0:0:0:0:
459,48,242608,2,0,P|391:60|319:5,1,159.999995231628,8|2,0:1|0:0,0:0:0:0:
176,79,243131,1,2,0:0:0:0:
176,79,243305,6,0,P|244:91|316:36,1,159.999995231628,10|0,0:0|0:0,0:0:0:0:
438,157,243829,1,10,0:0:0:0:
438,157,244003,2,0,P|372:141|321:61,1,159.999995231628,8|10,0:1|0:0,0:0:0:0:
229,4,244526,1,10,0:0:0:0:
159,92,244701,2,0,L|157:185,1,79.9999976158142,10|0,0:0|0:0,0:0:0:0:
52,213,245050,2,0,L|50:133,1,79.9999976158142,10|2,0:0|0:0,0:0:0:0:
157,171,245398,2,0,P|198:177|241:174,1,79.9999976158142,8|0,0:1|0:0,0:0:0:0:
91,297,245747,2,0,P|50:303|7:300,1,79.9999976158142,2|2,0:0|0:0,0:0:0:0:
225,300,246096,6,0,P|288:307|329:374,1,143.999991313935,4|0,0:0|0:0,0:0:0:0:
429,369,246619,1,2,0:0:0:0:
498,295,246794,2,0,P|461:241|477:167,1,143.999991313935,8|2,0:1|0:0,0:0:0:0:
509,72,247317,1,2,0:0:0:0:
409,86,247491,2,0,B|369:106|369:106|262:95,1,143.999991313935,2|0,0:0|0:0,0:0:0:0:
176,55,248015,1,2,0:0:0:0:
84,97,248189,2,0,P|75:61|79:23,2,71.9999956569673,8|0|2,0:1|0:0|0:0,0:0:0:0:
164,158,248712,1,2,0:0:0:0:
164,158,248887,6,0,P|182:226|176:300,1,143.999991313935
255,362,249410,1,2,0:0:0:0:
335,298,249584,2,0,P|329:227|348:158,1,143.999991313935,8|2,0:1|0:0,0:0:0:0:
326,58,250108,1,2,0:0:0:0:
326,58,250282,2,0,B|270:53|270:53|243:68|243:68|183:63,1,143.999991313935
89,91,250805,1,2,0:0:0:0:
164,158,250980,2,0,L|157:236,2,71.9999956569673,8|0|2,0:1|0:0|0:0,0:0:0:0:
186,63,251503,1,2,0:0:0:0:
246,129,251677,6,0,P|275:141|312:143,1,63.9999980926514,2|0,0:3|0:0,0:0:0:0:
362,214,252026,2,0,P|399:213|436:205,1,63.9999980926514,2|2,0:0|0:0,0:0:0:0:
499,157,252375,2,0,P|473:225|486:279,1,127.999996185303,2|0,0:0|0:0,0:0:0:0:
425,344,252898,1,2,0:0:0:0:
335,337,253073,2,0,L|256:346,1,63.9999980926514,2|0,0:0|0:0,0:0:0:0:
194,298,253422,2,0,L|115:307,1,63.9999980926514,2|2,0:0|0:0,0:0:0:0:
59,249,253771,2,0,B|81:227|81:227|71:121,1,127.999996185303,2|0,0:0|0:0,0:0:0:0:
11,64,254294,1,2,0:0:0:0:
11,64,254468,6,0,B|39:87|39:87|146:64,1,127.999996185303,2|0,0:0|0:0,0:0:0:0:
197,9,254991,1,2,0:0:0:0:
197,9,255166,2,0,B|179:35|179:35|191:132,1,127.999996185303,2|0,0:0|0:0,0:0:0:0:
239,206,255689,1,2,0:0:0:0:
283,127,255864,2,0,L|331:84,1,63.9999980926514,2|0,0:0|0:0,0:0:0:0:
384,155,256212,2,0,L|449:140,1,63.9999980926514,2|0,0:0|0:0,0:0:0:0:
452,230,256561,2,0,L|520:254,1,63.9999980926514,2|2,0:0|0:0,0:0:0:0:
470,330,256910,2,0,L|507:386,1,63.9999980926514,2|2,0:0|0:0,0:0:0:0:
