osu file format v14

[General]
AudioFilename: audio.mp3
AudioLeadIn: 0
PreviewTime: 48839
Countdown: 0
SampleSet: Soft
StackLeniency: 0.7
Mode: 0
LetterboxInBreaks: 0
WidescreenStoryboard: 0

[Editor]
DistanceSpacing: 0.8
BeatDivisor: 8
GridSize: 8
TimelineZoom: 1.2

[Metadata]
Title:ninelie (TV size)
TitleUnicode:ninelie (TV size)
Artist:Aimer with chelly (EGOIST)
ArtistUnicode:Aimer with chelly (EGOIST)
Creator:xChippy
Version:Daybreak
Source:甲鉄城のカバネリ
Tags:Sawano Hiroyuki Kōtetsujō no Kabaneri of the Iron Fortress Umi eiNess Kocari
BeatmapID:952763
BeatmapSetID:443090

[Difficulty]
HPDrainRate:7
CircleSize:4
OverallDifficulty:8
ApproachRate:9
SliderMultiplier:2.6
SliderTickRate:1

[Events]
//Background and Video events
Video,0,"Koutetsujou no Kabaneri.avi"
0,0,"bg.jpg",0,0
//Break Periods
//Storyboard Layer 0 (Background)
//Storyboard Layer 1 (Fail)
//Storyboard Layer 2 (Pass)
//Storyboard Layer 3 (Foreground)
//Storyboard Sound Samples

[TimingPoints]
526,697.674418604651,4,2,1,30,1,0
2967,-200,4,2,1,5,0,0
3316,-200,4,2,1,35,0,0
6107,-133.333333333333,4,2,1,35,0,0
17270,-100,4,2,1,65,0,0
28432,-200,4,2,1,45,0,0
49014,-133.333333333333,4,2,1,65,0,0
49275,-133.333333333333,4,2,1,5,0,0
49363,-100,4,2,1,45,0,0
49799,-100,4,2,1,5,0,0
49886,-133.333333333333,4,2,1,65,0,0
50322,-133.333333333333,4,2,1,5,0,0
50409,-80,4,2,1,55,0,0
50671,-80,4,2,1,5,0,0
50758,-66.6666666666667,4,2,1,85,0,1
75177,-133.333333333333,4,2,1,35,0,0
75874,-66.6666666666667,4,2,1,75,0,0
89479,-66.6666666666667,4,2,1,5,0,0

[Colours]
Combo1 : 248,173,207
Combo2 : 54,177,140
Combo3 : 55,55,223
Combo4 : 107,188,226
Combo5 : 213,55,115
Combo6 : 226,154,82
Combo7 : 141,72,187

[HitObjects]
256,192,526,12,0,2967,0:0:0:0:
96,32,3316,5,2,0:0:0:0:
107,126,3491,1,0,0:0:0:0:
11,137,3665,1,2,0:0:0:0:
2,41,3839,1,2,0:0:0:0:
152,185,4014,5,2,0:0:0:0:
163,91,4188,1,0,0:0:0:0:
67,80,4363,1,2,0:0:0:0:
58,176,4537,1,0,0:0:0:0:
199,139,4712,5,2,0:0:0:0:
210,233,4886,1,0,0:0:0:0:
114,244,5060,1,2,0:0:0:0:
105,148,5235,1,2,0:0:0:0:
255,292,5409,5,2,0:0:0:0:
266,198,5584,1,0,0:0:0:0:
170,187,5758,1,2,0:0:0:0:
161,283,5932,1,0,0:0:0:0:
272,192,6107,6,0,P|270:160|268:127,1,48.750001859665,2|2,0:0|0:0,0:0:0:0:
200,72,6456,1,0,0:0:0:0:
352,144,6630,2,0,P|399:149|439:124,1,97.50000371933,2|0,0:0|0:0,0:0:0:0:
504,16,7153,2,0,P|500:40|497:64,1,48.750001859665,0|2,0:0|0:0,0:0:0:0:
352,144,7502,2,0,P|357:192|365:244,1,97.50000371933,2|0,0:0|0:0,0:0:0:0:
496,352,8200,1,2,0:0:0:0:
496,352,8549,2,0,P|468:350|435:348,1,48.750001859665
304,304,8898,6,0,P|252:321|197:319,1,97.50000371933,2|0,0:0|0:0,0:0:0:0:
40,368,9595,2,0,P|43:321|49:252,1,97.50000371933,2|0,0:0|0:0,0:0:0:0:
15,117,10293,1,2,0:0:0:0:
15,117,10642,2,0,P|55:143|104:144,2,97.50000371933,0|2|0,0:0|0:0|0:0,0:0:0:0:
192,160,11688,5,2,0:0:0:0:
128,232,11863,1,2,0:0:0:0:
104,144,12037,1,0,0:0:0:0:
223,246,12212,2,0,P|271:239|320:232,1,97.50000371933,2|0,0:0|0:0,0:0:0:0:
392,168,12735,2,0,L|384:120,1,48.750001859665,0|2,0:0|0:0,0:0:0:0:
408,288,13084,2,0,P|401:336|395:389,1,97.50000371933,2|0,0:0|0:0,0:0:0:0:
320,232,13781,1,2,0:0:0:0:
256,360,14130,2,0,P|250:335|248:304,1,48.750001859665
176,240,14479,6,0,B|153:261|114:266|114:266|80:266,1,97.50000371933,2|0,0:0|0:0,0:0:0:0:
296,232,15002,2,0,B|325:241|349:272|349:272|363:298,1,97.50000371933,2|0,0:0|0:0,0:0:0:0:
232,152,15525,2,0,B|225:121|240:85|240:85|254:59,1,97.50000371933,2|0,0:0|0:0,0:0:0:0:
136,168,16223,1,0,0:0:0:0:
216,240,16572,2,0,L|264:236,1,48.750001859665,2|2,0:0|0:0,0:0:0:0:
328,168,16921,2,0,L|376:172,1,48.750001859665,0|2,0:0|0:0,0:0:0:0:
226,350,17270,6,0,P|192:297|216:240,1,130,4|0,0:0|3:0,0:0:0:0:
328,168,17793,1,0,3:0:0:0:
128,136,17967,2,0,P|192:144|220:144,1,65,8|0,0:0|0:0,0:0:0:0:
384,256,18316,2,0,P|320:248|292:248,1,65,0|0,3:0|0:0,0:0:0:0:
424,152,18665,2,0,P|417:114|416:72,1,65,0|0,0:0|3:0,0:0:0:0:
256,32,19014,1,0,3:0:0:0:
256,32,19363,2,0,P|261:66|264:96,1,65,8|0,0:0|0:0,0:0:0:0:
216,208,19712,1,0,0:0:0:0:
144,120,19886,1,0,0:0:0:0:
296,224,20060,6,0,P|262:277|199:290,1,130,0|0,3:0|0:0,0:0:0:0:
264,96,20584,1,0,3:0:0:0:
96,256,20758,2,0,P|92:217|88:168,1,65,8|0,0:0|0:0,0:0:0:0:
264,284,21107,2,0,P|231:287|199:289,1,65,0|0,3:0|3:0,0:0:0:0:
43,128,21456,2,0,P|74:116|116:114,1,65
320,96,21805,2,0,P|256:136|176:123,1,130,0|8,3:0|0:0,0:0:0:0:
105,113,22328,1,0,3:0:0:0:
199,288,22502,2,0,B|208:261|208:261|200:208,1,65
24,88,22851,6,0,L|176:72,1,130,0|0,3:0|3:0,0:0:0:0:
16,192,23374,1,0,3:0:0:0:
227,110,23549,2,0,P|236:75|228:36,1,65,8|0,0:0|0:0,0:0:0:0:
29,24,23898,2,0,P|20:59|28:98,1,65,0|0,3:0|0:0,0:0:0:0:
80,197,24246,2,0,L|-8:189,1,65,0|0,0:0|3:0,0:0:0:0:
227,110,24595,1,0,3:0:0:0:
227,110,24944,2,0,L|312:104,1,65,8|0,0:0|0:0,0:0:0:0:
368,216,25293,1,0,0:0:0:0:
291,105,25467,1,0,0:0:0:0:
441,234,25642,6,0,B|388:224|388:224|290:237,1,130,0|0,3:0|0:0,0:0:0:0:
216,304,26165,1,0,3:0:0:0:
184,152,26339,2,0,P|189:120|192:80,1,65,8|0,0:0|0:0,0:0:0:0:
104,248,26688,1,0,3:0:0:0:
320,169,26863,2,0,P|313:200|311:233,1,65,0|0,3:0|0:0,0:0:0:0:
191,87,27212,1,0,0:0:0:0:
336,144,27386,1,0,3:0:0:0:
216,240,27560,1,0,0:0:0:0:
376,72,27735,2,0,P|338:66|304:64,1,65,8|0,0:0|3:0,0:0:0:0:
128,160,28084,2,0,P|165:165|200:168,1,65
358,243,28432,6,0,P|314:201|336:144,1,130,2|0,0:0|0:0,0:0:0:0:
472,200,29479,1,0,0:0:0:0:
392,328,29828,2,0,B|312:352|336:304|252:328,1,130,2|0,0:0|0:0,0:0:0:0:
254,317,31223,6,0,P|249:286|245:262,1,48.75,2|0,0:0|0:0,0:0:0:0:
167,367,31746,2,0,P|158:303|149:239,1,130
72,192,32619,2,0,P|30:205|6:206,1,65,2|0,0:0|0:0,0:0:0:0:
149,239,33316,1,0,0:0:0:0:
72,280,33665,1,0,0:0:0:0:
72,192,34014,6,0,P|77:164|72:135,1,48.75,2|0,0:0|0:0,0:0:0:0:
40,72,34537,2,0,P|85:115|148:111,1,130
192,200,35409,2,0,L|256:192,1,65,2|0,0:0|0:0,0:0:0:0:
256,191,36107,2,0,B|218:187|218:187|200:193|200:193|154:189,1,97.5
80,288,36805,6,0,L|128:280,1,48.75,2|0,0:0|0:0,0:0:0:0:
208,328,37241,2,0,B|299:335|299:335|320:320,1,113.75
317,321,38200,1,2,0:0:0:0:
235,242,38898,2,0,B|261:251|261:251|286:234|333:233,1,97.5
400,288,39595,6,0,P|359:240|375:178,1,130,2|0,0:0|0:0,0:0:0:0:
416,176,40991,2,0,B|368:168|368:168|344:176|344:176|288:168,1,130,2|0,0:0|0:0,0:0:0:0:
272,184,42386,6,0,L|264:128,1,48.75,2|0,0:0|0:0,0:0:0:0:
200,207,42909,2,0,P|250:258|330:234,1,162.5,0|2,0:0|0:0,0:0:0:0:
352,216,44479,2,0,B|340:252|340:252|351:317,1,97.5
280,360,45177,6,0,L|221:353,1,48.75,2|0,0:0|0:0,0:0:0:0:
120,384,45613,2,0,P|129:306|139:199,1,178.75,0|2,0:0|0:0,0:0:0:0:
293,278,47270,2,0,P|283:221|284:172,1,97.5
375,223,47967,5,2,0:0:0:0:
328,160,49014,6,0,B|365:148|365:148|419:154,1,73.1250027894975,2|0,0:0|0:0,0:0:0:0:
399,151,49363,6,0,B|333:172|333:172|296:152|238:161,1,162.5,2|0,0:0|0:0,0:0:0:0:
184,224,49886,6,0,P|155:171|169:113,1,121.875004649162,2|0,0:0|0:0,0:0:0:0:
242,161,50409,6,0,B|160:176|160:176|99:160,1,121.875,2|0,0:0|0:0,0:0:0:0:
8,216,50758,6,0,P|48:201|110:207,1,97.50000371933,6|0,0:0|0:0,0:0:0:0:
264,240,51107,1,0,3:0:0:0:
152,352,51281,1,0,3:0:0:0:
122,166,51456,2,0,L|114:46,1,97.50000371933,8|0,0:0|0:0,0:0:0:0:
306,65,51805,6,0,B|225:35|193:91|115:68,1,195.00000743866,0|0,3:0|0:0,0:0:0:0:
264,240,52328,1,0,3:0:0:0:
392,112,52502,2,0,B|408:80|408:80|392:8,1,97.50000371933,0|0,3:0|0:0,0:0:0:0:
192,192,52851,2,0,B|176:224|176:224|192:296,1,97.50000371933,8|0,0:0|0:0,0:0:0:0:
405,235,53200,2,0,B|357:251|357:251|301:259|253:235,1,146.250005578995
267,325,53549,6,0,P|307:331|377:328,1,97.50000371933,0|0,3:0|0:0,0:0:0:0:
192,192,53898,1,0,0:0:0:0:
128,368,54072,1,0,3:0:0:0:
0,208,54246,2,0,P|48:232|104:216,1,97.50000371933,8|0,0:0|0:0,0:0:0:0:
192,192,54595,1,0,3:0:0:0:
370,212,54770,6,0,P|284:169|192:192,1,195.00000743866,0|0,3:0|0:0,0:0:0:0:
273,293,55293,2,0,B|330:286|330:286|358:296|358:296|451:286,1,146.250005578995,0|0,3:0|0:0,0:0:0:0:
465,202,55642,2,0,B|419:215|419:215|370:212,1,97.50000371933,8|0,0:0|3:0,0:0:0:0:
177,303,55991,2,0,B|222:289|222:289|273:293,1,97.50000371933
424,128,56339,6,0,P|325:117|273:197,1,195.00000743866,0|0,3:0|0:0,0:0:0:0:
96,120,56863,1,0,3:0:0:0:
177,303,57037,2,0,B|193:231|153:231|177:143,1,146.250005578995,8|0,0:0|0:0,0:0:0:0:
274,186,57386,2,0,B|309:200|309:200|384:189,1,97.50000371933,0|0,3:0|0:0,0:0:0:0:
256,24,57735,5,0,0:0:0:0:
173,158,57909,1,0,3:0:0:0:
374,284,58084,2,0,P|382:252|366:188,1,97.50000371933,0|0,3:0|0:0,0:0:0:0:
169,266,58432,2,0,P|224:254|293:244,1,97.50000371933,8|0,0:0|0:0,0:0:0:0:
406,131,58781,2,0,P|351:143|282:153,1,97.50000371933
124,333,59130,6,0,P|150:271|94:212,1,146.250005578995,4|0,0:0|0:0,0:0:0:0:
104,214,59479,1,0,0:0:0:0:
8,344,59653,1,0,3:0:0:0:
240,368,59828,2,0,P|288:360|360:352,1,97.50000371933,8|0,0:0|0:0,0:0:0:0:
160,280,60177,1,0,3:0:0:0:
368,224,60351,1,0,3:0:0:0:
151,182,60525,6,0,P|155:228|162:304,1,97.50000371933
288,128,60874,2,0,P|312:87|297:31,1,97.50000371933,0|0,3:0|0:0,0:0:0:0:
464,168,61223,2,0,P|439:208|455:265,1,97.50000371933,8|0,0:0|3:0,0:0:0:0:
392,16,61572,2,0,L|240:24,1,146.250005578995
128,72,61921,6,0,P|75:69|1:61,1,97.50000371933,6|0,0:0|0:0,0:0:0:0:
168,200,62270,1,0,3:0:0:0:
245,23,62444,1,0,3:0:0:0:
88,224,62619,2,0,P|136:226|185:231,1,97.50000371933,8|0,0:0|0:0,0:0:0:0:
360,48,62967,6,0,P|256:48|224:129,1,195.00000743866,0|0,3:0|0:0,0:0:0:0:
96,72,63491,1,0,3:0:0:0:
321,210,63665,2,0,P|314:158|306:98,1,97.50000371933,0|0,3:0|0:0,0:0:0:0:
64,24,64014,2,0,P|71:76|79:136,1,97.50000371933,8|0,0:0|0:0,0:0:0:0:
8,312,64363,2,0,B|63:330|95:282|151:306,1,146.250005578995
165,377,64712,6,0,P|226:310|176:236,1,195.00000743866,0|0,3:0|0:0,0:0:0:0:
96,168,65235,1,0,3:0:0:0:
273,243,65409,2,0,P|224:240|176:236,1,97.50000371933,8|0,0:0|0:0,0:0:0:0:
256,48,65758,1,0,3:0:0:0:
32,152,65932,6,0,B|104:192|160:128|232:152,1,195.00000743866,0|0,3:0|0:0,0:0:0:0:
299,331,66456,2,0,P|272:290|282:221,1,97.50000371933,0|0,3:0|0:0,0:0:0:0:
248,72,66805,1,8,0:0:0:0:
175,235,66979,1,0,3:0:0:0:
311,120,67153,2,0,P|271:146|215:147,1,97.50000371933
4,287,67502,6,0,P|57:241|127:255,1,146.250005578995,4|0,0:0|0:0,0:0:0:0:
127,255,67851,1,0,3:0:0:0:
48,144,68025,1,0,3:0:0:0:
256,216,68200,2,0,P|261:168|264:119,1,97.50000371933,8|0,0:0|0:0,0:0:0:0:
29,262,68549,2,0,P|78:258|126:255,1,97.50000371933,0|0,3:0|0:0,0:0:0:0:
264,118,68898,5,0,0:0:0:0:
126,255,69072,1,0,3:0:0:0:
265,312,69246,2,0,P|259:263|255:215,1,97.50000371933,0|0,3:0|0:0,0:0:0:0:
24,128,69595,2,0,P|73:122|121:118,1,97.50000371933,8|0,0:0|0:0,0:0:0:0:
255,215,69944,1,0,0:0:0:0:
120,118,70119,1,0,0:0:0:0:
400,128,70293,6,0,B|288:152|312:96|200:128,1,195.00000743866,0|0,3:0|0:0,0:0:0:0:
255,215,70816,1,0,3:0:0:0:
400,128,70991,2,0,P|416:88|392:16,1,97.50000371933,8|0,0:0|0:0,0:0:0:0:
488,192,71339,1,0,3:0:0:0:
296,16,71514,6,0,P|248:24|192:32,2,97.50000371933,0|0|0,3:0|0:0|0:0,0:0:0:0:
400,128,72037,1,0,3:0:0:0:
272,152,72212,1,0,0:0:0:0:
406,35,72386,5,8,0:0:0:0:
464,280,72560,1,0,3:0:0:0:
240,248,72735,5,8,0:0:0:0:
512,192,72909,1,8,0:0:0:0:
360,304,73084,5,0,0:0:0:0:
192,256,75177,6,0,P|128:224|168:160,1,146.250005578995,2|0,0:0|0:0,0:0:0:0:
24,144,75874,6,0,L|240:128,1,195.00000743866,6|0,0:0|3:0,0:0:0:0:
328,216,76398,1,0,3:0:0:0:
184,327,76572,2,0,P|128:271|184:143,1,195.00000743866,8|0,0:0|3:0,0:0:0:0:
184,327,77095,1,0,0:0:0:0:
328,216,77270,6,0,P|275:225|205:235,1,97.50000371933,0|0,0:0|3:0,0:0:0:0:
32,192,77619,1,0,3:0:0:0:
32,192,77967,2,0,P|39:133|46:77,1,97.50000371933,8|0,0:0|0:0,0:0:0:0:
192,176,78316,1,0,0:0:0:0:
64,288,78491,1,0,0:0:0:0:
43,95,78665,6,0,B|163:127|131:71|251:95,1,195.00000743866,0|0,3:0|0:0,0:0:0:0:
96,184,79188,1,0,3:0:0:0:
218,17,79363,2,0,P|306:64|270:160,1,195.00000743866,8|0,0:0|3:0,0:0:0:0:
96,184,79886,1,0,3:0:0:0:
336,200,80060,6,0,P|287:195|238:191,1,97.50000371933
120,8,80409,2,0,P|168:12|217:16,1,97.50000371933,0|0,3:0|0:0,0:0:0:0:
392,272,80758,1,8,0:0:0:0:
232,88,80932,1,0,0:0:0:0:
168,304,81107,1,0,0:0:0:0:
290,144,81281,1,0,0:0:0:0:
144,384,81456,6,0,B|128:336|128:336|168:264|136:192,1,195.00000743866,0|0,3:0|3:0,0:0:0:0:
256,296,81979,1,0,3:0:0:0:
7,119,82153,2,0,B|127:135|95:87|207:119,1,195.00000743866,8|0,0:0|3:0,0:0:0:0:
138,197,82677,1,0,0:0:0:0:
239,40,82851,6,0,P|190:26|139:22,1,97.50000371933,0|0,0:0|3:0,0:0:0:0:
232,208,83200,1,0,3:0:0:0:
232,208,83549,2,0,P|280:203|327:189,1,97.50000371933,8|0,0:0|0:0,0:0:0:0:
199,116,83898,1,0,0:0:0:0:
160,296,84072,1,0,0:0:0:0:
426,223,84246,6,0,L|232:208,1,195.00000743866,0|0,3:0|0:0,0:0:0:0:
160,296,84770,1,0,3:0:0:0:
80,88,84944,2,0,L|280:72,1,195.00000743866,8|0,0:0|3:0,0:0:0:0:
232,208,85467,1,0,3:0:0:0:
360,88,85642,6,0,P|349:29|320:-8,1,97.50000371933
138,190,85991,2,0,P|183:208|232:208,1,97.50000371933,0|0,3:0|0:0,0:0:0:0:
48,24,86339,1,8,0:0:0:0:
8,264,86514,1,0,3:0:0:0:
96,88,86688,1,0,0:0:0:0:
232,208,86863,1,0,0:0:0:0:
24,176,87037,5,0,0:0:0:0:
256,192,87212,12,0,89479,0:0:0:0:
