osu file format v14

[General]
AudioFilename: audio.mp3
AudioLeadIn: 0
PreviewTime: 49014
Countdown: 0
SampleSet: Soft
StackLeniency: 0.7
Mode: 0
LetterboxInBreaks: 0
WidescreenStoryboard: 0

[Editor]
DistanceSpacing: 0.8
BeatDivisor: 6
GridSize: 4
TimelineZoom: 1

[Metadata]
Title:ninelie (TV size)
TitleUnicode:ninelie (TV size)
Artist:Aimer with chelly (EGOIST)
ArtistUnicode:Aimer with chelly (EGOIST)
Creator:HabiHolic
Version:Insane
Source:甲鉄城のカバネリ
Tags:Sawano Hiroyuki Kōtetsujō no Kabaneri of the Iron Fortress Gaia Kibbleru qoot8123
BeatmapID:954576
BeatmapSetID:444285

[Difficulty]
HPDrainRate:6.8
CircleSize:4
OverallDifficulty:6.8
ApproachRate:8.5
SliderMultiplier:2.8
SliderTickRate:2

[Events]
//Background and Video events
0,0,"BG.jpg",0,0
Video,0,"Koutetsujou no Kabaneri.avi"
//Break Periods
//Storyboard Layer 0 (Background)
//Storyboard Layer 1 (Fail)
//Storyboard Layer 2 (Pass)
//Storyboard Layer 3 (Foreground)
//Storyboard Sound Samples

[TimingPoints]
526,697.674418604651,4,2,0,30,1,0
3316,-133.333333333333,4,2,0,30,0,0
17270,-90.9090909090909,4,2,1,80,0,0
28432,-133.333333333333,4,2,0,50,0,0
49363,-200,4,2,0,50,0,0
49886,-133.333333333333,4,2,0,50,0,0
50409,-100,4,2,0,50,0,0
50758,-83.3333333333333,4,2,1,80,0,1
73084,-100,4,2,0,80,0,0
75874,-90.9090909090909,4,2,1,80,0,0
87037,-90.9090909090909,4,2,0,80,0,0
89479,-100,4,2,1,5,0,0

[Colours]
Combo1 : 240,123,185
Combo2 : 0,128,255
Combo3 : 255,128,64

[HitObjects]
48,100,3316,5,0,0:0:0:0:
64,184,3491,1,2,0:0:0:0:
184,340,3665,1,2,0:0:0:0:
200,256,3840,1,0,0:0:0:0:
288,100,4014,1,0,0:0:0:0:
200,124,4188,1,0,0:0:0:0:
340,180,4363,1,2,0:0:0:0:
428,204,4537,1,0,0:0:0:0:
272,248,4712,6,0,L|280:304,2,52.5000020027162,0|0|2,0:0|0:0|0:0,0:0:0:0:
272,248,5235,1,0,0:0:0:0:
188,172,5409,2,0,L|195:120,1,52.5000020027162
300,40,5758,2,0,L|307:91,1,52.5000020027162,2|0,0:0|0:0,0:0:0:0:
412,196,6107,6,0,P|461:206|503:177,1,105.000004005432,0|2,0:0|0:0,0:0:0:0:
444,128,6630,1,0,0:0:0:0:
296,164,6805,2,0,L|292:220,1,52.5000020027162
176,296,7153,2,0,L|172:243,1,52.5000020027162,2|0,0:0|0:0,0:0:0:0:
103,175,7502,6,0,P|53:170|13:203,1,105.000004005432,0|2,0:0|0:0,0:0:0:0:
80,256,8026,1,0,0:0:0:0:
103,175,8200,2,0,L|95:123,1,52.5000020027162
212,32,8549,2,0,L|220:84,1,52.5000020027162,2|0,0:0|0:0,0:0:0:0:
284,156,8898,6,0,P|336:168|384:140,1,105.000004005432,0|2,0:0|0:0,0:0:0:0:
424,64,9421,1,0,0:0:0:0:
468,184,9595,2,0,L|464:296,1,105.000004005432,0|2,0:0|0:0,0:0:0:0:
388,360,10119,1,0,0:0:0:0:
296,272,10293,2,0,L|360:264,1,52.5000020027162
164,328,10642,2,0,L|100:320,1,52.5000020027162,2|0,0:0|0:0,0:0:0:0:
24,268,10991,2,0,P|16:212|24:160,1,105.000004005432,0|2,0:0|0:0,0:0:0:0:
22,164,11688,6,0,L|132:176,1,105.000004005432,0|2,0:0|0:0,0:0:0:0:
196,116,12212,1,0,0:0:0:0:
252,248,12386,2,0,L|260:188,1,52.5000020027162
380,140,12735,2,0,L|386:192,1,52.5000020027162,2|0,0:0|0:0,0:0:0:0:
280,328,13084,2,0,P|232:336|184:300,1,105.000004005432,0|2,0:0|0:0,0:0:0:0:
172,216,13607,1,0,0:0:0:0:
344,272,13781,2,0,P|360:296|364:320,1,52.5000020027162
272,236,14130,2,0,P|276:204|288:180,1,52.5000020027162,2|0,0:0|0:0,0:0:0:0:
344,144,14479,6,0,L|240:132,1,105.000004005432,0|2,0:0|0:0,0:0:0:0:
20,68,15002,2,0,L|124:56,1,105.000004005432
152,152,15526,1,2,0:0:0:0:
152,152,15700,1,0,0:0:0:0:
88,224,15874,6,0,L|36:220,1,52.5000020027162
228,296,16223,2,0,L|280:292,1,52.5000020027162,2|0,0:0|0:0,0:0:0:0:
344,216,16572,1,0,0:0:0:0:
428,252,16746,1,0,0:0:0:0:
360,80,16921,1,2,0:0:0:0:
268,104,17095,1,0,0:0:0:0:
136,247,17270,6,0,P|62:253|16:194,1,154.000004699707,4|2,0:0|0:0,0:0:0:0:
44,24,17793,1,0,0:0:0:0:
104,96,17967,2,0,L|96:172,1,77.0000023498536,8|0,0:0|0:0,0:0:0:0:
272,236,18316,2,0,L|264:160,1,77.0000023498536,2|2,0:0|0:0,0:0:0:0:
328,84,18665,6,0,P|368:76|412:84,1,77.0000023498536,0|2,0:0|0:0,0:0:0:0:
176,208,19014,2,0,P|136:216|92:208,1,77.0000023498536,2|0,0:0|0:0,0:0:0:0:
230,126,19363,2,0,L|216:280,1,154.000004699707,8|0,0:0|0:0,0:0:0:0:
184,36,19886,1,2,0:0:0:0:
352,152,20060,6,0,P|425:164|478:112,1,154.000004699707,2|2,0:0|0:0,0:0:0:0:
400,84,20584,1,2,0:0:0:0:
260,104,20758,2,0,L|276:260,1,154.000004699707,8|2,0:0|0:0,0:0:0:0:
216,344,21281,1,2,0:0:0:0:
112,252,21456,6,0,P|152:240|192:248,1,77.0000023498536,2|0,0:0|0:0,0:0:0:0:
328,348,21805,2,0,P|365:353|402:341,1,77.0000023498536,2|0,0:0|0:0,0:0:0:0:
499,215,22153,2,0,P|440:168|360:176,1,154.000004699707,8|0,0:0|0:0,0:0:0:0:
296,236,22677,1,0,0:0:0:0:
208,188,22851,6,0,L|216:112,1,77.0000023498536,2|0,0:0|0:0,0:0:0:0:
144,32,23200,1,2,0:0:0:0:
312,48,23374,1,2,0:0:0:0:
112,128,23549,2,0,L|28:116,1,77.0000023498536,8|0,0:0|0:0,0:0:0:0:
312,184,23898,2,0,L|396:172,1,77.0000023498536,2|0,0:0|0:0,0:0:0:0:
492,252,24246,6,0,P|512:180|496:104,1,154.000004699707,0|2,0:0|0:0,0:0:0:0:
420,36,24770,1,0,0:0:0:0:
336,100,24944,2,0,L|252:92,1,77.0000023498536,8|0,0:0|0:0,0:0:0:0:
100,232,25293,2,0,L|184:224,1,77.0000023498536,0|2,0:0|0:0,0:0:0:0:
335,216,25642,6,0,P|409:204|461:256,1,154.000004699707,0|2,0:0|0:0,0:0:0:0:
384,284,26165,1,0,0:0:0:0:
256,248,26339,2,0,B|240:196|268:160|268:160|248:96,1,154.000004699707,8|2,0:0|0:0,0:0:0:0:
296,20,26863,1,0,0:0:0:0:
172,148,27037,6,0,L|92:136,1,77.0000023498536
328,204,27386,2,0,L|408:192,1,77.0000023498536,2|2,0:0|0:0,0:0:0:0:
352,108,27735,1,8,0:0:0:0:
384,284,27909,1,0,0:0:0:0:
240,232,28084,2,0,L|160:224,1,77.0000023498536,2|2,0:0|0:0,0:0:0:0:
96,156,28432,5,2,0:0:0:0:
96,156,28607,1,0,0:0:0:0:
192,56,28781,2,0,L|188:112,1,52.5000020027161
272,252,29130,2,0,L|268:199,1,52.5000020027161,2|0,0:0|0:0,0:0:0:0:
280,40,29479,2,0,L|276:96,1,52.5000020027161
360,200,29828,5,0,0:0:0:0:
424,264,30002,1,0,0:0:0:0:
440,180,30177,1,2,0:0:0:0:
344,280,30351,1,0,0:0:0:0:
400,348,30525,2,0,L|456:344,1,52.5000020027161
264,304,30874,2,0,L|208:300,1,52.5000020027161,2|0,0:0|0:0,0:0:0:0:
126,343,31223,6,0,P|76:355|31:332,1,105.000004005432,0|2,0:0|0:0,0:0:0:0:
80,176,31746,1,0,0:0:0:0:
80,176,31921,2,0,B|96:204|96:204|88:280,1,105.000004005432,0|2,0:0|0:0,0:0:0:0:
196,256,32444,1,0,0:0:0:0:
212,132,32619,6,0,L|152:124,1,52.5000020027161
304,212,32967,2,0,L|364:204,1,52.5000020027161,2|0,0:0|0:0,0:0:0:0:
424,140,33316,1,0,0:0:0:0:
436,256,33491,1,0,0:0:0:0:
280,300,33665,2,0,L|220:292,1,52.5000020027161,2|0,0:0|0:0,0:0:0:0:
147,244,34014,6,0,P|135:294|152:343,1,105.000004005432,0|2,0:0|0:0,0:0:0:0:
236,204,34537,1,0,0:0:0:0:
160,152,34712,2,0,L|104:144,1,52.5000020027161
312,100,35060,2,0,L|368:92,1,52.5000020027161,2|0,0:0|0:0,0:0:0:0:
432,28,35409,5,0,0:0:0:0:
448,144,35584,1,0,0:0:0:0:
312,100,35758,2,0,L|304:44,1,52.5000020027161,2|0,0:0|0:0,0:0:0:0:
316,200,36107,2,0,L|308:251,1,52.5000020027161
232,216,36456,1,2,0:0:0:0:
396,240,36630,1,0,0:0:0:0:
239,304,36805,6,0,P|188:300|152:264,1,105.000004005432,0|2,0:0|0:0,0:0:0:0:
152,176,37328,1,0,0:0:0:0:
56,264,37502,2,0,L|60:320,1,52.5000020027161
56,164,37851,2,0,L|59:111,1,52.5000020027161,2|0,0:0|0:0,0:0:0:0:
132,36,38200,5,0,0:0:0:0:
232,72,38374,1,0,0:0:0:0:
468,112,38549,1,2,0:0:0:0:
372,148,38723,1,0,0:0:0:0:
232,72,38898,5,0,0:0:0:0:
208,172,39072,1,0,0:0:0:0:
284,248,39246,2,0,L|344:240,1,52.5000020027161,2|0,0:0|0:0,0:0:0:0:
176,332,39595,5,4,0:0:0:0:
152,292,40991,5,2,0:0:0:0:
392,208,41688,1,2,0:0:0:0:
224,96,42386,6,0,L|240:252,2,157.500006008148,0|0|2,0:0|0:0|0:0,0:0:0:0:
24,264,44479,6,0,B|104:248|96:316|184:288,1,157.500006008148
248,224,45177,2,0,L|236:156,1,70.0000026702882,0|2,0:0|0:0,0:0:0:0:
294,80,45642,2,0,P|378:68|431:133,1,175.00000667572
356,360,46572,6,0,B|324:312|324:312|340:208,1,157.500006008148
256,156,47270,2,0,L|232:324,1,157.500006008148,2|0,0:0|0:0,0:0:0:0:
160,360,47967,1,0,0:0:0:0:
344,256,48316,5,2,0:0:0:0:
400,188,48491,1,0,0:0:0:0:
428,272,48665,2,0,L|492:264,2,52.5000020027161,0|0|2,0:0|0:0|0:0,0:0:0:0:
296,216,49363,6,0,L|220:208,1,70,2|0,0:0|0:0,0:0:0:0:
120,128,49886,6,0,L|232:120,1,105.000004005432,2|0,0:0|0:0,0:0:0:0:
352,56,50409,6,0,P|317:56|282:50,1,70,2|0,0:0|0:0,0:0:0:0:
448,16,50758,6,0,L|436:192,1,167.999994873047,4|2,0:0|0:0,0:0:0:0:
368,272,51281,1,2,0:0:0:0:
252,148,51456,2,0,P|296:136|344:136,1,83.9999974365235,8|0,0:0|0:0,0:0:0:0:
160,264,51805,2,0,P|118:262|77:250,1,83.9999974365235,2|2,0:0|0:0,0:0:0:0:
32,184,52153,6,0,L|48:368,1,167.999994873047,0|2,0:0|0:0,0:0:0:0:
46,351,52677,1,2,0:0:0:0:
220,276,52851,2,0,L|128:268,1,83.9999974365235,8|0,0:0|0:0,0:0:0:0:
368,196,53200,2,0,L|460:188,1,83.9999974365235,0|2,0:0|0:0,0:0:0:0:
335,115,53549,6,0,P|257:97|201:155,1,167.999994873047,2|2,0:0|0:0,0:0:0:0:
284,180,54072,1,2,0:0:0:0:
432,124,54246,2,0,P|428:80|412:40,1,83.9999974365235,8|0,0:0|0:0,0:0:0:0:
388,216,54595,2,0,P|392:260|408:300,1,83.9999974365235,2|2,0:0|0:0,0:0:0:0:
484,348,54944,6,0,L|312:332,1,167.999994873047,0|2,0:0|0:0,0:0:0:0:
220,360,55467,1,2,0:0:0:0:
236,192,55642,2,0,L|248:280,1,83.9999974365235,8|0,0:0|0:0,0:0:0:0:
364,120,55991,2,0,L|375:36,1,83.9999974365235,2|2,0:0|0:0,0:0:0:0:
168,120,56339,6,0,B|84:92|84:160|-4:128,1,167.999994873047,2|2,0:0|0:0,0:0:0:0:
40,44,56863,1,2,0:0:0:0:
128,208,57037,2,0,L|136:296,1,83.9999974365235,8|0,0:0|0:0,0:0:0:0:
268,116,57386,2,0,L|275:32,1,83.9999974365235,2|2,0:0|0:0,0:0:0:0:
184,64,57735,5,0,0:0:0:0:
360,80,57909,1,2,0:0:0:0:
180,164,58084,2,0,L|96:156,1,83.9999974365235,2|2,0:0|0:0,0:0:0:0:
20,296,58432,2,0,L|104:288,1,83.9999974365235,8|0,0:0|0:0,0:0:0:0:
264,204,58781,2,0,P|272:160|260:120,1,83.9999974365235,2|0,0:0|0:0,0:0:0:0:
176,84,59130,6,0,L|344:68,1,167.999994873047,2|2,0:0|0:0,0:0:0:0:
408,144,59653,1,2,0:0:0:0:
459,228,59828,2,0,P|379:240|318:186,1,167.999994873047,8|2,0:0|0:0,0:0:0:0:
500,152,60351,2,0,L|496:332,1,167.999994873047,2|2,0:0|0:0,0:0:0:0:
396,364,60874,5,2,0:0:0:0:
320,288,61049,1,2,0:0:0:0:
224,328,61223,2,0,L|132:316,1,83.9999974365235,8|0,0:0|0:0,0:0:0:0:
32,208,61572,2,0,L|160:192,1,125.999996154785,2|0,0:0|0:0,0:0:0:0:
212,224,61921,6,0,B|200:168|200:168|216:116|216:116|200:60,1,167.999994873047,6|2,0:0|0:0,0:0:0:0:
120,112,62444,1,2,0:0:0:0:
296,172,62619,2,0,P|374:188|430:130,1,167.999994873047,8|0,0:0|0:0,0:0:0:0:
352,108,63142,1,0,0:0:0:0:
192,48,63316,6,0,L|200:136,1,83.9999974365235,2|2,0:0|0:0,0:0:0:0:
336,340,63665,2,0,L|343:256,1,83.9999974365235,2|2,0:0|0:0,0:0:0:0:
152,248,64014,2,0,P|108:244|68:224,1,83.9999974365235,8|0,0:0|0:0,0:0:0:0:
336,152,64363,2,0,P|380:156|420:176,1,83.9999974365235,0|2,0:0|0:0,0:0:0:0:
492,252,64712,6,0,L|504:80,1,167.999994873047,2|2,0:0|0:0,0:0:0:0:
432,24,65235,1,2,0:0:0:0:
244,104,65409,2,0,P|304:164|388:156,1,167.999994873047,8|2,0:0|0:0,0:0:0:0:
432,24,65932,1,2,0:0:0:0:
382,159,66107,6,0,L|396:256,1,83.9999974365235,0|2,0:0|0:0,0:0:0:0:
236,356,66456,2,0,L|247:272,1,83.9999974365235,2|2,0:0|0:0,0:0:0:0:
284,96,66805,2,0,L|297:192,1,83.9999974365235,8|0,0:0|0:0,0:0:0:0:
156,220,67153,2,0,B|96:200|88:248|24:228,1,125.999996154785,2|0,0:0|0:0,0:0:0:0:
12,264,67502,6,0,P|28:183|10:102,1,167.999994873047,4|2,0:0|0:0,0:0:0:0:
88,36,68025,1,2,0:0:0:0:
164,176,68200,2,0,L|248:168,1,83.9999974365235,8|0,0:0|0:0,0:0:0:0:
312,88,68549,1,0,0:0:0:0:
324,248,68723,1,0,0:0:0:0:
139,255,68898,6,0,P|83:198|100:119,1,167.999994873047,2|2,0:0|0:0,0:0:0:0:
100,119,69421,1,0,0:0:0:0:
240,236,69595,2,0,L|248:324,1,83.9999974365235,8|0,0:0|0:0,0:0:0:0:
296,88,69944,2,0,L|303:4,1,83.9999974365235,2|0,0:0|0:0,0:0:0:0:
320,200,70293,6,0,B|400:180|400:256|492:232,1,167.999994873047,2|2,0:0|0:0,0:0:0:0:
464,144,70816,1,2,0:0:0:0:
352,288,70991,2,0,L|368:372,2,83.9999974365235,8|0|2,0:0|0:0|0:0,0:0:0:0:
372,116,71514,1,2,0:0:0:0:
256,192,71688,6,0,P|216:188|168:168,1,83.9999974365235,2|0,0:0|0:0,0:0:0:0:
48,288,72037,2,0,L|140:276,1,83.9999974365235,2|2,0:0|0:0,0:0:0:0:
232,96,72386,1,8,0:0:0:0:
220,296,72560,1,2,0:0:0:0:
384,216,72735,1,8,0:0:0:0:
232,96,72909,1,8,0:0:0:0:
160,151,73084,6,0,P|92:152|49:100,1,140,0|2,0:0|0:0,0:0:0:0:
128,76,73607,1,0,0:0:0:0:
240,168,73781,2,0,L|232:240,1,70
304,104,74130,2,0,L|296:34,1,70,2|0,0:0|0:0,0:0:0:0:
328,192,74479,6,0,B|372:184|372:184|420:200|420:200|472:188,1,140,0|2,0:0|0:0,0:0:0:0:
432,108,75002,1,0,0:0:0:0:
368,280,75177,2,0,L|376:356,1,70
247,247,75525,2,0,P|239:196|248:145,1,105,2|0,0:0|0:0,0:0:0:0:
272,88,75874,6,0,B|196:116|196:48|116:72,1,154.000004699707,4|2,0:0|0:0,0:0:0:0:
144,160,76398,1,2,0:0:0:0:
364,107,76572,2,0,P|365:69|352:33,1,77.0000023498536,8|0,0:0|0:0,0:0:0:0:
304,208,76921,2,0,P|302:246|315:282,1,77.0000023498536,2|2,0:0|0:0,0:0:0:0:
396,344,77270,6,0,L|472:332,1,77.0000023498536,0|2,0:0|0:0,0:0:0:0:
208,304,77619,2,0,L|132:292,1,77.0000023498536,2|2,0:0|0:0,0:0:0:0:
35,359,77967,2,0,P|16:286|31:211,1,154.000004699707,8|0,0:0|0:0,0:0:0:0:
100,140,78491,1,2,0:0:0:0:
200,272,78665,6,0,L|284:264,1,77.0000023498536,2|0,0:0|0:0,0:0:0:0:
416,200,79014,2,0,L|339:192,1,77.0000023498536,2|2,0:0|0:0,0:0:0:0:
240,104,79363,2,0,L|252:192,1,77.0000023498536,8|0,0:0|0:0,0:0:0:0:
348,360,79712,2,0,L|358:283,1,77.0000023498536,2|2,0:0|0:0,0:0:0:0:
192,272,80060,6,0,B|120:252|120:316|40:296,1,154.000004699707,0|2,0:0|0:0,0:0:0:0:
72,208,80584,1,2,0:0:0:0:
220,355,80758,2,0,P|272:302|267:227,1,154.000004699707,8|0,0:0|0:0,0:0:0:0:
196,176,81281,1,0,0:0:0:0:
384,116,81456,6,0,L|376:272,1,154.000004699707,2|2,0:0|0:0,0:0:0:0:
320,352,81979,1,2,0:0:0:0:
140,224,82153,2,0,P|208:184|284:200,1,154.000004699707,8|2,0:0|0:0,0:0:0:0:
320,352,82677,1,2,0:0:0:0:
60,284,82851,6,0,L|52:200,1,77.0000023498536,0|2,0:0|0:0,0:0:0:0:
236,32,83200,2,0,L|228:108,1,77.0000023498536,2|0,0:0|0:0,0:0:0:0:
292,184,83549,2,0,P|365:197|422:148,1,154.000004699707,8|0,0:0|0:0,0:0:0:0:
344,116,84072,1,0,0:0:0:0:
208,132,84246,6,0,B|184:208|240:200|212:284,1,154.000004699707,2|2,0:0|0:0,0:0:0:0:
136,244,84770,1,2,0:0:0:0:
288,172,84944,2,0,P|328:164|368:180,1,77.0000023498536,8|0,0:0|0:0,0:0:0:0:
432,248,85293,1,2,0:0:0:0:
456,104,85467,1,2,0:0:0:0:
260,256,85642,6,0,L|248:102,1,154.000004699707,0|2,0:0|0:0,0:0:0:0:
184,32,86165,1,2,0:0:0:0:
16,112,86339,2,0,P|75:157|149:143,1,154.000004699707,8|0,0:0|0:0,0:0:0:0:
184,32,86863,1,2,0:0:0:0:
256,192,87037,12,0,89479,0:0:0:0:
