osu file format v14

[General]
AudioFilename: ninelie.mp3
AudioLeadIn: 0
PreviewTime: 48841
Countdown: 0
SampleSet: Soft
StackLeniency: 0.7
Mode: 0
LetterboxInBreaks: 0
WidescreenStoryboard: 0

[Editor]
DistanceSpacing: 1.2
BeatDivisor: 4
GridSize: 4
TimelineZoom: 1

[Metadata]
Title:ninelie (TV size)
TitleUnicode:ninelie (TV size)
Artist:Aimer with chelly (EGOIST)
ArtistUnicode:Aimer with chelly (EGOIST)
Creator:Gaia
Version:Easy
Source:甲鉄城のカバネリ
Tags:Knotts Koutetsujou no Kabaneri of the Iron Fortress sawano hiroyuki ending ed
BeatmapID:955000
BeatmapSetID:444091

[Difficulty]
HPDrainRate:2
CircleSize:3
OverallDifficulty:2
ApproachRate:3
SliderMultiplier:1.8
SliderTickRate:2

[Events]
//Background and Video events
0,0,"iron.jpg",0,0
Video,0,"video.flv"
//Break Periods
//Storyboard Layer 0 (Background)
//Storyboard Layer 1 (Fail)
//Storyboard Layer 2 (Pass)
//Storyboard Layer 3 (Foreground)
//Storyboard Sound Samples

[TimingPoints]
440,697.674418604651,4,2,1,30,1,0
6021,-100,4,2,1,40,0,0
17184,-100,4,2,1,50,0,0
28346,-100,4,2,1,35,0,0
39509,-111.111111111111,4,2,1,30,0,0
39684,-111.111111111111,4,2,1,10,0,0
40556,-111.111111111111,4,2,1,30,0,0
42474,-111.111111111111,4,2,1,10,0,0
44044,-111.111111111111,4,2,1,30,0,0
45265,-111.111111111111,4,2,1,10,0,0
46835,-111.111111111111,4,2,1,30,0,0
48928,-100,4,2,1,40,0,0
49277,-100,4,2,1,50,0,0
50672,-100,4,2,1,60,0,0
56253,-100,4,2,1,50,0,0
56341,-100,4,2,1,60,0,0
67416,-100,4,2,1,50,0,0
67503,-100,4,2,1,60,0,0
72649,-100,4,2,1,50,0,0
72998,-100,4,2,1,40,0,0
75091,-100,4,2,1,30,0,0
75788,-100,4,2,1,60,0,0
89393,-100,4,2,1,5,0,0

[Colours]
Combo1 : 255,0,0
Combo2 : 245,131,203
Combo3 : 191,91,57
Combo4 : 5,158,158
Combo5 : 186,7,224

[HitObjects]
80,64,3230,6,0,P|61:109|56:168,1,90,2|0,0:0|0:0,0:0:0:0:
108,236,3928,2,0,L|236:212,1,90,2|0,0:0|0:0,0:0:0:0:
220,124,4626,2,0,P|280:142|316:156,1,90,2|0,0:0|0:0,0:0:0:0:
328,248,5323,2,0,L|428:232,1,90,2|0,0:0|0:0,0:0:0:0:
496,176,6021,6,0,P|500:244|508:328,2,135,2|2|2,0:0|0:0|0:0,0:0:0:0:
440,96,7416,2,0,P|376:80|332:112,1,90,2|2,0:0|0:0,0:0:0:0:
292,164,8114,2,0,L|188:144,1,90,0|2,0:0|0:0,0:0:0:0:
104,160,8812,5,0,0:0:0:0:
80,256,9160,1,2,0:0:0:0:
168,300,9509,2,0,P|214:286|260:276,1,90,0|2,0:0|0:0,0:0:0:0:
348,312,10207,1,0,0:0:0:0:
424,248,10556,2,0,B|400:208|391:165|391:165|416:120|400:56,1,180,2|2,0:0|0:0,0:0:0:0:
320,24,11602,6,0,P|232:36|196:104,2,135,2|2|2,0:0|0:0|0:0,0:0:0:0:
288,116,12998,2,0,P|281:169|276:228,1,90,0|2,0:0|0:0,0:0:0:0:
200,264,13695,2,0,P|193:210|188:152,1,90,0|2,0:0|0:0,0:0:0:0:
100,128,14393,6,0,P|95:194|88:280,2,135,2|2|2,0:0|0:0|0:0,0:0:0:0:
176,64,15788,2,0,P|260:88|280:120,1,90,0|2,0:0|0:0,0:0:0:0:
316,168,16486,2,0,L|416:148,1,90,0|2,0:0|0:0,0:0:0:0:
456,236,17184,6,0,L|356:256,1,90,6|2,3:2|3:2,0:0:0:0:
268,256,17881,2,0,P|281:303|296:380,2,90,8|2|0,0:0|3:2|0:0,0:0:0:0:
184,200,18928,1,2,3:2:0:0:
120,276,19277,2,0,P|81:265|20:252,1,90,8|2,0:0|0:0,0:0:0:0:
0,156,19974,6,0,P|39:142|96:132,1,90,2|2,3:2|0:0,0:0:0:0:
144,52,20672,2,0,P|187:67|240:88,1,90,8|2,0:0|3:2,0:0:0:0:
320,44,21370,2,0,P|332:96|332:156,1,90,0|2,0:0|3:2,0:0:0:0:
380,220,22067,2,0,L|440:208,2,45,8|0|2,0:0|0:0|0:0,0:0:0:0:
300,280,22765,6,0,L|176:256,1,90,0|2,3:2|3:2,0:0:0:0:
116,232,23463,2,0,P|125:269|140:360,2,90,8|2|0,0:0|3:2|0:0,0:0:0:0:
44,164,24509,1,2,3:2:0:0:
108,88,24858,2,0,P|165:99|216:112,1,90,8|2,0:0|0:0,0:0:0:0:
296,116,25556,6,0,P|284:60|272:8,2,90,2|2|8,3:2|0:0|0:0,0:0:0:0:
380,168,26602,2,0,P|395:148|412:124,2,45,2|2|0,3:2|0:0|0:0,0:0:0:0:
296,216,27300,1,2,3:2:0:0:
204,256,27649,2,0,P|163:246|96:228,1,90,8|2,0:0|0:0,0:0:0:0:
32,184,28346,6,0,P|125:174|224:160,1,180,2|2,0:0|0:0,0:0:0:0:
372,48,29742,2,0,P|362:92|356:160,1,90,2|0,0:0|0:0,0:0:0:0:
436,196,30439,2,0,P|430:240|421:284,1,90,2|0,0:0|0:0,0:0:0:0:
332,328,31137,6,0,P|296:316|232:304,1,90,2|2,0:0|0:0,0:0:0:0:
152,340,31835,2,0,P|72:328|64:216,2,180,2|2|2,0:0|0:0|0:0,0:0:0:0:
224,272,33579,1,2,0:0:0:0:
260,180,33928,6,0,P|249:134|236:92,1,90,2|2,0:0|0:0,0:0:0:0:
160,32,34626,2,0,P|208:60|348:32,1,180,2|2,0:0|0:0,0:0:0:0:
492,156,36021,2,0,P|453:147|372:144,1,90,2|2,0:0|0:0,0:0:0:0:
336,216,36719,6,0,P|352:262|372:324,1,90,2|2,0:0|0:0,0:0:0:0:
276,344,37416,2,0,B|156:324|156:324|100:344,1,180,2|2,0:0|0:0,0:0:0:0:
32,160,38812,2,0,P|60:124|128:116,1,90,2|2,0:0|0:0,0:0:0:0:
160,24,39509,6,0,B|132:52|132:52|152:132|152:132|192:140|208:152|208:152|196:183|192:216,1,242.999992584229,2|0,0:0|0:0,0:0:0:0:
252,300,40905,2,0,P|296:292|356:272,1,80.9999975280763,2|0,0:0|0:0,0:0:0:0:
400,200,41602,2,0,P|356:192|296:172,1,80.9999975280763,2|0,0:0|0:0,0:0:0:0:
304,76,42300,6,0,B|321:58|332:32|332:32|368:72|408:64|408:64|460:56|476:80|476:80|456:104|444:120|444:120|512:152|512:192|512:192|480:248,1,404.999987640381,2|0,0:0|0:0,0:0:0:0:
432,300,44393,2,0,L|316:280,1,80.9999975280763,2|0,0:0|0:0,0:0:0:0:
276,224,45091,6,0,B|251:214|221:200|221:200|216:264|216:264|124:220|116:336|56:312|24:232|32:168|116:164|144:196,1,404.999987640381,2|0,0:0|0:0,0:0:0:0:
176,96,47184,2,0,P|228:108|280:116,1,80.9999975280763,2|0,0:0|0:0,0:0:0:0:
356,84,47881,1,2,0:0:0:0:
80,300,48928,5,2,0:0:0:0:
180,340,49277,2,0,P|168:256|164:196,2,135,2|2|2,0:0|0:0|0:0,0:0:0:0:
284,368,50672,6,0,P|331:354|388:344,1,90,6|0,3:2|3:0,0:0:0:0:
452,276,51370,2,0,L|428:168,1,90,8|0,0:0|3:0,0:0:0:0:
344,128,52067,2,0,P|326:184|316:252,2,90,0|0|8,0:0|3:0|0:0,0:0:0:0:
284,40,53114,1,0,0:0:0:0:
196,104,53463,6,0,P|150:97|88:92,1,90,0|0,3:0|0:0,0:0:0:0:
56,188,54160,2,0,P|147:202|200:216,2,135,8|0|0,0:0|3:0|3:0,0:0:0:0:
0,280,55556,2,0,P|40:320|88:316,1,90,8|0,0:0|0:0,0:0:0:0:
176,292,56253,6,0,P|167:336|160:384,1,90,4|0,3:2|3:0,0:0:0:0:
268,360,56951,2,0,P|277:315|284:268,1,90,8|0,0:0|3:0,0:0:0:0:
228,180,57649,1,0,0:0:0:0:
132,128,57998,2,0,P|84:136|16:160,2,90,0|8|0,3:0|0:0|0:0,0:0:0:0:
236,156,59044,6,0,P|291:174|336:180,1,90,0|0,3:0|0:0,0:0:0:0:
424,140,59742,2,0,B|412:244|412:244|364:292,2,135,8|0|0,0:0|3:0|3:0,0:0:0:0:
336,76,61137,2,0,L|324:12,2,45,8|0|0,0:0|3:0|0:0,0:0:0:0:
244,128,61835,6,0,P|208:116|140:108,1,90,6|0,3:2|3:0,0:0:0:0:
60,156,62533,2,0,P|71:214|80:276,1,90,8|0,0:0|3:0,0:0:0:0:
180,280,63230,2,0,P|172:324|163:368,2,90,0|0|8,0:0|3:0|0:0,0:0:0:0:
268,216,64277,1,0,0:0:0:0:
344,292,64626,6,0,P|391:284|444:276,1,90,0|0,3:0|0:0,0:0:0:0:
504,196,65323,2,0,P|467:187|412:172,1,90,8|0,0:0|3:0,0:0:0:0:
332,104,66021,1,0,0:0:0:0:
228,132,66370,2,0,P|240:185|252:260,2,90,0|8|0,3:0|0:0|0:0,0:0:0:0:
140,68,67416,5,4,3:2:0:0:
72,152,67765,2,0,L|12:144,2,45,0|0|8,3:0|3:0|0:0,0:0:0:0:
156,220,68463,1,0,3:0:0:0:
120,324,68812,2,0,L|64:344,2,45,0|0|0,0:0|3:0|3:0,0:0:0:0:
224,352,69509,2,0,P|256:308|296:264,1,90,8|0,0:0|0:0,0:0:0:0:
388,276,70207,6,0,P|380:244|352:172,1,90,0|0,3:0|0:0,0:0:0:0:
292,108,70905,2,0,P|277:157|252:212,1,90,8|0,0:0|3:0,0:0:0:0:
164,240,71602,2,0,P|120:233|40:212,1,90,0|0,0:0|3:0,0:0:0:0:
32,124,72300,2,0,L|0:160,2,45,8|0|8,0:0|3:0|0:0,0:0:0:0:
108,48,72998,6,0,L|256:64,2,135,2|2|2,0:0|0:0|0:0,0:0:0:0:
132,152,74393,2,0,P|180:220|280:184,1,180,0|0,0:0|3:0,0:0:0:0:
448,320,75788,6,0,L|324:300,1,90,6|0,3:2|3:0,0:0:0:0:
288,224,76486,2,0,P|236:256|220:320,1,90,8|0,0:0|3:0,0:0:0:0:
124,324,77184,2,0,L|136:224,1,90,0|0,0:0|3:0,0:0:0:0:
40,180,77881,2,0,L|24:84,1,90,8|0,0:0|0:0,0:0:0:0:
112,28,78579,6,0,L|126:116,1,90,0|0,3:0|0:0,0:0:0:0:
224,168,79277,2,0,P|267:149|336:140,2,90,8|0|0,0:0|3:0|0:0,0:0:0:0:
196,272,80323,1,0,3:0:0:0:
280,340,80672,2,0,P|323:330|365:313,1,90,8|0,0:0|0:0,0:0:0:0:
420,220,81370,6,0,L|412:120,1,90,0|0,3:0|3:0,0:0:0:0:
340,48,82067,2,0,P|280:76|260:128,1,90,8|0,0:0|3:0,0:0:0:0:
236,196,82765,2,0,P|208:185|136:164,1,90,0|0,0:0|3:0,0:0:0:0:
48,204,83463,2,0,P|36:272|40:324,1,90,8|0,0:0|0:0,0:0:0:0:
108,372,84160,6,0,P|158:360|208:352,1,90,0|0,3:0|0:0,0:0:0:0:
228,252,84858,2,0,P|269:281|316:320,1,90,8|0,0:0|3:0,0:0:0:0:
388,368,85556,2,0,P|437:350|492:320,1,90,0|0,0:0|3:0,0:0:0:0:
496,228,86253,2,0,P|468:200|376:232,1,135,10|2,0:0|0:0,0:0:0:0:
256,192,86951,12,0,89393,0:0:0:0:
