osu file format v14

[General]
AudioFilename: audio.mp3
AudioLeadIn: 0
PreviewTime: 48928
Countdown: 0
SampleSet: Soft
StackLeniency: 0.7
Mode: 0
LetterboxInBreaks: 0
WidescreenStoryboard: 1

[Editor]
Bookmarks: 6021
DistanceSpacing: 1.7
BeatDivisor: 8
GridSize: 4
TimelineZoom: 3.099999

[Metadata]
Title:ninelie (TV Size)
TitleUnicode:ninelie (TV Size)
Artist:Aimer with chelly (EGOIST)
ArtistUnicode:Aimer with chelly (EGOIST)
Creator:Yukiin0
Version:Insane
Source:甲鉄城のカバネリ
Tags:Koutetsujou no Kabaneri of the Iron Fortress sawano hiroyuki ending ed
BeatmapID:968530
BeatmapSetID:450723

[Difficulty]
HPDrainRate:6.5
CircleSize:4.5
OverallDifficulty:7
ApproachRate:9
SliderMultiplier:2.8
SliderTickRate:1

[Events]
//Background and Video events
0,0,"bg.jpg",0,0
//Break Periods
//Storyboard Layer 0 (Background)
//Storyboard Layer 1 (Fail)
//Storyboard Layer 2 (Pass)
//Storyboard Layer 3 (Foreground)
//Storyboard Sound Samples

[TimingPoints]
440,697.674418604651,4,2,1,30,1,0
6021,-125,4,2,1,40,0,0
17184,-111.111111111111,4,2,1,40,0,0
28346,-142.857142857143,4,2,1,35,0,0
39509,-166.666666666667,4,2,1,30,0,0
48928,-90.9090909090908,4,2,1,50,0,0
49189,-111.111111111111,4,2,1,10,0,0
49277,-125,4,2,1,50,0,0
49713,-125,4,2,1,10,0,0
49800,-142.857142857143,4,2,1,50,0,0
50149,-142.857142857143,4,2,1,10,0,0
50236,-166.666666666667,4,2,1,50,0,0
50585,-166.666666666667,4,2,1,10,0,0
50672,-83.3333333333333,4,2,1,60,0,1
56253,-83.3333333333333,4,2,1,50,0,1
72649,-71.4285714285714,4,2,1,50,0,1
72998,-100,4,2,1,40,0,0
75788,-76.9230769230769,4,2,1,60,0,0
89393,-71.4285714285714,4,2,1,5,0,0

[Colours]
Combo1 : 255,0,0
Combo2 : 245,131,203
Combo3 : 191,91,57
Combo4 : 5,158,158
Combo5 : 186,7,224

[HitObjects]
316,296,3230,5,2,0:0:0:0:
208,296,3405,1,0,0:0:0:0:
140,212,3579,1,0,0:0:0:0:
68,292,3753,1,0,0:0:0:0:
64,188,3928,6,0,P|88:154|122:136,1,70,2|0,0:0|0:0,0:0:0:0:
208,208,4277,1,0,0:0:0:0:
208,88,4451,1,0,0:0:0:0:
280,208,4626,5,2,0:0:0:0:
364,84,4800,1,0,0:0:0:0:
348,232,4974,1,0,0:0:0:0:
284,88,5149,1,0,0:0:0:0:
208,208,5323,6,0,P|163:211|136:204,1,70,2|0,0:0|0:0,0:0:0:0:
64,116,5672,1,0,0:0:0:0:
156,40,5846,1,0,0:0:0:0:
284,28,6021,6,0,P|344:32|396:48,1,112,2|2,0:0|0:0,0:0:0:0:
480,104,6544,1,2,0:0:0:0:
380,144,6719,2,0,P|348:130|324:132,1,56
360,220,7067,2,0,P|420:216|460:182,1,112,2|2,0:0|0:0,0:0:0:0:
452,40,7591,1,2,0:0:0:0:
376,120,7765,2,0,P|339:117|320:108,1,56
228,92,8114,1,2,0:0:0:0:
152,148,8288,1,0,0:0:0:0:
56,160,8463,2,0,P|56:128|64:100,1,56
164,28,8812,6,0,P|220:14|276:21,1,112,2|0,0:0|0:0,0:0:0:0:
360,60,9335,1,2,0:0:0:0:
440,144,9509,1,0,0:0:0:0:
324,140,9684,1,0,0:0:0:0:
236,180,9858,2,0,P|223:207|224:238,1,56,2|0,0:0|0:0,0:0:0:0:
168,312,10207,2,0,P|223:332|274:317,1,112,2|2,0:0|0:0,0:0:0:0:
344,260,10730,2,0,P|366:239|380:208,1,56,2|0,0:0|0:0,0:0:0:0:
384,104,11079,1,0,0:0:0:0:
280,60,11253,1,0,0:0:0:0:
304,168,11428,1,0,0:0:0:0:
232,252,11602,6,0,P|188:188|204:104,1,168
272,120,12300,1,0,0:0:0:0:
356,196,12474,1,0,0:0:0:0:
376,76,12649,2,0,P|342:53|312:52,1,56
212,44,12998,2,0,P|148:55|108:104,1,112
108,212,13521,1,0,0:0:0:0:
220,208,13695,1,0,0:0:0:0:
148,296,13870,1,0,0:0:0:0:
260,280,14044,6,0,L|300:240,1,56
260,168,14393,2,0,L|220:208,1,56
132,176,14742,1,0,0:0:0:0:
188,92,14916,1,0,0:0:0:0:
300,72,15091,2,0,P|357:112|368:151,1,112
299,240,15614,1,0,0:0:0:0:
208,304,15788,2,0,P|152:316|104:292,1,112
68,184,16312,1,0,0:0:0:0:
92,76,16486,2,0,P|123:96|136:112,1,56
240,156,16835,2,0,P|239:124|248:96,1,56
364,80,17184,6,0,P|372:115|376:144,1,62.9999980773926
368,268,17533,1,0,0:0:0:0:
264,336,17707,1,0,0:0:0:0:
428,228,17881,1,0,0:0:0:0:
269,228,18056,1,0,0:0:0:0:
376,340,18230,2,0,P|411:328|432:304,1,62.9999980773926
472,160,18579,2,0,P|400:152|360:184,1,125.999996154785
300,272,19102,1,0,0:0:0:0:
114,345,19277,2,0,P|83:345|53:334,1,62.9999980773926
98,249,19626,6,0,P|128:240|160:243,1,62.9999980773926
272,344,19974,1,0,0:0:0:0:
228,192,20149,1,0,0:0:0:0:
348,292,20323,2,0,P|390:240|392:178,1,125.999996154785
228,192,20846,2,0,L|300:204,1,62.9999980773926
412,100,21195,1,0,0:0:0:0:
256,112,21370,1,0,0:0:0:0:
212,264,21544,2,0,P|155:209|157:165,1,125.999996154785
128,32,22067,2,0,P|168:24|192:24,1,62.9999980773926
300,84,22416,2,0,P|299:115|288:148,1,62.9999980773926
219,236,22765,6,0,P|286:262|339:250,1,125.999996154785
432,200,23288,1,0,0:0:0:0:
344,128,23463,2,0,L|288:157,1,62.9999980773926
184,204,23812,1,0,0:0:0:0:
72,208,23986,1,0,0:0:0:0:
172,284,24160,2,0,P|240:268|264:216,2,125.999996154785
80,196,25033,1,0,0:0:0:0:
124,76,25207,2,0,P|148:59|184:52,1,62.9999980773926
308,64,25556,6,0,P|332:68|368:81,1,62.9999980773926
384,208,25905,2,0,P|400:224|436:244,2,62.9999980773926
279,153,26428,1,0,0:0:0:0:
368,81,26602,2,0,P|296:113|280:153,1,125.999996154785
200,272,27126,1,0,0:0:0:0:
120,176,27300,1,0,0:0:0:0:
228,136,27474,1,0,0:0:0:0:
344,216,27649,1,0,0:0:0:0:
384,348,27823,1,0,0:0:0:0:
472,240,27998,2,0,P|474:208|468:176,1,62.9999980773926
344,100,28346,6,0,P|244:160|168:128,1,195.999994018555
60,180,29219,1,0,0:0:0:0:
152,260,29393,1,0,0:0:0:0:
256,324,29567,1,0,0:0:0:0:
356,332,29742,2,0,P|404:316|432:280,1,97.9999970092774
436,180,30265,1,0,0:0:0:0:
356,120,30439,2,0,L|300:124,1,48.9999985046387
240,60,30788,2,0,P|262:47|296:40,1,48.9999985046387
383,22,31137,6,0,P|452:87|436:179,1,195.999994018555
364,248,32009,1,0,0:0:0:0:
268,260,32184,1,0,0:0:0:0:
172,252,32358,1,0,0:0:0:0:
108,328,32533,2,0,P|148:348|208:340,1,97.9999970092774
268,260,33056,1,0,0:0:0:0:
316,172,33230,2,0,P|328:143|332:124,1,48.9999985046387
352,28,33579,2,0,P|321:16|296:16,1,48.9999985046387
208,28,33928,6,0,P|148:56|132:88,1,97.9999970092774
132,180,34451,1,0,0:0:0:0:
180,264,34626,2,0,P|236:276|280:268,1,97.9999970092774
344,200,35149,1,0,0:0:0:0:
388,112,35323,2,0,P|416:128|428:140,1,48.9999985046387
408,236,35672,2,0,P|390:256|372:268,1,48.9999985046387
404,344,36021,2,0,P|338:342|309:321,1,97.9999970092774
260,260,36544,1,0,0:0:0:0:
252,171,36719,6,0,P|268:126|256:79,1,97.9999970092774
116,124,37241,2,0,L|165:124,1,48.9999985046387
168,220,37590,2,0,L|119:220,1,48.9999985046387
116,320,37939,1,0,0:0:0:0:
212,340,38114,1,0,0:0:0:0:
304,312,38288,1,0,0:0:0:0:
384,252,38463,2,0,P|403:233|412:212,1,48.9999985046387
464,132,38812,2,0,P|420:116|368:128,1,97.9999970092774
280,168,39335,1,0,0:0:0:0:
216,252,39509,6,0,B|128:268|128:268|112:228|180:184|216:136|216:136|192:100,1,293.999991027832
132,44,40905,6,0,P|64:24|16:56,1,125.999996154785
80,112,41602,6,0,P|135:129|203:94,1,125.999996154785
328,40,42300,6,0,P|388:38|427:85,1,125.999996154785
408,232,42998,6,0,B|380:263|344:263|344:263|308:203|308:203|220:191|169:244,1,293.999991027832
44,244,44393,6,0,P|50:184|105:136,1,125.999996154785
300,168,45091,6,0,P|355:207|405:192,1,125.999996154785
364,132,45788,6,0,B|273:60|273:60|205:0|141:56|141:56|129:84,1,293.999991027832
106,198,47184,6,0,P|119:253|176:244,1,125.999996154785
264,156,47881,6,0,P|364:136|392:228,1,209.999993591309
360,304,48928,6,0,P|304:311|237:295,1,115.50000352478
116,136,49277,2,0,B|188:72|188:72|192:120,1,140
192,264,49800,2,0,P|260:304|292:308,1,97.9999970092774
420,184,50236,2,0,P|424:164|380:112,1,83.9999974365235
252,52,50672,6,0,P|208:64|176:92,1,83.9999974365235
132,248,51021,2,0,P|164:276|216:288,1,83.9999974365235
372,284,51370,2,0,P|409:206|390:126,1,167.999994873047
256,80,51893,1,0,0:0:0:0:
288,196,52067,2,0,P|248:216|208:224,1,83.9999974365235
72,180,52416,2,0,P|76:137|96:96,1,83.9999974365235
256,80,52765,2,0,P|340:96|388:168,1,167.999994873047
312,284,53288,1,0,0:0:0:0:
168,292,53463,6,0,P|122:277|92:256,1,83.9999974365235
40,144,53812,1,0,0:0:0:0:
104,36,53986,1,0,0:0:0:0:
228,24,54160,2,0,P|320:32|380:80,1,167.999994873047
416,200,54684,2,0,P|376:276|300:280,1,167.999994873047
180,152,55207,1,0,0:0:0:0:
327,188,55381,1,0,0:0:0:0:
204,292,55556,2,0,P|216:336|248:368,1,83.9999974365235
392,372,55905,2,0,P|436:360|456:328,1,83.9999974365235
464,200,56253,5,0,0:0:0:0:
327,188,56428,1,0,0:0:0:0:
404,312,56602,2,0,P|360:328|316:320,1,83.9999974365235
208,272,56951,2,0,P|180:192|216:120,1,167.999994873047
327,188,57474,1,0,0:0:0:0:
268,316,57649,1,0,0:0:0:0:
124,312,57823,1,0,0:0:0:0:
44,212,57998,2,0,P|47:166|64:128,1,83.9999974365235
212,120,58346,2,0,P|280:76|364:88,1,167.999994873047
432,212,58870,1,0,0:0:0:0:
308,220,59044,5,0,0:0:0:0:
362,87,59219,1,0,0:0:0:0:
236,88,59393,2,0,P|196:107|168:144,1,83.9999974365235
156,264,59742,2,0,P|220:332|296:328,1,167.999994873047
396,264,60265,2,0,P|425:228|440:192,1,83.9999974365235
380,95,60614,1,0,0:0:0:0:
264,76,60788,2,0,P|216:76|176:96,1,83.9999974365235
264,188,61137,2,0,P|348:164|380:96,1,167.999994873047
264,76,61660,1,0,0:0:0:0:
171,137,61835,5,0,0:0:0:0:
156,264,62009,1,0,0:0:0:0:
272,312,62184,1,0,0:0:0:0:
264,188,62358,1,0,0:0:0:0:
156,264,62533,2,0,P|64:240|36:176,1,167.999994873047
48,60,63056,1,0,0:0:0:0:
160,28,63230,6,0,P|196:16|248:28,1,83.9999974365235
372,84,63579,1,0,0:0:0:0:
212,140,63753,1,0,0:0:0:0:
324,160,63928,2,0,P|314:200|284:229,1,83.9999974365235
208,316,64277,6,0,P|160:321|56:248,1,167.999994873047
164,200,64800,1,0,0:0:0:0:
276,292,64974,2,0,P|364:280|404:216,1,167.999994873047
324,120,65498,2,0,P|360:96|408:96,2,83.9999974365235
228,204,66021,2,0,P|183:201|144:180,1,83.9999974365235
24,192,66370,6,0,P|38:103|102:70,2,167.999994873047
212,267,67242,1,0,0:0:0:0:
300,312,67416,2,0,P|392:324|440:272,1,167.999994873047
440,148,67939,1,0,0:0:0:0:
352,56,68114,2,0,P|252:48|180:68,1,167.999994873047
88,144,68637,1,0,0:0:0:0:
112,268,68812,2,0,P|147:279|196:284,1,83.9999974365235
320,284,69160,2,0,B|472:276|472:276|384:228,1,251.999992309571
272,168,69858,2,0,L|184:152,1,83.9999974365235
84,72,70207,6,0,P|47:145|80:220,1,167.999994873047
180,296,70730,1,0,0:0:0:0:
304,312,70905,1,0,0:0:0:0:
372,204,71079,1,0,0:0:0:0:
248,184,71253,2,0,L|164:184,1,83.9999974365235
164,56,71602,2,0,L|248:56,1,83.9999974365235
358,122,71951,2,0,P|371:161|370:210,1,83.9999974365235
280,316,72300,5,0,0:0:0:0:
164,184,72474,1,0,0:0:0:0:
358,122,72649,1,0,0:0:0:0:
356,316,72823,1,0,0:0:0:0:
208,316,72998,2,0,B|64:312|64:312|12:264|40:184,1,280
256,192,73870,12,0,75439,0:0:0:0:
236,152,75788,5,0,0:0:0:0:
368,192,75963,1,0,0:0:0:0:
300,312,76137,1,0,0:0:0:0:
168,348,76312,1,0,0:0:0:0:
60,264,76486,2,0,P|56:176|108:96,1,181.999991668702
228,36,77009,1,0,0:0:0:0:
364,60,77184,2,0,P|432:124|448:216,1,181.999991668702
356,308,77707,1,0,0:0:0:0:
232,308,77881,2,0,L|140:308,1,90.9999958343508
28,348,78230,2,0,P|16:300|36:252,1,90.9999958343508
92,160,78579,6,0,B|196:80|236:48|236:48|212:144,1,272.999987503052
184,252,79277,2,0,P|213:285|256:308,1,90.9999958343508
372,288,79626,1,0,0:0:0:0:
468,220,79800,1,0,0:0:0:0:
352,216,79974,2,0,B|192:220|192:220|300:164,1,272.999987503052
380,120,80672,2,0,P|392:40|308:32,1,181.999991668702
224,80,81195,1,0,0:0:0:0:
136,132,81370,6,0,L|72:200,1,90.9999958343508
72,300,81719,2,0,B|88:340|88:340|136:332,1,90.9999958343508
228,300,82067,2,0,P|304:276|400:312,1,181.999991668702
488,352,82591,1,0,0:0:0:0:
464,256,82765,2,0,P|385:200|301:189,1,181.999991668702
204,204,83288,1,0,0:0:0:0:
112,244,83463,2,0,B|36:288|36:288|24:188,1,181.999991668702
68,104,83986,1,0,0:0:0:0:
156,60,84160,6,0,P|248:32|328:64,1,181.999991668702
244,152,84684,1,0,0:0:0:0:
312,248,84858,2,0,L|396:288,1,90.9999958343508
296,356,85207,2,0,L|208:312,1,90.9999958343508
80,296,85556,2,0,P|104:216|200:196,1,181.999991668702
312,256,86079,1,0,0:0:0:0:
424,180,86253,2,0,P|389:141|349:128,1,90.9999958343508
224,88,86602,1,0,0:0:0:0:
191,193,86777,1,0,0:0:0:0:
256,192,87649,12,0,89393,0:0:0:0:
