osu file format v14

[General]
AudioFilename: audio.mp3
AudioLeadIn: 0
PreviewTime: 48928
Countdown: 0
SampleSet: Soft
StackLeniency: 0.7
Mode: 0
LetterboxInBreaks: 0
WidescreenStoryboard: 0

[Editor]
Bookmarks: 6021
DistanceSpacing: 1.5
BeatDivisor: 8
GridSize: 4
TimelineZoom: 1

[Metadata]
Title:ninelie (TV Size)
TitleUnicode:ninelie (TV Size)
Artist:Aimer with chelly (EGOIST)
ArtistUnicode:Aimer with chelly (EGOIST)
Creator:Yukiin0
Version:Hard
Source:甲鉄城のカバネリ
Tags:Koutetsujou no Kabaneri of the Iron Fortress sawano hiroyuki ending ed
BeatmapID:966937
BeatmapSetID:450723

[Difficulty]
HPDrainRate:6
CircleSize:4
OverallDifficulty:6
ApproachRate:8.5
SliderMultiplier:2.4
SliderTickRate:1

[Events]
//Background and Video events
0,0,"bg.jpg",0,0
//Break Periods
//Storyboard Layer 0 (Background)
//Storyboard Layer 1 (Fail)
//Storyboard Layer 2 (Pass)
//Storyboard Layer 3 (Foreground)
//Storyboard Sound Samples

[TimingPoints]
440,697.674418604651,4,2,1,30,1,0
6021,-125,4,2,1,40,0,0
17184,-111.111111111111,4,2,1,40,0,0
28346,-142.857142857143,4,2,1,35,0,0
39509,-166.666666666667,4,2,1,30,0,0
48928,-125,4,2,1,50,0,0
49189,-125,4,2,1,10,0,0
49277,-142.857142857143,4,2,1,50,0,0
49713,-142.857142857143,4,2,1,10,0,0
49800,-166.666666666667,4,2,1,50,0,0
50236,-166.666666666667,4,2,1,10,0,0
50323,-200,4,2,1,50,0,0
50498,-200,4,2,1,10,0,0
50672,-83.3333333333333,4,2,1,60,0,1
56253,-83.3333333333333,4,2,1,50,0,1
72649,-71.4285714285714,4,2,1,50,0,1
72998,-100,4,2,1,40,0,0
75788,-71.4285714285714,4,2,1,60,0,0
89393,-71.4285714285714,4,2,1,5,0,0

[Colours]
Combo1 : 255,0,0
Combo2 : 245,131,203
Combo3 : 191,91,57
Combo4 : 5,158,158
Combo5 : 186,7,224

[HitObjects]
144,264,3230,5,2,0:0:0:0:
80,200,3405,1,0,0:0:0:0:
80,110,3579,1,0,0:0:0:0:
169,110,3753,1,0,0:0:0:0:
216,188,3928,6,0,P|235:215|260:228,1,60,2|0,0:0|0:0,0:0:0:0:
344,204,4277,1,0,0:0:0:0:
317,118,4451,1,0,0:0:0:0:
246,60,4626,6,0,P|282:32|302:28,1,60,2|0,0:0|0:0,0:0:0:0:
380,56,4974,1,0,0:0:0:0:
436,128,5149,1,0,0:0:0:0:
432,216,5323,6,0,P|412:256|392:272,1,60,2|0,0:0|0:0,0:0:0:0:
324,312,5672,1,0,0:0:0:0:
234,312,5846,1,0,0:0:0:0:
153,279,6021,6,0,P|116:240|108:196,1,96
204,200,6544,1,0,0:0:0:0:
300,200,6719,2,0,P|344:200|356:196,1,48
420,136,7067,2,0,P|380:108|324:104,1,96
347,199,7591,1,0,0:0:0:0:
420,136,7765,2,0,L|448:96,1,48
364,44,8114,2,0,P|316:20|272:24,1,96
183,54,8637,1,0,0:0:0:0:
112,180,8812,6,0,P|136:220|180:248,1,96
272,268,9335,1,0,0:0:0:0:
368,264,9509,2,0,P|400:244|412:232,1,48
428,144,9858,1,0,0:0:0:0:
336,172,10033,1,0,0:0:0:0:
356,80,10207,2,0,P|404:48|444:48,2,96
336,172,11079,1,0,0:0:0:0:
328,268,11253,2,0,P|300:280|280:284,1,48
188,292,11602,6,0,P|136:284|104:256,1,96
172,188,12126,1,0,0:0:0:0:
264,208,12300,2,0,L|304:244,2,48
172,188,12823,1,0,0:0:0:0:
264,208,12998,2,0,P|320:196|356:168,1,96
404,92,13521,1,0,0:0:0:0:
340,20,13695,1,0,0:0:0:0:
248,52,13870,1,0,0:0:0:0:
288,192,14044,2,0,L|300:144,1,48
208,120,14393,6,0,P|156:120|124:148,1,96
96,240,14916,1,0,0:0:0:0:
168,304,15091,1,0,0:0:0:0:
260,280,15265,1,0,0:0:0:0:
332,216,15439,2,0,P|372:180|392:136,1,96
376,48,15963,1,0,0:0:0:0:
280,48,16137,1,0,0:0:0:0:
204,104,16312,1,0,0:0:0:0:
196,200,16486,2,0,L|232:236,1,48
308,292,16835,2,0,L|364:280,1,48
448,224,17184,6,0,P|409:181|358:170,1,107.999996704102
256,188,17707,1,0,0:0:0:0:
172,256,17881,2,0,P|136:240|120:212,1,53.9999983520508
68,140,18230,2,0,P|104:100|164:80,1,107.999996704102
324,76,18753,1,0,0:0:0:0:
240,144,18928,1,0,0:0:0:0:
404,152,19102,1,0,0:0:0:0:
424,260,19277,2,0,P|384:308|336:324,1,107.999996704102
236,316,19800,1,0,0:0:0:0:
424,260,19974,6,0,P|440:196|432:152,1,107.999996704102
364,72,20498,1,0,0:0:0:0:
260,96,20672,1,0,0:0:0:0:
308,192,20846,1,0,0:0:0:0:
260,288,21021,2,0,P|214:248|200:196,1,107.999996704102
188,96,21544,1,0,0:0:0:0:
284,44,21719,2,0,P|315:51|340:64,1,53.9999983520508
416,132,22067,2,0,P|433:152|448:176,1,53.9999983520508
444,284,22416,1,0,0:0:0:0:
368,364,22591,1,0,0:0:0:0:
260,372,22765,6,0,P|164:352|124:292,1,161.999995056153
144,196,23463,1,0,0:0:0:0:
236,252,23637,1,0,0:0:0:0:
332,304,23812,2,0,P|392:308|436:292,1,107.999996704102
372,204,24335,1,0,0:0:0:0:
264,192,24509,2,0,L|208:188,1,53.9999983520508
128,116,24858,2,0,P|140:68|192:32,1,107.999996704102
271,99,25381,1,0,0:0:0:0:
344,180,25556,6,0,L|400:212,1,53.9999983520508
360,312,25905,2,0,L|308:328,1,53.9999983520508
200,328,26253,1,0,0:0:0:0:
96,296,26428,1,0,0:0:0:0:
148,200,26602,2,0,P|190:157|236:140,1,107.999996704102
308,224,27126,1,0,0:0:0:0:
408,260,27300,1,0,0:0:0:0:
504,212,27474,1,0,0:0:0:0:
464,112,27649,2,0,L|400:112,1,53.9999983520508
316,60,27998,2,0,L|260:60,1,53.9999983520508
164,88,28346,6,0,P|148:168|192:248,1,167.999994873047
356,240,29742,2,0,P|393:166|377:85,1,167.999994873047
148,236,31137,6,0,L|107:248,1,41.9999987182618
115,136,31486,2,0,L|155:148,1,41.9999987182618
252,192,31835,2,0,P|340:228|420:204,1,167.999994873047
152,84,33230,2,0,L|120:112,1,41.9999987182618
140,216,33579,1,0,0:0:0:0:
244,216,33753,1,0,0:0:0:0:
304,128,33928,6,0,L|388:140,1,83.9999974365235
444,228,34451,1,0,0:0:0:0:
360,292,34626,2,0,P|280:312|200:284,1,167.999994873047
92,184,36021,2,0,P|100:132|124:96,1,83.9999974365235
220,84,36544,1,0,0:0:0:0:
300,116,36719,6,0,L|336:144,1,41.9999987182618
416,136,37067,2,0,L|452:164,1,41.9999987182618
420,264,37416,2,0,P|345:300|261:289,1,167.999994873047
132,140,38812,1,0,0:0:0:0:
216,132,38986,1,0,0:0:0:0:
292,168,39160,2,0,L|336:200,1,41.9999987182618
224,276,39509,6,0,B|144:272|140:256|48:280|48:280|56:192,1,251.999992309571
54,206,40905,6,0,P|88:152|144:160,1,107.999996704102
127,150,41602,6,0,P|184:160|232:140,1,107.999996704102
229,141,42300,6,0,P|242:92|288:60,1,107.999996704102
287,60,42998,6,0,B|340:127|340:127|392:192|324:284,1,251.999992309571
326,280,44393,6,0,P|238:272|202:256,1,107.999996704102
220,265,45091,6,0,P|124:248|104:228,1,107.999996704102
119,243,45788,6,0,B|52:176|88:144|88:144|152:156|184:64,1,251.999992309571
182,67,47184,6,0,P|228:32|284:36,1,107.999996704102
276,33,47881,6,0,P|328:96|424:96,1,179.999994506836
428,216,48928,6,0,P|412:256|384:280,1,72
296,336,49277,2,0,P|236:324|200:296,1,104.999996795654
100,240,49800,2,0,P|92:212|96:196,1,35.9999989013672
144,116,50149,1,0,0:0:0:0:
158,116,50323,6,0,L|192:116,1,30
244,256,50672,6,0,P|340:272|400:176,1,215.999993408203
264,64,51370,2,0,P|192:68|136:112,1,143.999995605469
92,284,51893,1,0,0:0:0:0:
260,224,52067,6,0,L|328:200,1,71.9999978027344
160,260,52416,2,0,L|92:284,1,71.9999978027344
68,152,52765,1,0,0:0:0:0:
244,152,52939,1,0,0:0:0:0:
160,260,53114,2,0,L|224:296,1,71.9999978027344
400,340,53463,6,0,P|460:300|476:224,1,143.999995605469
404,68,53986,1,0,0:0:0:0:
224,64,54160,2,0,P|165:102|146:170,1,143.999995605469
240,328,54683,1,0,0:0:0:0:
420,308,54858,2,0,P|434:275|436:236,1,71.9999978027344
316,116,55207,1,0,0:0:0:0:
152,80,55381,1,0,0:0:0:0:
120,240,55556,2,0,L|196:284,1,71.9999978027344
356,228,55905,2,0,P|384:192|392:164,1,71.9999978027344
248,56,56253,6,0,P|200:60|144:104,1,107.999996704102
104,168,56602,1,0,0:0:0:0:
148,300,56777,1,0,0:0:0:0:
312,304,56951,2,0,P|334:275|348:236,1,71.9999978027344
256,88,57300,2,0,P|196:136|200:204,1,143.999995605469
376,224,57823,1,0,0:0:0:0:
236,340,57998,2,0,P|196:336|168:316,1,71.9999978027344
56,220,58346,2,0,P|32:145|48:84,1,143.999995605469
188,144,58870,1,0,0:0:0:0:
312,228,59044,6,0,P|336:192|344:160,1,71.9999978027344
188,144,59393,6,0,P|167:173|156:207,1,71.9999978027344
394,259,59742,2,0,P|334:320|276:308,1,143.999995605469
156,207,60265,2,0,P|240:211|296:183,1,143.999995605469
420,112,60788,2,0,P|436:144|436:184,1,71.9999978027344
380,312,61137,2,0,P|344:324|308:328,1,71.9999978027344
164,332,61486,1,0,0:0:0:0:
276,244,61660,1,0,0:0:0:0:
164,332,61835,6,0,P|92:256|96:148,1,215.999993408203
184,36,62533,2,0,P|216:23|256:20,1,71.9999978027344
368,64,62881,1,0,0:0:0:0:
264,164,63056,1,0,0:0:0:0:
368,64,63230,2,0,L|414:118,1,71.9999978027344
264,164,63579,2,0,L|217:109,1,71.9999978027344
124,256,63928,2,0,P|200:328|308:332,1,215.999993408203
416,240,64626,6,0,P|444:168|424:108,1,143.999995605469
296,40,65149,1,0,0:0:0:0:
160,80,65323,2,0,P|164:132|200:176,1,107.999996704102
276,138,65672,2,0,P|283:174|276:210,1,71.9999978027344
168,304,66021,2,0,L|224:348,1,71.9999978027344
364,316,66370,2,0,L|416:264,1,71.9999978027344
476,136,66719,1,0,0:0:0:0:
344,188,66893,1,0,0:0:0:0:
228,272,67067,2,0,P|176:264|152:244,1,71.9999978027344
71,148,67416,6,0,P|102:212|161:253,1,143.999995605469
294,287,67939,1,0,0:0:0:0:
416,208,68114,2,0,P|364:156|296:144,1,143.999995605469
160,252,68637,1,0,0:0:0:0:
294,287,68812,2,0,L|366:287,1,71.9999978027344
416,208,69160,2,0,P|340:152|220:176,1,215.999993408203
148,292,69858,2,0,P|175:314|212:328,1,71.9999978027344
352,328,70207,6,0,P|416:300|452:236,1,143.999995605469
432,104,70730,1,0,0:0:0:0:
316,188,70905,1,0,0:0:0:0:
256,56,71079,1,0,0:0:0:0:
316,188,71253,2,0,L|259:232,1,71.9999978027344
256,56,71602,2,0,L|184:36,1,71.9999978027344
116,164,71951,2,0,L|168:224,1,71.9999978027344
284,300,72300,5,0,0:0:0:0:
163,218,72474,1,0,0:0:0:0:
328,188,72649,1,0,0:0:0:0:
207,106,72823,1,0,0:0:0:0:
356,80,72998,2,0,P|436:152|396:276,1,240
256,192,73870,12,0,75439,0:0:0:0:
152,216,75788,6,0,P|220:264|300:248,1,167.999994873047
425,256,76312,1,0,0:0:0:0:
424,132,76486,2,0,P|356:84|276:100,1,167.999994873047
151,92,77010,1,0,0:0:0:0:
80,196,77184,2,0,P|71:294|116:345,1,167.999994873047
198,252,77707,1,0,0:0:0:0:
316,308,77881,2,0,P|324:209|279:158,1,167.999994873047
198,252,78404,1,0,0:0:0:0:
316,308,78579,6,0,P|415:306|461:255,1,167.999994873047
364,176,79102,1,0,0:0:0:0:
240,156,79277,2,0,P|159:168|111:234,1,167.999994873047
228,284,79800,2,0,L|304:332,1,83.9999974365235
420,288,80149,2,0,L|348:244,1,83.9999974365235
240,156,80498,1,0,0:0:0:0:
228,284,80672,2,0,P|148:296|68:256,1,167.999994873047
48,136,81195,1,0,0:0:0:0:
168,180,81370,6,0,P|248:212|324:184,1,167.999994873047
248,84,81893,1,0,0:0:0:0:
168,184,82067,2,0,P|160:224|164:272,1,83.9999974365235
260,316,82416,1,0,0:0:0:0:
364,348,82591,1,0,0:0:0:0:
448,280,82765,2,0,P|418:251|368:240,1,83.9999974365235
260,316,83114,1,0,0:0:0:0:
377,239,83288,1,0,0:0:0:0:
260,316,83463,2,0,L|176:288,1,83.9999974365235
61,244,83812,1,0,0:0:0:0:
149,155,83986,1,0,0:0:0:0:
237,66,84160,6,0,P|328:36|388:68,1,167.999994873047
428,188,84684,1,0,0:0:0:0:
372,300,84858,2,0,L|288:300,1,83.9999974365235
168,264,85207,1,0,0:0:0:0:
88,164,85381,1,0,0:0:0:0:
164,64,85556,2,0,P|236:28|320:48,1,167.999994873047
408,136,86079,1,0,0:0:0:0:
340,240,86253,6,0,L|264:304,1,83.9999974365235
156,260,86602,1,0,0:0:0:0:
216,148,86777,1,0,0:0:0:0:
256,192,87649,12,0,89393,0:0:0:0:
