osu file format v14

[General]
AudioFilename: audio.mp3
AudioLeadIn: 0
PreviewTime: 48928
Countdown: 0
SampleSet: Soft
StackLeniency: 0.7
Mode: 0
LetterboxInBreaks: 0
WidescreenStoryboard: 1

[Editor]
Bookmarks: 6021,14393
DistanceSpacing: 1
BeatDivisor: 2
GridSize: 4
TimelineZoom: 1

[Metadata]
Title:ninelie (TV Size)
TitleUnicode:ninelie (TV Size)
Artist:Aimer with chelly (EGOIST)
ArtistUnicode:Aimer with chelly (EGOIST)
Creator:Yukiin0
Version:Easy
Source:甲鉄城のカバネリ
Tags:Koutetsujou no Kabaneri of the Iron Fortress sawano hiroyuki ending ed
BeatmapID:970287
BeatmapSetID:450723

[Difficulty]
HPDrainRate:2.5
CircleSize:2.8
OverallDifficulty:2.5
ApproachRate:4
SliderMultiplier:1.3
SliderTickRate:1

[Events]
//Background and Video events
0,0,"bg.jpg",0,0
//Break Periods
//Storyboard Layer 0 (Background)
//Storyboard Layer 1 (Fail)
//Storyboard Layer 2 (Pass)
//Storyboard Layer 3 (Foreground)
//Storyboard Sound Samples

[TimingPoints]
440,697.674418604651,4,2,1,30,1,0
4626,-100,4,2,1,5,0,0
6021,-125,4,2,1,40,0,0
17184,-111.111111111111,4,2,1,40,0,0
28346,-142.857142857143,4,2,1,35,0,0
39509,-166.666666666667,4,2,1,30,0,0
48928,-125,4,2,1,50,0,0
49189,-125,4,2,1,10,0,0
49277,-142.857142857143,4,2,1,50,0,0
49713,-142.857142857143,4,2,1,10,0,0
49800,-166.666666666667,4,2,1,50,0,0
50236,-166.666666666667,4,2,1,10,0,0
50323,-200,4,2,1,50,0,0
50585,-200,4,2,1,10,0,0
50672,-100,4,2,1,60,0,1
56253,-100,4,2,1,50,0,1
72649,-83.3333333333333,4,2,1,50,0,1
72998,-125,4,2,1,40,0,0
74393,-125,4,2,1,5,0,0
75788,-83.3333333333333,4,2,1,60,0,0
86951,-83.3333333333333,4,2,1,5,0,0
89393,-83.3333333333333,4,2,1,5,0,0

[Colours]
Combo1 : 255,0,0
Combo2 : 245,131,203
Combo3 : 191,91,57
Combo4 : 5,158,158
Combo5 : 226,5,221

[HitObjects]
256,192,3230,12,0,4626,0:0:0:0:
196,356,6021,6,0,P|272:276|256:180,1,208
224,88,8114,2,0,P|180:116|156:168,2,104
328,96,10207,2,0,P|372:140|380:184,1,104
356,280,11602,6,0,P|284:328|216:320,1,156
144,292,12998,1,0,0:0:0:0:
64,228,13695,1,0,0:0:0:0:
76,132,14393,6,0,P|88:104|104:88,1,52
172,48,15091,2,0,P|236:36|276:48,1,104
336,96,16486,1,0,0:0:0:0:
304,208,17184,6,0,P|264:256|104:216,1,233.999992858887
84,116,19277,1,0,0:0:0:0:
188,60,19974,2,0,P|253:46|300:61,2,116.999996429443
244,172,22067,1,0,0:0:0:0:
360,196,22765,6,0,P|329:258|282:284,1,116.999996429443
232,288,23812,2,0,L|172:288,2,58.4999982147217
407,288,25556,6,0,P|447:236|456:180,2,116.999996429443
340,192,27649,1,0,0:0:0:0:
248,192,28346,6,0,P|184:140|248:104,1,181.999994445801
336,124,30439,1,0,0:0:0:0:
364,212,31137,6,0,P|268:312|156:264,1,272.999991668701
104,196,33928,6,0,P|88:100|152:52,1,181.999994445801
238,52,36021,2,0,L|286:52,1,45.4999986114502
361,52,36719,6,0,P|441:132|429:192,1,181.999994445801
372,264,38812,1,0,0:0:0:0:
308,312,39509,6,0,P|192:312|152:208,1,233.999992858887
150,137,42300,6,0,P|186:77|274:61,1,155.999995239258
332,100,44393,1,0,0:0:0:0:
372,168,45091,6,0,P|356:304|264:336,1,233.999992858887
200,324,47881,2,0,P|156:304|136:280,1,77.999997619629
92,216,48928,1,0,0:0:0:0:
60,144,49277,2,0,P|56:108|64:72,2,68.2499979171754
156,120,50672,6,0,P|212:176|264:176,1,130
332,288,52067,2,0,P|248:312|196:296,2,130
420,192,54160,1,0,0:0:0:0:
339,87,54858,2,0,P|279:66|214:85,2,130
272,200,56951,6,0,P|208:216|132:196,1,130
72,120,58346,1,0,0:0:0:0:
200,112,59044,2,0,L|336:112,2,130
104,200,61137,1,0,0:0:0:0:
188,296,61835,6,0,P|256:320|312:312,1,130
404,220,63230,2,0,P|440:156|448:96,1,130
328,52,64626,2,0,P|260:48|192:60,2,130
448,100,66719,2,0,P|468:128|476:160,1,65
464,256,67416,6,0,P|420:316|368:324,1,130
240,316,68812,2,0,P|168:264|152:208,1,130
172,100,70207,2,0,P|236:56|300:56,2,130
272,180,72300,1,0,0:0:0:0:
264,284,72998,6,0,P|372:208|296:76,1,312
140,76,75788,6,0,P|96:144|88:232,1,155.999995239258
172,348,77184,2,0,P|260:360|324:340,1,155.999995239258
428,224,78579,2,0,P|444:156|380:104,2,155.999995239258
280,272,80672,2,0,P|192:272|136:232,1,155.999995239258
44,112,82067,6,0,P|116:76|192:92,2,155.999995239258
80,264,84160,2,0,P|148:304|236:296,1,155.999995239258
368,240,85556,2,0,P|416:172|396:100,2,155.999995239258
256,192,87649,12,0,89393,0:0:0:0:
