osu file format v14

[General]
AudioFilename: audio.mp3
AudioLeadIn: 0
PreviewTime: 49014
Countdown: 1
SampleSet: Normal
StackLeniency: 0.7
Mode: 0
LetterboxInBreaks: 0
WidescreenStoryboard: 1

[Editor]
DistanceSpacing: 1.5
BeatDivisor: 4
GridSize: 16
TimelineZoom: 3.099999

[Metadata]
Title:ninelie (TV Size)
TitleUnicode:ninelie (TV Size)
Artist:Aimer with chelly (EGOIST)
ArtistUnicode:Aimer with chelly (EGOIST)
Creator:Canonbomb18
Version:Normal
Source:甲鉄城のカバネリ
Tags:Kabaneri of the Iron Fortress ending Maddafakka-sama Cancel
BeatmapID:1636229
BeatmapSetID:775503

[Difficulty]
HPDrainRate:2
CircleSize:3
OverallDifficulty:3
ApproachRate:5
SliderMultiplier:1.4
SliderTickRate:2

[Events]
//Background and Video events
0,0,"707570.png",0,0
//Break Periods
//Storyboard Layer 0 (Background)
//Storyboard Layer 1 (Fail)
//Storyboard Layer 2 (Pass)
//Storyboard Layer 3 (Foreground)
//Storyboard Sound Samples

[TimingPoints]
526,697.674418604651,4,1,0,30,1,0
2967,-125,4,1,0,5,0,0
3316,-100,4,1,0,30,0,0
6107,-90.9090909090909,4,2,0,30,0,0
17270,-90.9090909090909,4,1,0,50,0,0
28432,-100,4,2,0,30,0,0
49014,697.674418604651,4,1,0,30,1,0
49014,-111.111111111111,4,1,0,30,0,0
49362,-100,4,1,0,30,0,0
49886,-90.9090909090909,4,1,0,30,0,0
50409,-83.3333333333333,4,1,0,30,0,0
50758,-80,4,1,0,30,0,1
73083,-80,4,1,0,30,0,0
75874,697.674418604651,4,1,0,50,1,0

[Colours]
Combo1 : 0,255,0
Combo2 : 255,0,0
Combo3 : 5,170,250
Combo4 : 192,192,192

[HitObjects]
102,95,6107,6,0,P|183:56|261:56,1,154.000004699707,0|0,0:0|0:0,0:0:0:0:
359,74,7153,1,0,0:0:0:0:
440,156,7502,1,0,0:0:0:0:
333,361,8200,1,0,0:0:0:0:
218,346,8549,2,0,P|136:296|90:227,1,154.000004699707,0|0,0:0|0:0,0:0:0:0:
68,139,9595,1,0,0:0:0:0:
132,43,9944,1,0,0:0:0:0:
245,66,10293,1,0,0:0:0:0:
256,181,10642,6,0,L|260:349,1,154.000004699707,0|0,0:0|0:0,0:0:0:0:
375,333,11688,2,0,P|439:273|431:179,1,154.000004699707,0|0,0:0|0:0,0:0:0:0:
415,98,12735,1,0,0:0:0:0:
309,51,13084,2,0,P|207:48|143:64,1,154.000004699707,0|0,0:0|0:0,0:0:0:0:
70,136,14130,2,0,L|55:234,1,77.0000023498536,0|0,0:0|0:0,0:0:0:0:
53,327,14828,2,0,L|158:350,1,77.0000023498536,0|0,0:0|0:0,0:0:0:0:
243,344,15525,2,0,P|342:335|390:288,1,154.000004699707,0|0,0:0|0:0,0:0:0:0:
380,301,17270,6,0,P|440:217|436:139,1,154.000004699707,0|8,0:0|0:0,0:0:0:0:
379,72,18316,1,0,0:0:0:0:
266,45,18665,2,0,P|175:53|111:93,1,154.000004699707,0|8,0:0|0:0,0:0:0:0:
78,191,19712,2,0,L|100:284,1,77.0000023498536,0|0,0:0|0:0,0:0:0:0:
201,311,20409,1,0,0:0:0:0:
262,213,20758,1,8,0:0:0:0:
257,97,21107,2,0,P|306:33|442:102,1,231.000007049561,0|8,0:0|0:0,0:0:0:0:
456,186,22502,1,0,0:0:0:0:
437,300,22851,6,0,P|377:356|287:361,1,154.000004699707,0|8,0:0|0:0,0:0:0:0:
193,351,23898,1,0,0:0:0:0:
91,296,24246,2,0,P|59:217|70:141,1,154.000004699707,0|8,0:0|0:0,0:0:0:0:
148,68,25293,2,0,L|250:54,1,77.0000023498536,0|0,0:0|0:0,0:0:0:0:
339,50,25991,1,0,0:0:0:0:
406,143,26339,1,8,0:0:0:0:
368,252,26688,2,0,P|285:252|258:192,1,154.000004699707,0|0,0:0|0:0,0:0:0:0:
64,60,28432,6,0,P|53:157|63:211,1,140,0|0,0:0|0:0,0:0:0:0:
243,299,29828,2,0,L|242:144,1,140,0|0,0:0|0:0,0:0:0:0:
427,60,31223,1,0,0:0:0:0:
430,165,31572,2,0,P|402:260|346:302,1,140,0|0,0:0|0:0,0:0:0:0:
166,316,33665,1,0,0:0:0:0:
91,242,34014,2,0,P|75:154|113:89,1,140,0|0,0:0|0:0,0:0:0:0:
412,37,36107,2,0,P|457:77|467:108,1,70,0|0,0:0|0:0,0:0:0:0:
461,190,36805,2,0,P|427:300|327:347,1,210,0|0,0:0|0:0,0:0:0:0:
105,320,38898,6,0,L|71:231,1,70,0|0,0:0|0:0,0:0:0:0:
101,91,39595,2,0,P|172:50|243:61,1,140,0|0,0:0|0:0,0:0:0:0:
395,181,40991,2,0,P|364:263|317:305,1,140,0|0,0:0|0:0,0:0:0:0:
118,280,42386,2,0,P|91:198|111:130,1,140,0|0,0:0|0:0,0:0:0:0:
284,42,43781,1,0,0:0:0:0:
430,192,44479,2,0,P|411:277|366:326,1,140,0|0,0:0|0:0,0:0:0:0:
274,334,45525,1,0,0:0:0:0:
170,314,45874,2,0,P|117:231|118:179,1,140
270,49,47270,2,0,L|273:202,1,140
256,192,49014,5,0,0:0:0:0:
359,205,49362,2,0,L|335:248,1,35
261,319,49886,2,0,L|198:306,1,38.5000011749268
111,253,50409,1,0,0:0:0:0:
126,124,50758,6,0,L|217:65,1,87.5,2|0,0:0|0:0,0:0:0:0:
330,88,51455,2,0,L|425:148,1,87.5,8|0,0:0|0:0,0:0:0:0:
415,265,52153,1,2,0:0:0:0:
315,350,52502,1,2,0:0:0:0:
184,338,52851,1,10,0:0:0:0:
80,256,53200,2,0,L|65:156,1,87.5,0|0,0:0|0:0,0:0:0:0:
51,39,53897,2,0,L|175:20,1,87.5,0|8,0:0|0:0,0:0:0:0:
250,35,54595,2,0,L|361:59,1,87.5,2|8,0:0|0:0,0:0:0:0:
449,120,55293,5,2,0:0:0:0:
442,250,55641,1,2,0:0:0:0:
342,335,55990,1,2,0:0:0:0:
80,310,56688,1,2,0:0:0:0:
37,185,57037,1,10,0:0:0:0:
101,70,57386,1,2,0:0:0:0:
363,73,58083,6,0,P|446:141|455:214,1,175,2|2,0:0|0:0,0:0:0:0:
411,327,59130,1,2,0:0:0:0:
282,355,59479,1,2,0:0:0:0:
153,327,59827,1,8,0:0:0:0:
91,232,60176,2,0,L|72:119,1,87.5,0|0,0:0|0:0,0:0:0:0:
187,74,60874,2,0,L|247:184,1,87.5,2|2,0:0|0:0,0:0:0:0:
293,265,61572,1,2,0:0:0:0:
419,297,61920,6,0,L|455:176,1,87.5,6|0,0:0|0:0,0:0:0:0:
407,86,62618,2,0,P|339:54|311:51,1,87.5,8|0,0:0|0:0,0:0:0:0:
196,68,63316,1,2,0:0:0:0:
101,158,63665,1,2,0:0:0:0:
130,286,64014,1,10,0:0:0:0:
252,332,64362,2,0,L|254:226,1,87.5,6|0,0:0|0:0,0:0:0:0:
256,112,65060,1,2,0:0:0:0:
369,45,65409,1,10,0:0:0:0:
469,128,65758,2,0,L|469:240,1,87.5,2|0,0:0|0:0,0:0:0:0:
382,314,66455,5,2,0:0:0:0:
255,347,66804,1,8,0:0:0:0:
129,307,67153,1,0,0:0:0:0:
101,178,67502,1,2,0:0:0:0:
167,64,67851,2,0,P|222:46|285:48,1,87.5,8|8,0:0|0:0,0:0:0:0:
378,76,68548,1,4,0:0:0:0:
430,196,68897,2,0,P|400:290|328:326,1,175,0|8,0:0|0:0,0:0:0:0:
206,338,69944,1,2,0:0:0:0:
97,264,70293,2,0,P|64:178|101:88,1,175,0|8,0:0|0:0,0:0:0:0:
209,49,71339,6,0,P|368:80|376:257,1,350,4|8,0:0|0:0,0:0:0:0:
256,192,73083,12,0,75874,0:0:0:0:
256,192,76571,6,0,L|181:244,1,70,4|0,2:2|0:0,0:0:0:0:
104,279,77269,2,0,L|195:328,1,70,4|0,2:2|0:0,0:0:0:0:
265,345,77967,2,0,L|342:296,1,70,4|0,2:2|0:0,0:0:0:0:
412,250,78664,2,0,L|423:164,1,70,4|0,2:2|0:0,0:0:0:0:
382,82,79362,2,0,L|292:63,1,70,4|0,2:2|0:0,0:0:0:0:
208,73,80060,2,0,L|121:120,1,70,4|0,2:2|0:0,0:0:0:0:
70,178,80757,2,0,L|73:270,1,70,4|0,2:2|0:0,0:0:0:0:
118,342,81455,1,0,0:0:0:0:
222,349,81804,1,0,0:0:0:0:
327,346,82153,6,0,L|398:280,1,70,4|0,2:2|0:0,0:0:0:0:
395,194,82850,2,0,L|386:105,1,70,4|0,2:2|0:0,0:0:0:0:
303,61,83548,2,0,L|218:53,1,70,4|0,2:2|0:0,0:0:0:0:
133,88,84246,2,0,L|103:169,1,70,4|0,2:2|0:0,0:0:0:0:
126,257,84943,2,0,L|173:334,1,70,4|0,2:2|0:0,0:0:0:0:
261,352,85641,2,0,L|258:258,1,70,4|0,2:2|0:0,0:0:0:0:
259,176,86339,2,0,L|262:92,1,70,4|0,2:2|0:0,0:0:0:0:
256,192,87036,12,0,89478,0:0:0:0:
