osu file format v14

[General]
AudioFilename: audio.mp3
AudioLeadIn: 0
PreviewTime: 75997
Countdown: 0
SampleSet: Soft
StackLeniency: 0.7
Mode: 3
LetterboxInBreaks: 0
SpecialStyle: 0
WidescreenStoryboard: 0

[Editor]
DistanceSpacing: 0.8
BeatDivisor: 4
GridSize: 32
TimelineZoom: 1.1

[Metadata]
Title:ninelie (REDSHiFT x Vesuvia Remix)
TitleUnicode:ninelie (REDSHiFT x Vesuvia Remix)
Artist:Aimer with chelly (EGOIST)
ArtistUnicode:Aimer with chelly (EGOIST)
Creator:Alsty-
Version:Intermediate Bushi
Source:甲鉄城のカバネリ
Tags:Koutetsujou no Kabaneri Ending Theme 1 Kabaneri of the iron fortress DnB SCL-1987 daydream SME Records hiroyuki sawano
BeatmapID:1035001
BeatmapSetID:484996

[Difficulty]
HPDrainRate:7
CircleSize:4
OverallDifficulty:7
ApproachRate:5
SliderMultiplier:1.4
SliderTickRate:1

[Events]
//Background and Video events
0,0,"BG.jpg",0,0
//Break Periods
//Storyboard Layer 0 (Background)
//Storyboard Layer 1 (Fail)
//Storyboard Layer 2 (Pass)
//Storyboard Layer 3 (Foreground)
//Storyboard Sound Samples

[TimingPoints]
1420,337.078651685393,4,2,0,40,1,0
76082,-100,4,2,0,40,0,1
98498,-100,4,2,0,40,0,0
214453,-100,4,2,0,40,0,1
236026,-100,4,2,0,40,0,0

[HitObjects]
64,192,1420,5,0,0:0:0:15:bell.wav
192,192,1588,1,0,0:0:0:15:bell.wav
448,192,1757,1,0,0:0:0:15:bell.wav
320,192,1925,1,0,0:0:0:15:bell.wav
64,192,2094,1,0,0:0:0:15:bell.wav
192,192,2262,1,0,0:0:0:15:bell.wav
320,192,2431,1,0,0:0:0:15:bell.wav
448,192,2599,1,0,0:0:0:15:bell.wav
192,192,2768,1,0,0:0:0:15:bell.wav
64,192,2936,1,0,0:0:0:15:bell.wav
192,192,3105,1,0,0:0:0:15:bell.wav
448,192,3273,1,0,0:0:0:15:bell.wav
64,192,3442,1,0,0:0:0:15:bell.wav
320,192,3611,1,0,0:0:0:15:bell.wav
192,192,3779,1,0,0:0:0:15:bell.wav
448,192,3948,1,0,0:0:0:15:bell.wav
192,192,4116,1,0,0:0:0:15:bell.wav
64,192,4285,1,0,0:0:0:15:bell.wav
320,192,4453,1,0,0:0:0:15:bell.wav
448,192,4622,1,0,0:0:0:15:bell.wav
192,192,4790,1,0,0:0:0:15:bell.wav
320,192,4959,1,0,0:0:0:15:bell.wav
64,192,5127,1,0,0:0:0:15:bell.wav
448,192,5296,1,0,0:0:0:15:bell.wav
320,192,5464,1,0,0:0:0:15:bell.wav
64,192,5633,1,0,0:0:0:15:bell.wav
192,192,5802,1,0,0:0:0:15:bell.wav
448,192,5970,1,0,0:0:0:15:bell.wav
64,192,6139,1,0,0:0:0:15:bell.wav
192,192,6307,1,0,0:0:0:15:bell.wav
448,192,6476,1,0,0:0:0:15:bell.wav
320,192,6644,1,0,0:0:0:15:bell.wav
64,192,6813,1,0,0:0:0:15:bell.wav
192,192,6981,1,0,0:0:0:15:bell.wav
320,192,7150,1,0,0:0:0:15:bell.wav
448,192,7318,1,0,0:0:0:15:bell.wav
192,192,7487,1,0,0:0:0:15:bell.wav
64,192,7655,1,0,0:0:0:15:bell.wav
320,192,7824,1,0,0:0:0:15:bell.wav
448,192,7993,1,0,0:0:0:15:bell.wav
64,192,8161,1,0,0:0:0:15:bell.wav
192,192,8330,1,0,0:0:0:15:bell.wav
320,192,8498,1,0,0:0:0:15:bell.wav
448,192,8667,1,0,0:0:0:15:bell.wav
320,192,8835,1,0,0:0:0:15:bell.wav
64,192,9004,1,0,0:0:0:15:bell.wav
192,192,9172,1,0,0:0:0:15:bell.wav
448,192,9341,1,0,0:0:0:15:bell.wav
64,192,9509,1,0,0:0:0:15:bell.wav
448,192,9678,1,0,0:0:0:15:bell.wav
320,192,9846,1,0,0:0:0:15:bell.wav
192,192,10015,1,0,0:0:0:15:bell.wav
64,192,10184,1,0,0:0:0:15:bell.wav
320,192,10352,1,0,0:0:0:15:bell.wav
192,192,10521,1,0,0:0:0:15:bell.wav
64,192,10689,1,0,0:0:0:15:bell.wav
448,192,10858,128,0,12206:0:0:0:20:soft-hitnormal2.wav
64,192,11532,128,0,12206:0:0:0:20:soft-hitnormal2.wav
320,192,12206,1,0,0:0:0:15:bell.wav
192,192,12375,1,0,0:0:0:15:bell.wav
448,192,12543,1,0,0:0:0:15:bell.wav
320,192,12712,1,0,0:0:0:15:bell.wav
64,192,12880,1,0,0:0:0:15:bell.wav
192,192,13049,1,0,0:0:0:15:bell.wav
320,192,13217,1,0,0:0:0:15:bell.wav
448,192,13386,1,0,0:0:0:15:bell.wav
192,192,13554,1,0,0:0:0:15:bell.wav
64,192,13723,1,0,0:0:0:15:bell.wav
320,192,13891,1,0,0:0:0:15:bell.wav
448,192,14060,1,0,0:0:0:15:bell.wav
320,192,14228,1,0,0:0:0:15:bell.wav
64,192,14397,1,0,0:0:0:15:bell.wav
192,192,14566,1,0,0:0:0:15:bell.wav
448,192,14734,1,0,0:0:0:15:bell.wav
64,192,14903,1,0,0:0:0:15:bell.wav
320,192,15071,1,0,0:0:0:15:bell.wav
192,192,15240,1,0,0:0:0:15:bell.wav
448,192,15408,1,0,0:0:0:15:bell.wav
64,192,15577,1,0,0:0:0:15:bell.wav
320,192,15745,1,0,0:0:0:15:bell.wav
192,192,15914,1,0,0:0:0:15:bell.wav
448,192,16082,1,0,0:0:0:15:bell.wav
64,192,16251,1,0,0:0:0:15:bell.wav
192,192,16419,1,0,0:0:0:15:bell.wav
320,192,16588,1,0,0:0:0:15:bell.wav
448,192,16757,1,0,0:0:0:15:bell.wav
192,192,16925,1,0,0:0:0:15:bell.wav
64,192,17094,1,0,0:0:0:15:bell.wav
320,192,17262,1,0,0:0:0:15:bell.wav
448,192,17431,1,0,0:0:0:15:bell.wav
64,192,17599,1,0,0:0:0:15:bell.wav
192,192,17768,1,0,0:0:0:15:bell.wav
320,192,17936,1,0,0:0:0:15:bell.wav
448,192,18105,1,0,0:0:0:15:bell.wav
64,192,18273,1,0,0:0:0:15:bell.wav
192,192,18442,1,0,0:0:0:15:bell.wav
448,192,18611,1,0,0:0:0:15:bell.wav
320,192,18779,1,0,0:0:0:15:bell.wav
64,192,18948,1,0,0:0:0:15:bell.wav
192,192,19116,1,0,0:0:0:15:bell.wav
320,192,19285,1,0,0:0:0:15:bell.wav
448,192,19453,1,0,0:0:0:15:bell.wav
192,192,19622,1,0,0:0:0:15:bell.wav
64,192,19790,1,0,0:0:0:15:bell.wav
320,192,19959,1,0,0:0:0:15:bell.wav
448,192,20127,1,0,0:0:0:15:bell.wav
64,192,20296,1,0,0:0:0:15:bell.wav
448,192,20464,1,0,0:0:0:15:bell.wav
320,192,20633,1,0,0:0:0:15:bell.wav
192,192,20802,1,0,0:0:0:15:bell.wav
64,192,20970,1,0,0:0:0:15:bell.wav
320,192,21139,1,0,0:0:0:15:bell.wav
192,192,21307,1,0,0:0:0:15:bell.wav
64,192,21476,1,0,0:0:0:15:bell.wav
448,192,21644,128,0,22993:0:0:0:0:
320,192,22993,1,0,0:0:0:40:LR_CymbalFSU.wav
64,192,22993,1,0,0:0:0:40:LR4_Kick HrW BRF.wav
192,192,23161,1,0,0:0:0:0:
320,192,23330,1,0,0:0:0:70:LR_Drum EDge.wav
448,192,23498,1,0,0:0:0:0:
64,192,23667,1,0,0:0:0:50:LR_Drum Click.wav
448,192,23835,1,0,0:0:0:50:LR_Drum Click.wav
192,192,24004,1,0,0:0:0:70:LR_Tom Hit 3.wav
192,192,24341,1,0,0:0:0:70:LR_Drum EDge.wav
64,192,24678,1,0,0:0:0:70:LR_Drum EDge.wav
320,192,25015,1,0,0:0:0:50:LR_Drum Finish.wav
448,192,25015,1,0,0:0:0:70:LR_Drum Hit HAT.wav
192,192,25352,1,0,0:0:0:70:LR_Drum EDge.wav
64,192,25689,1,0,0:0:0:40:LR4_Kick HrW BRF.wav
448,192,25689,1,0,0:0:0:40:LR_CymbalFSU.wav
320,192,25858,1,0,0:0:0:0:
192,192,26026,1,0,0:0:0:70:LR_Drum EDge.wav
64,192,26195,1,0,0:0:0:0:
320,192,26363,1,0,0:0:0:50:LR_Drum Click.wav
192,192,26532,1,0,0:0:0:50:LR_Drum Click.wav
448,192,26700,1,0,0:0:0:70:LR_Tom Hit 3.wav
64,192,27037,1,0,0:0:0:70:LR_Drum EDge.wav
320,192,27375,1,0,0:0:0:50:LR_Drum Click.wav
64,192,27543,1,0,0:0:0:50:LR_Drum Click.wav
320,192,27712,1,0,0:0:0:70:LR_Tom Hit 3.wav
320,192,28049,1,0,0:0:0:70:LR_Drum EDge.wav
448,192,28386,1,0,0:0:0:70:LR_Drum Hit HAT.wav
64,192,28386,1,0,0:0:0:50:LR_Drum Finish.wav
192,192,28554,1,0,0:0:0:0:
320,192,28723,1,0,0:0:0:70:LR_Drum EDge.wav
448,192,28891,1,0,0:0:0:0:
64,192,29060,1,0,0:0:0:50:LR_Drum Click.wav
448,192,29228,1,0,0:0:0:50:LR_Drum Click.wav
192,192,29397,1,0,0:0:0:70:LR_Tom Hit 3.wav
192,192,29734,1,0,0:0:0:0:
448,192,30071,1,0,0:0:0:0:
320,192,30408,1,0,0:0:0:50:LR_Drum Finish.wav
64,192,30408,1,0,0:0:0:70:LR_Drum Hit HAT.wav
448,192,30745,1,0,0:0:0:70:LR_Drum EDge.wav
192,192,31082,1,0,0:0:0:40:LR4_Kick HrW BRF.wav
64,192,31082,1,0,0:0:0:40:LR_CymbalFSU.wav
320,192,31251,1,0,0:0:0:0:
192,192,31419,1,0,0:0:0:70:LR_Drum EDge.wav
64,192,31588,1,0,0:0:0:0:
448,192,31757,1,0,0:0:0:50:LR_Drum Click.wav
320,192,31925,1,0,0:0:0:50:LR_Drum Click.wav
192,192,32094,1,0,0:0:0:70:LR_Tom Hit 3.wav
192,192,32431,1,0,0:0:0:40:LR_Snare Fast.wav
64,192,32431,1,0,0:0:0:40:LR_CymbalFSU.wav
448,192,32599,1,0,0:0:0:40:LR_Snare Fast.wav
320,192,32599,1,0,0:0:0:40:LR_CymbalFSU.wav
192,192,32768,1,0,0:0:0:40:LR_Snare Fast.wav
64,192,32768,1,0,0:0:0:40:LR_CymbalFSU.wav
448,192,33105,1,0,0:0:0:40:LR_Snare Fast.wav
320,192,33105,1,0,0:0:0:40:LR_CymbalFSU.wav
64,192,33273,1,0,0:0:0:40:LR_Snare Fast.wav
192,192,33273,1,0,0:0:0:40:LR_CymbalFSU.wav
448,192,33442,1,0,0:0:0:40:LR_CymbalFSU.wav
320,192,33442,1,0,0:0:0:40:LR_Snare Fast.wav
448,192,33779,1,0,0:0:0:40:LR4_Kick HrW BRF.wav
64,192,33779,1,0,0:0:0:40:LR_CymbalFSU.wav
192,192,33948,1,0,0:0:0:0:
320,192,34116,1,0,0:0:0:70:LR_Drum EDge.wav
448,192,34285,1,0,0:0:0:0:
192,192,34453,1,0,0:0:0:50:LR_Drum Click.wav
64,192,34622,1,0,0:0:0:50:LR_Drum Click.wav
320,192,34790,1,0,0:0:0:70:LR_Tom Hit 3.wav
64,192,35127,1,0,0:0:0:70:LR_Drum EDge.wav
448,192,35464,1,0,0:0:0:0:
192,192,35802,1,0,0:0:0:50:LR_Drum Click.wav
64,192,35802,1,0,0:0:0:0:
448,192,35970,1,0,0:0:0:0:
320,192,36139,1,0,0:0:0:70:LR_Tom Hit 3.wav
448,192,36476,1,0,0:0:0:70:LR_Drum Hit HAT.wav
64,192,36476,1,0,0:0:0:50:LR_Drum Finish.wav
192,192,36644,1,0,0:0:0:0:
320,192,36813,1,0,0:0:0:70:LR_Drum EDge.wav
448,192,36981,1,0,0:0:0:0:
64,192,37150,1,0,0:0:0:50:LR_Drum Click.wav
448,192,37318,1,0,0:0:0:50:LR_Drum Click.wav
192,192,37487,1,0,0:0:0:70:LR_Tom Hit 3.wav
448,192,37824,1,0,0:0:0:70:LR_Drum EDge.wav
192,192,38161,1,0,0:0:0:50:LR_Drum Click.wav
448,192,38330,1,0,0:0:0:50:LR_Drum Click.wav
192,192,38498,1,0,0:0:0:70:LR_Tom Hit 3.wav
64,192,38835,1,0,0:0:0:70:LR_Drum EDge.wav
448,192,39172,1,0,0:0:0:40:LR_CymbalFSU.wav
320,192,39172,1,0,0:0:0:40:LR4_Kick HrW BRF.wav
64,192,39341,1,0,0:0:0:0:
192,192,39509,1,0,0:0:0:70:LR_Drum EDge.wav
320,192,39678,1,0,0:0:0:0:
64,192,39846,1,0,0:0:0:50:LR_Drum Click.wav
448,192,40015,1,0,0:0:0:50:LR_Drum Click.wav
192,192,40184,1,0,0:0:0:70:LR_Tom Hit 3.wav
320,192,40521,1,0,0:0:0:0:
64,192,40858,1,0,0:0:0:0:
448,192,41195,1,0,0:0:0:70:LR_Drum Hit HAT.wav
320,192,41195,1,0,0:0:0:50:LR_Drum Finish.wav
192,192,41532,1,0,0:0:0:0:
448,192,41869,1,0,0:0:0:40:LR4_Kick HrW BRF.wav
64,192,41869,1,0,0:0:0:40:LR_CymbalFSU.wav
320,192,42037,1,0,0:0:0:0:
192,192,42206,1,0,0:0:0:70:LR_Drum EDge.wav
64,192,42375,1,0,0:0:0:0:
320,192,42543,1,0,0:0:0:50:LR_Drum Click.wav
64,192,42712,1,0,0:0:0:50:LR_Drum Click.wav
320,192,42880,1,0,0:0:0:70:LR_Tom Hit 3.wav
64,192,43217,1,0,0:0:0:50:LR_Drum Click.wav
192,192,43386,1,0,0:0:0:50:LR_Drum Click.wav
448,192,43554,1,0,0:0:0:70:LR_Tom Hit 3.wav
448,192,43891,1,0,0:0:0:50:LR_Drum Click.wav
320,192,44060,1,0,0:0:0:50:LR_Drum Click.wav
64,192,44228,1,0,0:0:0:70:LR_Tom Hit 3.wav
448,192,44566,1,0,0:0:0:50:LR_Drum Finish.wav
192,192,44566,1,0,0:0:0:40:LR4_Kick HrW BRF.wav
320,192,47262,1,0,0:0:0:40:LR4_Kick HrW BRF.wav
448,192,47262,1,0,0:0:0:0:
64,192,47768,1,0,0:0:0:40:LR4_Kick HrW BRF.wav
192,192,47768,1,0,0:0:0:0:
192,192,48273,1,0,0:0:0:40:LR4_Kick HrW BRF.wav
64,192,48273,1,0,0:0:0:0:
448,192,48611,1,0,0:0:0:50:LR3_BassFRT FSQP.wav
64,192,48779,1,0,0:0:0:50:LR3_BassFRT FSQP.wav
448,192,48948,1,0,0:0:0:50:LR3_BassFRT FSQP.wav
64,192,49116,1,0,0:0:0:50:LR3_BassFRT FSQP.wav
320,192,49285,1,0,0:0:0:40:LR4_SnareKKF.wav
192,192,49285,1,0,0:0:0:0:
448,192,49453,1,0,0:0:0:70:LR_Tom Hit.wav
320,192,49622,1,0,0:0:0:70:LR_Tom Hit 2.wav
192,192,49790,1,0,0:0:0:70:LR_Tom Hit 3.wav
64,192,49959,1,0,0:0:0:50:LR4_Kick HrW BRF.wav
448,192,49959,1,0,0:0:0:0:
448,192,50464,1,0,0:0:0:40:LR4_Kick HrW BRF.wav
192,192,50464,1,0,0:0:0:0:
192,192,50970,1,0,0:0:0:40:LR4_Kick HrW BRF.wav
448,192,50970,1,0,0:0:0:0:
64,192,51307,1,0,0:0:0:70:LR_Tom Hit 3.wav
192,192,51476,1,0,0:0:0:70:LR_Tom Hit 2.wav
448,192,51644,1,0,0:0:0:70:LR_Tom Hit.wav
64,192,51813,1,0,0:0:0:40:LR4_Kick HrW BRF.wav
192,192,51897,1,0,0:0:0:40:LR4_Kick HrW BRF.wav
448,192,51981,128,0,52655:0:0:0:40:LR4_SnareKKF.wav
320,192,51981,1,0,0:0:0:0:
192,192,52655,1,0,0:0:0:40:LR4_Kick HrW BRF.wav
64,192,52993,128,0,53330:0:0:0:0:
448,192,53330,1,0,0:0:0:40:LR4_SnareKKF.wav
192,192,53498,1,0,0:0:0:40:LR4_Kick HrW BRF.wav
320,192,53667,1,0,0:0:0:40:LR4_Kick HrW BRF.wav
64,192,53835,1,0,0:0:0:40:LR4_Kick HrW BRF.wav
448,192,54341,1,0,0:0:0:40:LR4_SnareKKF.wav
320,192,54341,1,0,0:0:0:0:
64,192,54678,1,0,0:0:0:70:LR_Tom Hit.wav
448,192,54846,1,0,0:0:0:40:LR4_Kick HrW BRF.wav
320,192,54931,1,0,0:0:0:40:LR4_Kick HrW BRF.wav
192,192,55015,1,0,0:0:0:40:LR4_SnareKKF.wav
64,192,55015,1,0,0:0:0:0:
320,192,55352,1,0,0:0:0:50:LR_Snare Fast.wav
448,192,55352,1,0,0:0:0:0:
320,192,55689,1,0,0:0:0:50:LR_Snare Fast.wav
448,192,55689,1,0,0:0:0:0:
192,192,56026,1,0,0:0:0:40:LR4_SnareKKF.wav
64,192,56026,1,0,0:0:0:0:
448,192,56195,1,0,0:0:0:50:LR_Snare Fast.wav
192,192,56532,1,0,0:0:0:40:LR4_Kick HrW BRF.wav
64,192,56532,1,0,0:0:0:0:
320,192,56700,1,0,0:0:0:50:LR_Snare Fast.wav
320,192,56953,1,0,0:0:0:50:LR_Snare Fast.wav
64,192,57206,1,0,0:0:0:50:LR_Snare Fast.wav
448,192,57375,1,0,0:0:0:70:LR_DS - Snare.wav
192,192,57543,1,0,0:0:0:70:LR_Tom Hit 3.wav
64,192,57712,128,0,58049:0:0:0:70:LR_Tom Hit 2.wav
448,192,58049,1,0,0:0:0:40:LR4_SnareKKF.wav
320,192,58049,1,0,0:0:0:0:
192,192,58386,1,0,0:0:0:50:LR_Snare Fast.wav
64,192,58386,1,0,0:0:0:0:
448,192,58554,1,0,0:0:0:40:LR4_Kick HrW BRF.wav
64,192,58891,1,0,0:0:0:50:LR_Snare Fast.wav
192,192,58891,1,0,0:0:0:0:
448,192,59060,1,0,0:0:0:40:LR4_Kick HrW BRF.wav
320,192,59397,1,0,0:0:0:0:
64,192,59903,1,0,0:0:0:40:LR_Snare Fast.wav
192,192,59987,1,0,0:0:0:40:LR_Snare Fast.wav
448,192,60071,1,0,0:0:0:40:LR4_SnareKKF.wav
320,192,60071,1,0,0:0:0:0:
64,192,60324,1,0,0:0:0:50:LR_Snare Fast.wav
192,192,60324,1,0,0:0:0:0:
448,192,60577,1,0,0:0:0:50:LR_Snare Fast.wav
320,192,60577,1,0,0:0:0:0:
192,192,60745,1,0,0:0:0:50:LR_Snare Fast.wav
64,192,61082,128,0,61419:0:0:0:70:LR_Drum EDge.wav
192,192,61419,1,0,0:0:0:50:LR_Snare Fast.wav
320,192,61588,1,0,0:0:0:50:LR_Drum Click.wav
448,192,61757,1,0,0:0:0:70:LR_DS - Snare.wav
192,192,61925,1,0,0:0:0:50:LR_Drum Click.wav
192,192,62262,1,0,0:0:0:50:LR_Drum Click.wav
64,192,62599,1,0,0:0:0:0:
320,192,62768,1,0,0:0:0:40:LR4_SnareKKF.wav
192,192,62768,1,0,0:0:0:0:
448,192,62936,1,0,0:0:0:70:LR_Tom Hit 2.wav
192,192,63105,1,0,0:0:0:70:LR_Tom Hit.wav
64,192,63105,1,0,0:0:0:0:
448,192,63442,1,0,0:0:0:40:LR4_SnareKKF.wav
320,192,63611,1,0,0:0:0:0:
64,192,63779,1,0,0:0:0:50:LR_Snare Fast.wav
192,192,63779,1,0,0:0:0:0:
448,192,63948,1,0,0:0:0:40:LR4_Kick HrW BRF.wav
320,192,64285,1,0,0:0:0:40:LR4_SnareKKF.wav
64,192,64285,1,0,0:0:0:0:
192,192,64622,1,0,0:0:0:50:LR_Snare Fast.wav
64,192,64959,1,0,0:0:0:70:LR_Drum Click.wav
448,192,65127,1,0,0:0:0:50:LR_Snare Fast.wav
320,192,65127,1,0,0:0:0:0:
192,192,65296,1,0,0:0:0:70:LR_DS - Snare.wav
448,192,65633,1,0,0:0:0:70:LR_DS - Snare.wav
192,192,65802,1,0,0:0:0:50:LR_Snare Fast.wav
64,192,65802,1,0,0:0:0:0:
448,192,65970,1,0,0:0:0:50:LR_Snare Fast.wav
320,192,65970,1,0,0:0:0:0:
192,192,66139,1,0,0:0:0:50:LR_Snare Fast.wav
64,192,66139,1,0,0:0:0:0:
448,192,66476,1,0,0:0:0:50:LR_Snare Fast.wav
64,192,66476,1,0,0:0:0:0:
192,192,66813,1,0,0:0:0:50:LR_Snare Fast.wav
448,192,66813,1,0,0:0:0:0:
192,192,67150,1,0,0:0:0:50:LR_Snare Fast.wav
320,192,67150,1,0,0:0:0:0:
64,192,67487,1,0,0:0:0:50:LR_Snare Fast.wav
448,192,67487,1,0,0:0:0:0:
192,192,67824,1,0,0:0:0:50:LR_Snare Fast.wav
448,192,67824,1,0,0:0:0:0:
192,192,68161,1,0,0:0:0:50:LR_Snare Fast.wav
64,192,68161,1,0,0:0:0:0:
320,192,68498,1,0,0:0:0:50:LR_Snare Fast.wav
64,192,68498,1,0,0:0:0:0:
448,192,68835,1,0,0:0:0:50:LR_Snare Fast.wav
192,192,68835,1,0,0:0:0:0:
320,192,69004,1,0,0:0:0:40:LR4_Kick HrW BRF.wav
64,192,69172,1,0,0:0:0:50:LR_Snare Fast.wav
192,192,69172,1,0,0:0:0:0:
320,192,69341,1,0,0:0:0:40:LR4_Kick HrW BRF.wav
64,192,69509,1,0,0:0:0:50:LR_Snare Fast.wav
448,192,69509,1,0,0:0:0:0:
192,192,69678,1,0,0:0:0:40:LR4_Kick HrW BRF.wav
320,192,69846,1,0,0:0:0:50:LR_Snare Fast.wav
448,192,69846,1,0,0:0:0:0:
192,192,70015,1,0,0:0:0:40:LR4_Kick HrW BRF.wav
64,192,70184,128,0,70521:0:0:0:50:LR_Snare Fast.wav
448,192,70521,128,0,70858:0:0:0:50:LR_Snare Fast.wav
192,192,70858,128,0,71195:0:0:0:50:LR_Snare Fast.wav
320,192,71195,128,0,71532:0:0:0:50:LR_Snare Fast.wav
448,192,71532,1,0,0:0:0:40:LR4_Kick HrW BRF.wav
64,192,71532,1,0,0:0:0:70:LR_Drum Finish.wav
64,192,76082,1,0,0:0:0:40:LR_Snare Fast.wav
192,192,76167,1,0,0:0:0:40:LR4_Kick HrW BRF.wav
320,192,76251,1,0,0:0:0:50:LR_Snare Fast.wav
448,192,76251,1,0,0:0:0:0:
320,192,76504,1,0,0:0:0:50:LR_Snare Fast.wav
448,192,76504,1,0,0:0:0:0:
320,192,76757,1,0,0:0:0:50:LR_Snare Fast.wav
448,192,76757,1,0,0:0:0:0:
192,192,76925,1,0,0:0:0:40:LR4_Kick HrW BRF.wav
64,192,77262,1,0,0:0:0:70:LR_Drum Hit HAT.wav
448,192,77262,1,0,0:0:0:40:LR4_SnareKKF.wav
320,192,77431,1,0,0:0:0:70:LR_Drum Hit HAT.wav
192,192,77599,1,0,0:0:0:70:LR_Drum Hit HAT.wav
64,192,77768,1,0,0:0:0:70:LR_Drum Hit HAT.wav
192,192,77936,1,0,0:0:0:50:LR_Snare Fast.wav
448,192,77936,1,0,0:0:0:0:
64,192,78273,1,0,0:0:0:40:LR4_Kick HrW BRF.wav
192,192,78611,1,0,0:0:0:40:LR4_SnareKKF.wav
448,192,78611,1,0,0:0:0:0:
320,192,78779,1,0,0:0:0:0:
192,192,79116,1,0,0:0:0:40:LR4_Kick HrW BRF.wav
64,192,79285,1,0,0:0:0:40:LR4_SnareKKF.wav
320,192,79285,1,0,0:0:0:0:
320,192,79622,1,0,0:0:0:40:LR4_Kick HrW BRF.wav
448,192,79622,128,0,79959:0:0:0:0:
64,192,79959,1,0,0:0:0:40:LR4_SnareKKF.wav
448,192,80127,128,0,80464:0:0:0:0:
64,192,80464,1,0,0:0:0:40:LR4_Kick HrW BRF.wav
320,192,80633,1,0,0:0:0:40:LR4_SnareKKF.wav
448,192,80633,128,0,80970:0:0:0:0:
192,192,80970,1,0,0:0:0:40:LR4_Kick HrW BRF.wav
64,192,81307,1,0,0:0:0:40:LR4_SnareKKF.wav
448,192,81307,1,0,0:0:0:0:
320,192,81644,128,0,81813:0:0:0:0:
192,192,81813,1,0,0:0:0:40:LR4_Kick HrW BRF.wav
64,192,81981,1,0,0:0:0:40:LR4_SnareKKF.wav
448,192,81981,1,0,0:0:0:0:
192,192,82318,1,0,0:0:0:40:LR4_Kick HrW BRF.wav
448,192,82655,1,0,0:0:0:40:LR4_SnareKKF.wav
320,192,82655,128,0,82993:0:0:0:0:
64,192,82993,1,0,0:0:0:0:
192,192,83161,1,0,0:0:0:40:LR4_Kick HrW BRF.wav
448,192,83330,1,0,0:0:0:40:LR4_SnareKKF.wav
320,192,83330,1,0,0:0:0:0:
192,192,83667,1,0,0:0:0:40:LR4_Kick HrW BRF.wav
64,192,84004,1,0,0:0:0:70:LR_Drum Hit HAT.wav
448,192,84004,1,0,0:0:0:0:
320,192,84172,1,0,0:0:0:70:LR_Drum Hit HAT.wav
64,192,84341,1,0,0:0:0:70:LR_Drum Hit HAT.wav
192,192,84509,1,0,0:0:0:70:LR_Drum Hit HAT.wav
448,192,84678,1,0,0:0:0:40:LR4_SnareKKF.wav
320,192,84678,1,0,0:0:0:0:
192,192,85015,1,0,0:0:0:40:LR4_Kick HrW BRF.wav
320,192,85352,1,0,0:0:0:70:LR_Drum Hit HAT.wav
448,192,85352,1,0,0:0:0:0:
192,192,85521,1,0,0:0:0:70:LR_Drum Hit HAT.wav
192,192,85689,1,0,0:0:0:70:LR_Drum Hit HAT.wav
64,192,85858,1,0,0:0:0:70:LR_Drum Hit HAT.wav
320,192,86026,1,0,0:0:0:40:LR4_SnareKKF.wav
448,192,86026,1,0,0:0:0:0:
64,192,86363,128,0,86700:0:0:0:40:LR4_Kick HrW BRF.wav
192,192,86700,1,0,0:0:0:70:LR_Drum Hit HAT.wav
448,192,86700,1,0,0:0:0:0:
64,192,86869,128,0,87206:0:0:0:70:LR_Drum Hit HAT.wav
192,192,87206,1,0,0:0:0:70:LR_Drum Hit HAT.wav
448,192,87375,1,0,0:0:0:40:LR4_SnareKKF.wav
320,192,87375,1,0,0:0:0:0:
192,192,87712,1,0,0:0:0:40:LR4_Kick HrW BRF.wav
320,192,87712,1,0,0:0:0:0:
64,192,88049,1,0,0:0:0:40:LR4_SnareKKF.wav
448,192,88049,1,0,0:0:0:0:
192,192,88386,1,0,0:0:0:70:bell.wav
320,192,88554,1,0,0:0:0:40:LR4_Kick HrW BRF.wav
64,192,88723,1,0,0:0:0:40:LR4_SnareKKF.wav
448,192,88723,1,0,0:0:0:0:
320,192,89060,1,0,0:0:0:40:LR4_Kick HrW BRF.wav
192,192,89397,1,0,0:0:0:40:LR4_SnareKKF.wav
448,192,89397,1,0,0:0:0:0:
64,192,89566,1,0,0:0:0:0:
448,192,89903,1,0,0:0:0:40:LR4_Kick HrW BRF.wav
64,192,90071,1,0,0:0:0:40:LR4_SnareKKF.wav
320,192,90071,1,0,0:0:0:0:
448,192,90408,128,0,90745:0:0:0:40:LR4_Kick HrW BRF.wav
64,192,90745,1,0,0:0:0:40:LR4_SnareKKF.wav
192,192,90745,1,0,0:0:0:0:
448,192,90914,128,0,91251:0:0:0:0:
64,192,91251,1,0,0:0:0:40:LR4_Kick HrW BRF.wav
320,192,91419,1,0,0:0:0:40:LR4_SnareKKF.wav
448,192,91419,128,0,91757:0:0:0:0:
64,192,91757,1,0,0:0:0:40:LR4_Kick HrW BRF.wav
192,192,92094,1,0,0:0:0:40:LR4_SnareKKF.wav
448,192,92094,1,0,0:0:0:0:
320,192,92431,1,0,0:0:0:70:bell.wav
192,192,92599,1,0,0:0:0:40:LR4_Kick HrW BRF.wav
64,192,92768,1,0,0:0:0:40:LR4_SnareKKF.wav
448,192,92768,1,0,0:0:0:0:
192,192,93105,1,0,0:0:0:40:LR4_Kick HrW BRF.wav
64,192,93442,128,0,93779:0:0:0:40:LR4_SnareKKF.wav
448,192,93442,1,0,0:0:0:0:
192,192,93779,1,0,0:0:0:0:
320,192,93948,1,0,0:0:0:40:LR4_Kick HrW BRF.wav
448,192,94116,1,0,0:0:0:40:LR4_SnareKKF.wav
64,192,94116,1,0,0:0:0:0:
192,192,94453,1,0,0:0:0:40:LR4_Kick HrW BRF.wav
320,192,94790,1,0,0:0:0:50:LR_Snare Fast.wav
448,192,94790,1,0,0:0:0:0:
64,192,94959,1,0,0:0:0:40:bell.wav
320,192,95127,1,0,0:0:0:40:bell.wav
192,192,95296,1,0,0:0:0:50:LR_Snare Fast.wav
64,192,95464,1,0,0:0:0:50:LR_Snare Fast.wav
448,192,95464,1,0,0:0:0:0:
192,192,95802,1,0,0:0:0:40:LR4_Kick HrW BRF.wav
64,192,96139,1,0,0:0:0:50:LR_Snare Fast.wav
448,192,96139,1,0,0:0:0:0:
320,192,96307,1,0,0:0:0:40:LR_Snare Fast.wav
192,192,96476,1,0,0:0:0:40:LR4_SnareKKF.wav
192,192,96644,1,0,0:0:0:40:LR4_Kick HrW BRF.wav
64,192,96813,1,0,0:0:0:40:LR4_SnareKKF.wav
448,192,96813,1,0,0:0:0:0:
320,192,96981,1,0,0:0:0:70:LR_Drum Hit HAT.wav
64,192,97150,128,0,97487:0:0:0:70:bell.wav
192,192,97487,128,0,97824:0:0:0:70:bell.wav
320,192,97824,128,0,98161:0:0:0:70:bell.wav
448,192,98161,128,0,98498:0:0:0:70:bell.wav
192,192,98498,1,0,0:0:0:40:LR4_Kick HrW BRF.wav
64,192,98498,128,0,101195:0:0:0:0:
320,192,98835,1,0,0:0:0:40:LR_Drum Rim Fast.wav
192,192,99172,1,0,0:0:0:70:bell.wav
448,192,99509,1,0,0:0:0:50:LR_Drum EDge.wav
320,192,99846,1,0,0:0:0:40:LR4_Kick HrW BRF.wav
192,192,100184,1,0,0:0:0:40:LR_Drum Rim Fast.wav
448,192,100521,1,0,0:0:0:70:bell.wav
192,192,100858,1,0,0:0:0:50:LR_Drum EDge.wav
320,192,101195,128,0,103891:0:0:0:40:LR4_Kick HrW BRF.wav
448,192,101195,1,0,0:0:0:0:
192,192,101532,1,0,0:0:0:40:LR_Drum Rim Fast.wav
64,192,101869,1,0,0:0:0:70:bell.wav
448,192,102206,1,0,0:0:0:50:LR_Drum EDge.wav
64,192,102543,1,0,0:0:0:40:LR4_Kick HrW BRF.wav
192,192,102880,1,0,0:0:0:40:LR_Drum Rim Fast.wav
448,192,103217,1,0,0:0:0:70:bell.wav
64,192,103554,1,0,0:0:0:50:LR_Drum EDge.wav
192,192,103891,128,0,105914:0:0:0:40:LR4_Kick HrW BRF.wav
448,192,103891,1,0,0:0:0:0:
320,192,104228,1,0,0:0:0:40:LR_Drum Rim Fast.wav
64,192,104566,1,0,0:0:0:70:bell.wav
448,192,104903,1,0,0:0:0:50:LR_Drum EDge.wav
64,192,105240,1,0,0:0:0:40:LR4_Kick HrW BRF.wav
320,192,105577,1,0,0:0:0:40:LR_Drum Rim Fast.wav
448,192,105914,128,0,106588:0:0:0:70:bell.wav
64,192,105914,1,0,0:0:0:0:
192,192,106251,1,0,0:0:0:50:LR_Drum EDge.wav
320,192,106588,128,0,107936:0:0:0:40:LR4_Kick HrW BRF.wav
64,192,106588,1,0,0:0:0:0:
192,192,106925,1,0,0:0:0:40:LR_Drum Rim Fast.wav
448,192,107262,1,0,0:0:0:70:bell.wav
192,192,107599,1,0,0:0:0:50:LR_Drum EDge.wav
448,192,107936,1,0,0:0:0:40:LR4_Kick HrW BRF.wav
64,192,107936,128,0,109285:0:0:0:0:
320,192,108273,1,0,0:0:0:40:LR_Drum Rim Fast.wav
192,192,108611,1,0,0:0:0:70:LR_Snare Fast.wav
448,192,108948,1,0,0:0:0:70:LR_Drum Click.wav
320,192,108948,1,0,0:0:0:0:
192,192,109285,1,0,0:0:0:40:LR4_Kick HrW BRF.wav
448,192,109285,1,0,0:0:0:0:
64,192,109622,1,0,0:0:0:40:LR4_SnareKKF.wav
320,192,109622,1,0,0:0:0:0:
64,192,110127,1,0,0:0:0:50:LR_Snare Fast.wav
192,192,110296,1,0,0:0:0:40:LR4_SnareKKF.wav
448,192,110296,1,0,0:0:0:0:
320,192,110633,1,0,0:0:0:40:LR4_Kick HrW BRF.wav
192,192,110970,1,0,0:0:0:40:LR4_SnareKKF.wav
64,192,110970,1,0,0:0:0:0:
448,192,111476,1,0,0:0:0:50:LR_Snare Fast.wav
64,192,111644,1,0,0:0:0:40:LR4_SnareKKF.wav
320,192,111644,1,0,0:0:0:0:
192,192,111981,1,0,0:0:0:40:LR4_Kick HrW BRF.wav
64,192,112318,1,0,0:0:0:40:LR4_SnareKKF.wav
448,192,112318,1,0,0:0:0:0:
448,192,112824,1,0,0:0:0:50:LR_Snare Fast.wav
64,192,112993,1,0,0:0:0:40:LR4_SnareKKF.wav
192,192,112993,1,0,0:0:0:0:
320,192,113330,1,0,0:0:0:40:LR4_Kick HrW BRF.wav
64,192,113667,1,0,0:0:0:40:LR4_SnareKKF.wav
448,192,113667,1,0,0:0:0:0:
64,192,114172,1,0,0:0:0:50:LR_Snare Fast.wav
192,192,114341,1,0,0:0:0:40:LR4_SnareKKF.wav
448,192,114341,1,0,0:0:0:0:
64,192,114678,1,0,0:0:0:40:LR4_Kick HrW BRF.wav
448,192,115015,1,0,0:0:0:40:LR4_SnareKKF.wav
320,192,115015,1,0,0:0:0:0:
192,192,115521,1,0,0:0:0:50:LR_Snare Fast.wav
64,192,115689,1,0,0:0:0:40:LR4_SnareKKF.wav
448,192,115689,1,0,0:0:0:0:
320,192,116026,1,0,0:0:0:40:LR4_Kick HrW BRF.wav
192,192,116363,1,0,0:0:0:40:LR4_SnareKKF.wav
448,192,116363,1,0,0:0:0:0:
320,192,116869,1,0,0:0:0:50:LR_Snare Fast.wav
64,192,117037,1,0,0:0:0:40:LR4_SnareKKF.wav
448,192,117037,1,0,0:0:0:0:
192,192,117375,1,0,0:0:0:40:LR4_Kick HrW BRF.wav
64,192,117712,1,0,0:0:0:40:LR4_SnareKKF.wav
320,192,117712,1,0,0:0:0:0:
448,192,118217,1,0,0:0:0:50:LR_Snare Fast.wav
64,192,118386,1,0,0:0:0:40:LR4_SnareKKF.wav
192,192,118386,1,0,0:0:0:0:
320,192,118723,1,0,0:0:0:40:LR4_Kick HrW BRF.wav
64,192,119060,1,0,0:0:0:40:LR4_SnareKKF.wav
448,192,119060,1,0,0:0:0:0:
192,192,119566,1,0,0:0:0:50:LR_Snare Fast.wav
320,192,119734,1,0,0:0:0:40:LR4_SnareKKF.wav
448,192,119734,1,0,0:0:0:0:
192,192,120071,1,0,0:0:0:10:bell.wav
448,192,120240,1,0,0:0:0:10:bell.wav
64,192,120408,1,0,0:0:0:10:bell.wav
320,192,120577,1,0,0:0:0:10:bell.wav
192,192,120745,1,0,0:0:0:10:bell.wav
64,192,120914,1,0,0:0:0:10:bell.wav
448,192,121082,1,0,0:0:0:10:bell.wav
320,192,121251,1,0,0:0:0:10:bell.wav
192,192,121419,1,0,0:0:0:10:bell.wav
320,192,121588,1,0,0:0:0:10:bell.wav
192,192,121757,1,0,0:0:0:10:bell.wav
64,192,121925,1,0,0:0:0:10:bell.wav
448,192,122094,1,0,0:0:0:10:bell.wav
192,192,122262,1,0,0:0:0:10:bell.wav
320,192,122431,1,0,0:0:0:10:bell.wav
64,192,122599,1,0,0:0:0:10:bell.wav
192,192,122768,1,0,0:0:0:10:bell.wav
448,192,122936,1,0,0:0:0:10:bell.wav
320,192,123105,1,0,0:0:0:10:bell.wav
192,192,123273,1,0,0:0:0:10:bell.wav
64,192,123442,1,0,0:0:0:10:bell.wav
320,192,123611,1,0,0:0:0:10:bell.wav
192,192,123779,1,0,0:0:0:10:bell.wav
64,192,123948,1,0,0:0:0:10:bell.wav
320,192,124116,1,0,0:0:0:10:bell.wav
192,192,124285,1,0,0:0:0:10:bell.wav
448,192,124453,1,0,0:0:0:10:bell.wav
320,192,124622,1,0,0:0:0:10:bell.wav
192,192,124790,1,0,0:0:0:10:bell.wav
64,192,124959,1,0,0:0:0:10:bell.wav
320,192,125127,1,0,0:0:0:10:bell.wav
192,192,125296,1,0,0:0:0:10:bell.wav
448,192,125464,1,0,0:0:0:10:bell.wav
320,192,125633,1,0,0:0:0:10:bell.wav
192,192,125802,1,0,0:0:0:10:bell.wav
320,192,125970,1,0,0:0:0:10:bell.wav
192,192,126139,1,0,0:0:0:10:bell.wav
64,192,126307,1,0,0:0:0:10:bell.wav
192,192,126476,1,0,0:0:0:10:bell.wav
448,192,126644,1,0,0:0:0:10:bell.wav
320,192,126813,1,0,0:0:0:10:bell.wav
192,192,126981,1,0,0:0:0:10:bell.wav
64,192,127150,1,0,0:0:0:10:bell.wav
192,192,127318,1,0,0:0:0:10:bell.wav
320,192,127487,1,0,0:0:0:10:bell.wav
448,192,127655,1,0,0:0:0:10:bell.wav
64,192,127824,1,0,0:0:0:10:bell.wav
192,192,127993,1,0,0:0:0:10:bell.wav
448,192,128161,1,0,0:0:0:10:bell.wav
320,192,128330,1,0,0:0:0:10:bell.wav
64,192,128498,1,0,0:0:0:10:bell.wav
192,192,128667,1,0,0:0:0:10:bell.wav
320,192,128835,1,0,0:0:0:10:bell.wav
192,192,129004,1,0,0:0:0:10:bell.wav
64,192,129172,1,0,0:0:0:10:bell.wav
448,192,129341,1,0,0:0:0:10:bell.wav
320,192,129509,1,0,0:0:0:10:bell.wav
192,192,129678,1,0,0:0:0:10:bell.wav
64,192,129846,1,0,0:0:0:10:bell.wav
192,192,130015,1,0,0:0:0:10:bell.wav
320,192,130184,1,0,0:0:0:10:bell.wav
448,192,130352,1,0,0:0:0:10:bell.wav
64,192,130521,1,0,0:0:0:10:bell.wav
192,192,130689,1,0,0:0:0:10:bell.wav
320,192,130858,1,0,0:0:0:50:LR_Snare Fast.wav
448,192,130858,1,0,0:0:0:0:
64,192,131195,1,0,0:0:0:50:LR_Snare Fast.wav
192,192,131195,1,0,0:0:0:0:
320,192,131532,1,0,0:0:0:50:LR_Snare Fast.wav
448,192,131532,1,0,0:0:0:0:
64,192,131869,1,0,0:0:0:50:LR_Snare Fast.wav
192,192,131869,1,0,0:0:0:0:
320,192,132206,1,0,0:0:0:50:LR_Snare Fast.wav
448,192,132206,1,0,0:0:0:0:
64,192,132543,1,0,0:0:0:50:LR_Snare Fast.wav
192,192,132543,1,0,0:0:0:0:
320,192,132880,1,0,0:0:0:50:LR_Snare Fast.wav
448,192,132880,1,0,0:0:0:0:
64,192,133217,1,0,0:0:0:50:LR_Snare Fast.wav
192,192,133217,1,0,0:0:0:0:
448,192,133386,1,0,0:0:0:40:LR4_Kick HrW BRF.wav
192,192,133554,1,0,0:0:0:50:LR_Snare Fast.wav
64,192,133554,1,0,0:0:0:0:
448,192,133891,1,0,0:0:0:50:LR_Snare Fast.wav
320,192,133891,1,0,0:0:0:0:
192,192,134228,1,0,0:0:0:50:LR_Snare Fast.wav
64,192,134228,1,0,0:0:0:0:
448,192,134566,1,0,0:0:0:50:LR_Snare Fast.wav
320,192,134566,1,0,0:0:0:0:
192,192,134903,1,0,0:0:0:50:LR_Snare Fast.wav
64,192,134903,1,0,0:0:0:0:
448,192,135240,1,0,0:0:0:50:LR_Snare Fast.wav
320,192,135240,1,0,0:0:0:0:
192,192,135577,1,0,0:0:0:50:LR_Snare Fast.wav
64,192,135577,1,0,0:0:0:0:
448,192,135914,1,0,0:0:0:50:LR_Snare Fast.wav
320,192,135914,1,0,0:0:0:0:
192,192,136082,1,0,0:0:0:40:LR4_Kick HrW BRF.wav
64,192,136251,1,0,0:0:0:50:LR_Snare Fast.wav
448,192,136251,1,0,0:0:0:0:
320,192,136419,1,0,0:0:0:50:LR_Snare Fast.wav
192,192,136588,1,0,0:0:0:50:LR_Snare Fast.wav
64,192,136757,1,0,0:0:0:50:LR_Snare Fast.wav
320,192,136925,1,0,0:0:0:40:LR4_Kick HrW BRF.wav
448,192,136925,1,0,0:0:0:0:
192,192,137094,1,0,0:0:0:50:LR_Snare Fast.wav
320,192,137262,1,0,0:0:0:50:LR_Snare Fast.wav
448,192,137431,1,0,0:0:0:50:LR_Snare Fast.wav
192,192,137599,1,0,0:0:0:40:LR4_Kick HrW BRF.wav
64,192,137599,1,0,0:0:0:0:
320,192,137768,1,0,0:0:0:50:LR_Snare Fast.wav
448,192,137936,1,0,0:0:0:50:LR_Snare Fast.wav
320,192,138105,1,0,0:0:0:50:LR_Snare Fast.wav
64,192,138273,1,0,0:0:0:40:LR4_Kick HrW BRF.wav
192,192,138273,1,0,0:0:0:0:
448,192,138442,1,0,0:0:0:50:LR_Snare Fast.wav
320,192,138611,1,0,0:0:0:50:LR_Snare Fast.wav
448,192,138779,1,0,0:0:0:50:LR_Snare Fast.wav
64,192,138948,1,0,0:0:0:50:LR_Snare Fast.wav
192,192,138948,1,0,0:0:0:0:
448,192,139060,1,0,0:0:0:50:LR_Snare Fast.wav
320,192,139172,1,0,0:0:0:50:LR_Snare Fast.wav
64,192,139285,1,0,0:0:0:50:LR_Snare Fast.wav
192,192,139397,1,0,0:0:0:50:LR_Snare Fast.wav
448,192,139509,1,0,0:0:0:50:LR_Snare Fast.wav
320,192,139622,1,0,0:0:0:50:LR_Snare Fast.wav
192,192,139734,1,0,0:0:0:50:LR_Snare Fast.wav
64,192,139846,1,0,0:0:0:50:LR_Snare Fast.wav
320,192,139959,1,0,0:0:0:50:LR_Snare Fast.wav
448,192,140071,1,0,0:0:0:50:LR_Snare Fast.wav
192,192,140184,1,0,0:0:0:50:LR_Snare Fast.wav
64,192,140296,1,0,0:0:0:40:LR4_Kick HrW BRF.wav
448,192,140296,1,0,0:0:0:70:LR_Drum Finish.wav
320,192,141644,1,0,0:0:0:40:LR4_Kick HrW BRF.wav
448,192,141644,128,0,142318:0:0:0:0:
320,192,142318,1,0,0:0:0:40:LR4_SnareKKF.wav
192,192,142318,1,0,0:0:0:0:
64,192,142655,128,0,143667:0:0:0:40:LR4_Kick HrW BRF.wav
448,192,142655,1,0,0:0:0:0:
320,192,143667,1,0,0:0:0:40:LR4_SnareKKF.wav
192,192,143667,1,0,0:0:0:0:
448,192,143891,1,0,0:0:0:40:bell.wav
320,192,144004,1,0,0:0:0:40:bell.wav
64,192,144214,1,0,0:0:0:40:bell.wav
192,192,144341,128,0,145015:0:0:0:40:LR4_Kick HrW BRF.wav
448,192,145015,1,0,0:0:0:40:LR4_SnareKKF.wav
320,192,145015,1,0,0:0:0:0:
64,192,145184,1,0,0:0:0:40:LR4_Kick HrW BRF.wav
192,192,145352,1,0,0:0:0:40:LR4_Kick HrW BRF.wav
448,192,145521,128,0,145689:0:0:0:50:LR_Snare Fast.wav
64,192,145858,128,0,146026:0:0:0:50:LR_Snare Fast.wav
192,192,146026,1,0,0:0:0:0:
448,192,146195,1,0,0:0:0:50:LR_Snare Fast.wav
320,192,146363,1,0,0:0:0:0:
64,192,146363,1,0,0:0:0:0:
448,192,146700,128,0,147037:0:0:0:0:
64,192,147037,128,0,147375:0:0:0:40:LR4_Kick HrW BRF.wav
320,192,147037,1,0,0:0:0:0:
192,192,147375,128,0,147712:0:0:0:0:
320,192,147712,128,0,147880:0:0:0:40:LR4_SnareKKF.wav
448,192,147880,128,0,148049:0:0:0:0:
64,192,148049,128,0,148723:0:0:0:40:LR4_Kick HrW BRF.wav
192,192,148723,128,0,149060:0:0:0:40:LR4_Kick HrW BRF.wav
448,192,149060,1,0,0:0:0:50:LR_Snare Fast.wav
320,192,149285,1,0,0:0:0:40:bell.wav
192,192,149397,1,0,0:0:0:60:bell.wav
448,192,149622,1,0,0:0:0:40:bell.wav
64,192,149734,128,0,150071:0:0:0:50:LR_Snare Fast.wav
448,192,150071,128,0,150408:0:0:0:50:LR_Snare Fast.wav
320,192,150408,1,0,0:0:0:40:LR4_SnareKKF.wav
192,192,150745,128,0,151082:0:0:0:40:LR4_Kick HrW BRF.wav
64,192,150745,128,0,151082:0:0:0:0:
320,192,151251,128,0,151757:0:0:0:40:LR4_Kick HrW BRF.wav
448,192,151419,128,0,151757:0:0:0:0:
64,192,151757,1,0,0:0:0:40:LR4_SnareKKF.wav
192,192,151757,1,0,0:0:0:0:
448,192,151925,128,0,152431:0:0:0:0:
320,192,152431,128,0,153105:0:0:0:40:LR4_Kick HrW BRF.wav
192,192,152431,128,0,153105:0:0:0:0:
448,192,153105,1,0,0:0:0:40:LR4_SnareKKF.wav
64,192,153105,1,0,0:0:0:0:
320,192,153442,128,0,153779:0:0:0:50:LR_Snare Fast.wav
192,192,153442,128,0,153779:0:0:0:0:
320,192,153948,128,0,154453:0:0:0:50:LR_Snare Fast.wav
192,192,153948,128,0,154453:0:0:0:0:
448,192,154453,128,0,155127:0:0:0:40:LR4_SnareKKF.wav
64,192,154453,1,0,0:0:0:0:
320,192,155127,1,0,0:0:0:40:LR4_Kick HrW BRF.wav
64,192,155127,128,0,155802:0:0:0:0:
448,192,155802,1,0,0:0:0:40:LR4_SnareKKF.wav
192,192,155802,1,0,0:0:0:0:
320,192,156139,1,0,0:0:0:50:LR_Snare Fast.wav
192,192,156139,128,0,157150:0:0:0:0:
64,192,156813,1,0,0:0:0:40:LR4_Kick HrW BRF.wav
448,192,157150,1,0,0:0:0:40:LR4_SnareKKF.wav
320,192,157150,1,0,0:0:0:0:
64,192,157375,1,0,0:0:0:40:bell.wav
192,192,157487,1,0,0:0:0:40:bell.wav
448,192,157712,1,0,0:0:0:0:
64,192,157824,128,0,158498:0:0:0:40:LR4_Kick HrW BRF.wav
192,192,158498,128,0,158667:0:0:0:40:LR4_SnareKKF.wav
320,192,158667,128,0,158835:0:0:0:40:LR4_SnareKKF.wav
448,192,158835,128,0,159846:0:0:0:40:LR4_Kick HrW BRF.wav
192,192,159509,1,0,0:0:0:50:LR_Snare Fast.wav
320,192,159846,1,0,0:0:0:40:LR4_SnareKKF.wav
64,192,159846,1,0,0:0:0:0:
64,192,160184,128,0,160521:0:0:0:0:
320,192,160521,1,0,0:0:0:50:LR_Snare Fast.wav
192,192,160521,1,0,0:0:0:0:
448,192,160858,128,0,161195:0:0:0:0:
192,192,161195,1,0,0:0:0:50:LR_Snare Fast.wav
64,192,161195,1,0,0:0:0:0:
64,192,161532,128,0,161869:0:0:0:0:
320,192,161869,1,0,0:0:0:50:LR_Snare Fast.wav
192,192,161869,1,0,0:0:0:0:
448,192,162206,128,0,162543:0:0:0:0:
64,192,162543,128,0,163217:0:0:0:40:LR4_Kick HrW BRF.wav
320,192,162543,1,0,0:0:0:0:
192,192,162712,128,0,163217:0:0:0:40:bell.wav
320,192,163217,1,0,0:0:0:40:LR4_CyCV2.wav
448,192,163217,1,0,0:0:0:70:LR_Drum EDge.wav
64,192,165577,1,0,0:0:0:50:LR_Snare Fast.wav
448,192,165577,1,0,0:0:0:0:
448,192,165914,1,0,0:0:0:50:LR_Snare Fast.wav
192,192,165914,1,0,0:0:0:0:
448,192,166251,1,0,0:0:0:40:LR4_SnareKKF.wav
64,192,166251,1,0,0:0:0:0:
320,192,166419,1,0,0:0:0:50:LR_Snare Fast.wav
448,192,166757,1,0,0:0:0:40:LR4_SnareKKF.wav
64,192,166757,1,0,0:0:0:0:
192,192,167094,1,0,0:0:0:70:LR_Drum Click.wav
320,192,167431,1,0,0:0:0:70:LR_Drum Click.wav
448,192,167599,1,0,0:0:0:0:
64,192,167599,1,0,0:0:0:40:LR4_SnareKKF.wav
192,192,167768,1,0,0:0:0:50:LR_Snare Fast.wav
320,192,168105,1,0,0:0:0:50:LR_Snare Fast.wav
64,192,168273,1,0,0:0:0:40:LR4_SnareKKF.wav
448,192,168273,1,0,0:0:0:0:
64,192,168611,1,0,0:0:0:50:LR_Snare Fast.wav
192,192,168779,1,0,0:0:0:50:LR_Snare Fast.wav
448,192,168948,1,0,0:0:0:40:LR4_SnareKKF.wav
320,192,168948,1,0,0:0:0:0:
192,192,169285,1,0,0:0:0:50:LR_Snare Fast.wav
448,192,169453,1,0,0:0:0:50:LR_Snare Fast.wav
320,192,169790,1,0,0:0:0:0:
64,192,169790,1,0,0:0:0:40:LR4_SnareKKF.wav
448,192,170127,1,0,0:0:0:50:LR_Snare Fast.wav
64,192,170296,1,0,0:0:0:40:LR4_SnareKKF.wav
320,192,170296,1,0,0:0:0:0:
192,192,170464,1,0,0:0:0:50:LR_Snare Fast.wav
448,192,170633,1,0,0:0:0:50:LR_Snare Fast.wav
64,192,170802,1,0,0:0:0:50:LR_Snare Fast.wav
448,192,170970,1,0,0:0:0:40:LR4_SnareKKF.wav
192,192,170970,1,0,0:0:0:0:
320,192,171139,1,0,0:0:0:0:
64,192,171307,1,0,0:0:0:50:LR_Snare Fast.wav
448,192,171644,1,0,0:0:0:40:LR4_SnareKKF.wav
192,192,171644,1,0,0:0:0:0:
64,192,171813,1,0,0:0:0:50:LR_Snare Fast.wav
320,192,172150,1,0,0:0:0:40:LR4_SnareKKF.wav
64,192,172150,1,0,0:0:0:0:
192,192,172487,1,0,0:0:0:70:LR_Drum Click.wav
448,192,172824,1,0,0:0:0:70:LR_Drum Click.wav
320,192,172993,1,0,0:0:0:0:
64,192,172993,1,0,0:0:0:40:LR4_SnareKKF.wav
192,192,173161,1,0,0:0:0:50:LR_Snare Fast.wav
320,192,173498,1,0,0:0:0:50:LR_Snare Fast.wav
448,192,173667,1,0,0:0:0:40:LR4_SnareKKF.wav
64,192,173667,1,0,0:0:0:0:
192,192,174004,1,0,0:0:0:50:LR_Snare Fast.wav
448,192,174341,1,0,0:0:0:40:LR4_SnareKKF.wav
64,192,174341,1,0,0:0:0:0:
192,192,174509,1,0,0:0:0:50:LR_Snare Fast.wav
320,192,174846,1,0,0:0:0:50:LR_Snare Fast.wav
448,192,175184,1,0,0:0:0:40:LR4_SnareKKF.wav
192,192,175184,1,0,0:0:0:0:
64,192,175521,1,0,0:0:0:50:LR_Snare Fast.wav
320,192,175689,1,0,0:0:0:0:
192,192,175689,1,0,0:0:0:40:LR4_SnareKKF.wav
448,192,175858,1,0,0:0:0:50:LR_Snare Fast.wav
320,192,175942,1,0,0:0:0:50:LR_Snare Fast.wav
64,192,176026,1,0,0:0:0:0:
192,192,176026,1,0,0:0:0:70:LR_DS - Snare.wav
448,192,176195,1,0,0:0:0:70:LR_DS - Snare.wav
320,192,176363,1,0,0:0:0:70:LR_DS - Snare.wav
192,192,176363,1,0,0:0:0:0:
448,192,176700,1,0,0:0:0:50:LR_Drum Finish.wav
64,192,176700,1,0,0:0:0:50:LR4_CyCV2.wav
448,192,177037,1,0,0:0:0:40:LR4_SnareKKF.wav
192,192,177037,1,0,0:0:0:0:
64,192,177206,1,0,0:0:0:50:LR_Snare Fast.wav
448,192,177543,1,0,0:0:0:40:LR4_SnareKKF.wav
192,192,177543,1,0,0:0:0:0:
320,192,177880,1,0,0:0:0:70:LR_Drum Click.wav
192,192,178217,1,0,0:0:0:70:LR_Drum Click.wav
448,192,178386,1,0,0:0:0:0:
64,192,178386,1,0,0:0:0:40:LR4_SnareKKF.wav
320,192,178554,1,0,0:0:0:50:LR_Snare Fast.wav
192,192,178891,1,0,0:0:0:50:LR_Snare Fast.wav
64,192,179060,1,0,0:0:0:40:LR4_SnareKKF.wav
448,192,179060,1,0,0:0:0:0:
64,192,179397,1,0,0:0:0:50:LR_Snare Fast.wav
192,192,179566,1,0,0:0:0:50:LR_Snare Fast.wav
448,192,179734,1,0,0:0:0:40:LR4_SnareKKF.wav
320,192,179734,1,0,0:0:0:0:
64,192,180071,1,0,0:0:0:50:LR_Snare Fast.wav
192,192,180240,1,0,0:0:0:50:LR_Snare Fast.wav
320,192,180577,1,0,0:0:0:40:LR4_SnareKKF.wav
64,192,180577,1,0,0:0:0:0:
448,192,180914,1,0,0:0:0:50:LR_Snare Fast.wav
64,192,181082,1,0,0:0:0:40:LR4_SnareKKF.wav
320,192,181082,1,0,0:0:0:0:
192,192,181251,1,0,0:0:0:50:LR_Snare Fast.wav
64,192,181588,1,0,0:0:0:50:LR_Snare Fast.wav
448,192,181757,1,0,0:0:0:40:LR4_SnareKKF.wav
192,192,181757,1,0,0:0:0:0:
64,192,182094,1,0,0:0:0:50:LR_Snare Fast.wav
192,192,182431,1,0,0:0:0:40:LR4_SnareKKF.wav
448,192,182431,1,0,0:0:0:0:
320,192,182599,1,0,0:0:0:50:LR_Snare Fast.wav
448,192,182936,1,0,0:0:0:40:LR4_SnareKKF.wav
64,192,182936,1,0,0:0:0:0:
320,192,183273,1,0,0:0:0:70:LR_Drum Click.wav
448,192,183611,1,0,0:0:0:70:LR_Drum Click.wav
320,192,183779,1,0,0:0:0:0:
64,192,183779,1,0,0:0:0:40:LR4_SnareKKF.wav
192,192,183948,1,0,0:0:0:50:LR_Snare Fast.wav
320,192,184285,1,0,0:0:0:50:LR_Snare Fast.wav
192,192,184285,1,0,0:0:0:0:
448,192,184453,1,0,0:0:0:40:LR4_SnareKKF.wav
64,192,184453,1,0,0:0:0:0:
320,192,184790,1,0,0:0:0:30:LR4_Kick HrW BRF.wav
192,192,185296,1,0,0:0:0:30:LR4_Kick HrW BRF.wav
320,192,185464,1,0,0:0:0:40:LR4_SnareKKF.wav
64,192,185464,1,0,0:0:0:0:
448,192,185633,1,0,0:0:0:30:LR4_Kick HrW BRF.wav
320,192,185970,1,0,0:0:0:70:LR_Snare Fast.wav
64,192,185970,1,0,0:0:0:0:
448,192,186307,1,0,0:0:0:70:LR_Snare Fast.wav
192,192,186476,1,0,0:0:0:40:LR4_SnareKKF.wav
320,192,186476,1,0,0:0:0:0:
64,192,186644,1,0,0:0:0:50:LR_Snare Fast.wav
192,192,186728,1,0,0:0:0:50:LR_Snare Fast.wav
320,192,186813,1,0,0:0:0:70:LR_DS - Snare.wav
448,192,186813,1,0,0:0:0:0:
64,192,186981,1,0,0:0:0:70:LR_DS - Snare.wav
448,192,187150,1,0,0:0:0:70:LR_DS - Snare.wav
192,192,187150,1,0,0:0:0:0:
320,192,187318,1,0,0:0:0:0:
192,192,187487,1,0,0:0:0:50:LR_Drum Finish.wav
64,192,187487,1,0,0:0:0:50:LR4_CyCV2.wav
448,192,189846,1,0,0:0:0:40:LR4_SnareKKF.wav
320,192,189846,1,0,0:0:0:0:
64,192,190184,128,0,191532:0:0:0:40:LR4_Kick HrW BRF.wav
192,192,190184,1,0,0:0:0:0:
448,192,190521,1,0,0:0:0:40:LR4_SnareKKF.wav
320,192,191026,1,0,0:0:0:40:LR4_Kick HrW BRF.wav
448,192,191195,1,0,0:0:0:40:LR4_SnareKKF.wav
320,192,191532,1,0,0:0:0:40:LR4_Kick HrW BRF.wav
192,192,191532,128,0,192880:0:0:0:0:
64,192,191869,1,0,0:0:0:40:LR4_SnareKKF.wav
448,192,192375,1,0,0:0:0:40:LR4_Kick HrW BRF.wav
320,192,192543,1,0,0:0:0:40:LR4_SnareKKF.wav
448,192,192880,128,0,194228:0:0:0:40:LR4_Kick HrW BRF.wav
64,192,192880,1,0,0:0:0:0:
192,192,193217,1,0,0:0:0:40:LR4_SnareKKF.wav
320,192,193723,1,0,0:0:0:40:LR4_Kick HrW BRF.wav
192,192,193891,1,0,0:0:0:40:LR4_SnareKKF.wav
320,192,194228,1,0,0:0:0:40:LR4_Kick HrW BRF.wav
64,192,194397,128,0,194566:0:0:0:70:LR_Drum Hit HAT.wav
64,192,194734,128,0,194903:0:0:0:70:LR_Drum Hit HAT.wav
192,192,195071,128,0,195240:0:0:0:40:LR4_Kick HrW BRF.wav
320,192,195240,128,0,195408:0:0:0:40:LR4_SnareKKF.wav
448,192,195408,128,0,195577:0:0:0:0:
64,192,195577,1,0,0:0:0:40:LR4_Kick HrW BRF.wav
192,192,195577,128,0,196925:0:0:0:0:
448,192,195914,1,0,0:0:0:40:LR4_SnareKKF.wav
64,192,196419,1,0,0:0:0:40:LR4_Kick HrW BRF.wav
320,192,196588,1,0,0:0:0:40:LR4_SnareKKF.wav
448,192,196925,1,0,0:0:0:40:LR4_Kick HrW BRF.wav
64,192,196925,128,0,198273:0:0:0:0:
320,192,197262,1,0,0:0:0:40:LR4_SnareKKF.wav
448,192,197768,1,0,0:0:0:40:LR4_Kick HrW BRF.wav
192,192,197936,1,0,0:0:0:40:LR4_SnareKKF.wav
448,192,198273,1,0,0:0:0:40:LR4_Kick HrW BRF.wav
320,192,198273,128,0,199622:0:0:0:0:
64,192,198611,1,0,0:0:0:40:LR4_SnareKKF.wav
448,192,199116,1,0,0:0:0:40:LR4_Kick HrW BRF.wav
192,192,199285,1,0,0:0:0:40:LR4_SnareKKF.wav
64,192,199622,1,0,0:0:0:40:LR4_Kick HrW BRF.wav
448,192,199622,128,0,200970:0:0:0:0:
320,192,199959,1,0,0:0:0:40:LR4_SnareKKF.wav
64,192,200464,1,0,0:0:0:40:LR4_Kick HrW BRF.wav
320,192,200633,1,0,0:0:0:40:LR4_SnareKKF.wav
64,192,200970,1,0,0:0:0:40:LR4_Kick HrW BRF.wav
192,192,200970,128,0,202318:0:0:0:0:
448,192,201307,1,0,0:0:0:40:LR4_SnareKKF.wav
64,192,201813,1,0,0:0:0:40:LR4_Kick HrW BRF.wav
320,192,201981,1,0,0:0:0:40:LR4_SnareKKF.wav
64,192,202318,1,0,0:0:0:40:LR4_Kick HrW BRF.wav
448,192,202318,128,0,202993:0:0:0:0:
192,192,202655,1,0,0:0:0:40:LR4_SnareKKF.wav
320,192,202993,128,0,203667:0:0:0:70:bell.wav
64,192,203161,1,0,0:0:0:40:LR4_Kick HrW BRF.wav
448,192,203330,1,0,0:0:0:40:LR4_SnareKKF.wav
192,192,203667,1,0,0:0:0:40:LR4_Kick HrW BRF.wav
64,192,203667,128,0,205015:0:0:0:0:
320,192,204004,1,0,0:0:0:40:LR4_SnareKKF.wav
192,192,204509,1,0,0:0:0:40:LR4_Kick HrW BRF.wav
448,192,204678,1,0,0:0:0:40:LR4_SnareKKF.wav
320,192,205015,1,0,0:0:0:40:LR4_Kick HrW BRF.wav
192,192,205015,128,0,206363:0:0:0:0:
64,192,205352,1,0,0:0:0:40:LR4_SnareKKF.wav
448,192,205858,1,0,0:0:0:40:LR4_Kick HrW BRF.wav
64,192,206026,1,0,0:0:0:40:LR4_SnareKKF.wav
448,192,206363,1,0,0:0:0:40:LR4_Kick HrW BRF.wav
320,192,206532,1,0,0:0:0:40:LR4_Kick HrW BRF.wav
192,192,206700,1,0,0:0:0:40:LR4_SnareKKF.wav
64,192,206700,1,0,0:0:0:0:
448,192,206869,1,0,0:0:0:40:LR4_Kick HrW BRF.wav
320,192,207037,1,0,0:0:0:40:LR4_Kick HrW BRF.wav
192,192,207206,1,0,0:0:0:40:LR4_SnareKKF.wav
64,192,207206,1,0,0:0:0:0:
320,192,207543,1,0,0:0:0:70:LR_DS - Snare.wav
64,192,207712,1,0,0:0:0:40:LR4_Kick HrW BRF.wav
192,192,207880,1,0,0:0:0:40:LR4_Kick HrW BRF.wav
448,192,208049,1,0,0:0:0:40:LR4_SnareKKF.wav
320,192,208049,1,0,0:0:0:0:
64,192,208217,1,0,0:0:0:40:LR4_Kick HrW BRF.wav
192,192,208386,1,0,0:0:0:40:LR4_Kick HrW BRF.wav
448,192,208554,1,0,0:0:0:40:LR4_SnareKKF.wav
320,192,208554,1,0,0:0:0:0:
192,192,208723,1,0,0:0:0:40:LR4_Kick HrW BRF.wav
320,192,209060,1,0,0:0:0:40:LR4_Kick HrW BRF.wav
64,192,209060,128,0,211757:0:0:0:0:
448,192,209397,1,0,0:0:0:50:LR_Snare Fast.wav
192,192,209734,1,0,0:0:0:50:LR_Snare Fast.wav
448,192,210071,1,0,0:0:0:50:LR_Snare Fast.wav
192,192,210408,1,0,0:0:0:50:LR_Snare Fast.wav
448,192,210745,1,0,0:0:0:50:LR_Snare Fast.wav
192,192,211082,1,0,0:0:0:50:LR_Snare Fast.wav
448,192,211419,1,0,0:0:0:50:LR_Snare Fast.wav
320,192,211757,1,0,0:0:0:50:LR_Snare Fast.wav
192,192,211757,1,0,0:0:0:0:
448,192,211925,1,0,0:0:0:40:LR4_Kick HrW BRF.wav
64,192,212094,1,0,0:0:0:50:LR_Snare Fast.wav
320,192,212262,1,0,0:0:0:40:LR4_Kick HrW BRF.wav
192,192,212431,1,0,0:0:0:50:LR_Snare Fast.wav
448,192,212599,1,0,0:0:0:40:LR4_Kick HrW BRF.wav
64,192,212768,1,0,0:0:0:50:LR_Snare Fast.wav
320,192,212936,1,0,0:0:0:40:LR4_Kick HrW BRF.wav
64,192,213105,128,0,213442:0:0:0:50:LR_Snare Fast.wav
192,192,213442,128,0,213779:0:0:0:50:LR_Snare Fast.wav
320,192,213779,128,0,214116:0:0:0:50:LR_Snare Fast.wav
448,192,214116,128,0,214453:0:0:0:50:LR_Snare Fast.wav
64,192,214116,1,0,0:0:0:0:
192,192,214453,1,0,0:0:0:40:LR4_Kick HrW BRF.wav
64,192,214790,1,0,0:0:0:40:LR4_SnareKKF.wav
448,192,214790,1,0,0:0:0:0:
320,192,214959,1,0,0:0:0:0:
192,192,215127,1,0,0:0:0:70:bell.wav
64,192,215296,1,0,0:0:0:40:LR4_Kick HrW BRF.wav
448,192,215464,1,0,0:0:0:40:LR4_SnareKKF.wav
320,192,215464,1,0,0:0:0:0:
64,192,215802,1,0,0:0:0:40:LR4_Kick HrW BRF.wav
192,192,216139,1,0,0:0:0:40:LR4_SnareKKF.wav
448,192,216139,1,0,0:0:0:0:
448,192,216644,1,0,0:0:0:40:LR4_Kick HrW BRF.wav
64,192,216813,1,0,0:0:0:40:LR4_SnareKKF.wav
320,192,216813,1,0,0:0:0:0:
192,192,217150,1,0,0:0:0:40:LR4_Kick HrW BRF.wav
64,192,217487,1,0,0:0:0:40:LR4_SnareKKF.wav
448,192,217487,1,0,0:0:0:0:
320,192,217655,1,0,0:0:0:40:LR4_Kick HrW BRF.wav
320,192,217993,1,0,0:0:0:40:LR4_Kick HrW BRF.wav
448,192,218161,1,0,0:0:0:40:LR4_Kick HrW BRF.wav
64,192,218161,1,0,0:0:0:40:LR4_SnareKKF.wav
192,192,218498,1,0,0:0:0:40:LR4_Kick HrW BRF.wav
64,192,218835,1,0,0:0:0:40:LR4_SnareKKF.wav
448,192,218835,1,0,0:0:0:0:
320,192,219172,128,0,219341:0:0:0:70:bell.wav
64,192,219341,1,0,0:0:0:40:LR4_Kick HrW BRF.wav
192,192,219509,1,0,0:0:0:40:LR4_SnareKKF.wav
448,192,219509,1,0,0:0:0:0:
64,192,219846,1,0,0:0:0:40:LR4_Kick HrW BRF.wav
448,192,220184,128,0,220521:0:0:0:70:LR_Drum Hit HAT.wav
320,192,220521,1,0,0:0:0:40:LR4_SnareKKF.wav
192,192,220689,1,0,0:0:0:40:LR4_Kick HrW BRF.wav
64,192,220858,1,0,0:0:0:40:LR4_SnareKKF.wav
448,192,220858,1,0,0:0:0:0:
320,192,221195,1,0,0:0:0:40:LR4_Kick HrW BRF.wav
448,192,221532,1,0,0:0:0:40:LR4_SnareKKF.wav
64,192,221532,1,0,0:0:0:0:
320,192,221700,1,0,0:0:0:0:
192,192,221869,1,0,0:0:0:0:
320,192,222037,1,0,0:0:0:40:LR4_Kick HrW BRF.wav
64,192,222206,1,0,0:0:0:40:LR4_SnareKKF.wav
448,192,222206,1,0,0:0:0:0:
320,192,222543,1,0,0:0:0:40:LR4_Kick HrW BRF.wav
192,192,222880,1,0,0:0:0:40:LR4_SnareKKF.wav
448,192,222880,1,0,0:0:0:0:
64,192,223049,1,0,0:0:0:0:
64,192,223217,1,0,0:0:0:0:
448,192,223386,1,0,0:0:0:40:LR4_Kick HrW BRF.wav
64,192,223554,1,0,0:0:0:40:LR4_SnareKKF.wav
320,192,223554,1,0,0:0:0:0:
448,192,223891,1,0,0:0:0:40:LR4_Kick HrW BRF.wav
64,192,224228,1,0,0:0:0:40:LR4_SnareKKF.wav
320,192,224228,1,0,0:0:0:0:
320,192,224734,1,0,0:0:0:40:LR4_Kick HrW BRF.wav
192,192,224903,1,0,0:0:0:40:LR4_SnareKKF.wav
448,192,224903,1,0,0:0:0:0:
192,192,225240,1,0,0:0:0:40:LR4_Kick HrW BRF.wav
64,192,225240,1,0,0:0:0:0:
448,192,225577,1,0,0:0:0:70:bell.wav
64,192,225914,1,0,0:0:0:40:LR4_SnareKKF.wav
192,192,225914,1,0,0:0:0:0:
320,192,226082,1,0,0:0:0:40:LR4_Kick HrW BRF.wav
64,192,226251,1,0,0:0:0:40:LR4_Kick HrW BRF.wav
320,192,226419,1,0,0:0:0:40:LR4_Kick HrW BRF.wav
64,192,226925,1,0,0:0:0:40:LR4_Kick HrW BRF.wav
192,192,227262,1,0,0:0:0:40:LR4_SnareKKF.wav
448,192,227262,1,0,0:0:0:0:
64,192,227599,128,0,227936:0:0:0:70:bell.wav
192,192,227936,1,0,0:0:0:40:LR4_Kick HrW BRF.wav
320,192,228273,1,0,0:0:0:40:LR4_Kick HrW BRF.wav
64,192,228442,1,0,0:0:0:0:
320,192,228611,1,0,0:0:0:40:LR4_SnareKKF.wav
448,192,228611,1,0,0:0:0:0:
192,192,228779,1,0,0:0:0:40:LR4_Kick HrW BRF.wav
448,192,228948,1,0,0:0:0:40:LR4_Kick HrW BRF.wav
192,192,229116,1,0,0:0:0:40:LR4_Kick HrW BRF.wav
320,192,229285,128,0,229453:0:0:0:0:
64,192,229453,128,0,229622:0:0:0:40:LR4_Kick HrW BRF.wav
192,192,229622,1,0,0:0:0:0:
448,192,229790,1,0,0:0:0:40:LR_Snare Fast.wav
320,192,229875,1,0,0:0:0:40:LR_Snare Fast.wav
192,192,229959,1,0,0:0:0:40:LR4_SnareKKF.wav
64,192,229959,1,0,0:0:0:0:
448,192,230212,1,0,0:0:0:0:
320,192,230212,1,0,0:0:0:40:LR4_SnareKKF.wav
192,192,230464,1,0,0:0:0:40:LR_Snare Fast.wav
64,192,230464,1,0,0:0:0:0:
320,192,230633,1,0,0:0:0:40:LR4_Kick HrW BRF.wav
192,192,230970,128,0,231307:0:0:0:70:bell.wav
448,192,231307,1,0,0:0:0:40:LR4_SnareKKF.wav
320,192,231307,1,0,0:0:0:0:
64,192,231476,1,0,0:0:0:40:LR4_Kick HrW BRF.wav
448,192,231644,1,0,0:0:0:40:LR4_Kick HrW BRF.wav
64,192,231813,1,0,0:0:0:40:LR4_Kick HrW BRF.wav
192,192,232318,1,0,0:0:0:40:LR4_Kick HrW BRF.wav
320,192,232487,1,0,0:0:0:0:
448,192,232655,1,0,0:0:0:40:LR4_SnareKKF.wav
64,192,232655,1,0,0:0:0:0:
192,192,232824,1,0,0:0:0:70:bell.wav
320,192,232993,1,0,0:0:0:70:bell.wav
448,192,233161,1,0,0:0:0:0:
64,192,233330,1,0,0:0:0:40:LR4_SnareKKF.wav
448,192,233498,1,0,0:0:0:40:LR4_Kick HrW BRF.wav
320,192,233582,1,0,0:0:0:40:LR4_Kick HrW BRF.wav
192,192,233667,1,0,0:0:0:40:LR4_Kick HrW BRF.wav
448,192,233835,1,0,0:0:0:40:LR4_SnareKKF.wav
64,192,234004,1,0,0:0:0:40:LR4_Kick HrW BRF.wav
192,192,234088,1,0,0:0:0:40:LR4_Kick HrW BRF.wav
320,192,234172,1,0,0:0:0:40:LR4_Kick HrW BRF.wav
64,192,234341,1,0,0:0:0:40:LR4_SnareKKF.wav
448,192,234509,1,0,0:0:0:70:LR_DS+-+Snare.wav
192,192,234678,1,0,0:0:0:70:LR_Drum EDge.wav
320,192,234846,1,0,0:0:0:70:LR_DS - Snare.wav
64,192,235015,1,0,0:0:0:70:LR_DS - Snare.wav
192,192,235184,1,0,0:0:0:70:LR_Drum EDge.wav
320,192,235352,1,0,0:0:0:70:LR_Snare Fast.wav
448,192,235352,1,0,0:0:0:0:
192,192,235521,1,0,0:0:0:70:LR_Snare Fast.wav
64,192,235521,1,0,0:0:0:0:
448,192,235689,1,0,0:0:0:70:LR_Snare Fast.wav
320,192,235689,1,0,0:0:0:0:
192,192,235858,128,0,236026:0:0:0:0:
64,192,235858,128,0,236026:0:0:0:70:LR_Snare Fast.wav
