osu file format v14

[General]
AudioFilename: audio.mp3
AudioLeadIn: 0
PreviewTime: 75997
Countdown: 0
SampleSet: Soft
StackLeniency: 0.7
Mode: 3
LetterboxInBreaks: 0
SpecialStyle: 0
WidescreenStoryboard: 0

[Editor]
DistanceSpacing: 0.8
BeatDivisor: 4
GridSize: 32
TimelineZoom: 1.4

[Metadata]
Title:ninelie (REDSHiFT x Vesuvia Remix)
TitleUnicode:ninelie (REDSHiFT x Vesuvia Remix)
Artist:Aimer with chelly (EGOIST)
ArtistUnicode:Aimer with chelly (EGOIST)
Creator:Alsty-
Version:Another Kabaneri
Source:甲鉄城のカバネリ
Tags:Koutetsujou no Kabaneri Ending Theme 1 Kabaneri of the iron fortress DnB SCL-1987 daydream SME Records hiroyuki sawano
BeatmapID:1034385
BeatmapSetID:484996

[Difficulty]
HPDrainRate:8.5
CircleSize:4
OverallDifficulty:8.5
ApproachRate:5
SliderMultiplier:1.4
SliderTickRate:1

[Events]
//Background and Video events
0,0,"BG.jpg",0,0
//Break Periods
//Storyboard Layer 0 (Background)
//Storyboard Layer 1 (Fail)
//Storyboard Layer 2 (Pass)
//Storyboard Layer 3 (Foreground)
//Storyboard Sound Samples
Sample,158667,0,"LR_Snare Fast.wav",70
Sample,233414,0,"LR4_Kick HrW BRF.wav",50

[TimingPoints]
1420,337.078651685393,4,2,0,40,1,0
21643,-80,4,2,0,40,0,0
22993,-100,4,2,0,40,0,0
32768,-40,4,2,0,40,0,0
32852,-181.818181818181,4,2,0,40,0,0
33105,-100,4,2,0,40,0,0
33442,-40,4,2,0,40,0,0
33526,-181.818181818181,4,2,0,40,0,0
33779,-100,4,2,0,40,0,0
44566,-47.6190476190476,4,2,0,40,0,0
44650,-333.333333333334,4,2,0,40,0,0
45577,-111.111111111111,4,2,0,40,0,0
45914,-100,4,2,0,40,0,0
47262,-250,4,2,0,40,0,0
47346,-100,4,2,0,40,0,0
47768,-250,4,2,0,40,0,0
47852,-100,4,2,0,40,0,0
48273,-250,4,2,0,40,0,0
48358,-100,4,2,0,40,0,0
49959,-250,4,2,0,40,0,0
50043,-100,4,2,0,40,0,0
50464,-250,4,2,0,40,0,0
50549,-100,4,2,0,40,0,0
50970,-250,4,2,0,40,0,0
51054,-100,4,2,0,40,0,0
53835,-20,4,2,0,40,0,0
53919,-250,4,2,0,40,0,0
54257,-90.9090909090909,4,2,0,40,0,0
54341,-100,4,2,0,40,0,0
56700,-66.6666666666667,4,2,0,40,0,0
56827,-200,4,2,0,40,0,0
56953,-66.6666666666667,4,2,0,40,0,0
57080,-200,4,2,0,40,0,0
57206,-66.6666666666667,4,2,0,40,0,0
57290,-200,4,2,0,40,0,0
57375,-100,4,2,0,40,0,0
59481,-28.5714285714286,4,2,0,40,0,0
59566,-142.857142857143,4,2,0,40,0,0
59818,-83.3333333333333,4,2,0,40,0,0
59903,-100,4,2,0,40,0,0
60071,-66.6666666666667,4,2,0,40,0,0
60198,-200,4,2,0,40,0,0
60324,-66.6666666666667,4,2,0,40,0,0
60450,-200,4,2,0,40,0,0
60577,-66.6666666666667,4,2,0,40,0,0
60661,-200,4,2,0,40,0,0
60745,-100,4,2,0,40,0,0
66476,-200,4,2,0,40,0,0
66560,-85.4700854700855,4,2,0,40,0,0
66813,-200,4,2,0,40,0,0
66897,-85.4700854700855,4,2,0,40,0,0
67150,-200,4,2,0,40,0,0
67234,-85.4700854700855,4,2,0,40,0,0
67487,-200,4,2,0,40,0,0
67571,-85.4700854700855,4,2,0,40,0,0
67824,-200,4,2,0,40,0,0
67908,-85.4700854700855,4,2,0,40,0,0
68161,-200,4,2,0,40,0,0
68245,-85.4700854700855,4,2,0,40,0,0
68498,-200,4,2,0,40,0,0
68582,-100,4,2,0,40,0,0
75998,-125,4,2,0,40,0,0
76082,-100,4,2,0,40,0,1
76251,-166.666666666667,4,2,0,40,0,1
76335,-83.3333333333333,4,2,0,40,0,1
76504,-166.666666666667,4,2,0,40,0,1
76588,-83.3333333333333,4,2,0,40,0,1
76757,-166.666666666667,4,2,0,40,0,1
76841,-83.3333333333333,4,2,0,40,0,1
76925,-100,4,2,0,40,0,1
77431,-142.857142857143,4,2,0,40,0,1
77515,-100,4,2,0,40,0,1
77599,-142.857142857143,4,2,0,40,0,1
77684,-100,4,2,0,40,0,1
79622,-71.4285714285714,4,2,0,40,0,1
79706,-100,4,2,0,40,0,1
80127,-71.4285714285714,4,2,0,40,0,1
80212,-100,4,2,0,40,0,1
80633,-71.4285714285714,4,2,0,40,0,1
80717,-100,4,2,0,40,0,1
82655,-95.2380952380952,4,2,0,40,0,1
82993,-142.857142857143,4,2,0,40,0,1
83077,-100,4,2,0,40,0,1
83330,-142.857142857143,4,2,0,40,0,1
83414,-100,4,2,0,40,0,1
83498,-142.857142857143,4,2,0,40,0,1
83582,-100,4,2,0,40,0,1
84172,-142.857142857143,4,2,0,40,0,1
84257,-100,4,2,0,40,0,1
84341,-142.857142857143,4,2,0,40,0,1
84425,-100,4,2,0,40,0,1
85521,-142.857142857143,4,2,0,40,0,1
85605,-100,4,2,0,40,0,1
85689,-142.857142857143,4,2,0,40,0,1
85773,-100,4,2,0,40,0,1
87712,-33.3333333333333,4,2,0,40,0,1
87796,-166.666666666667,4,2,0,40,0,1
88049,-100,4,2,0,40,0,1
90408,-62.5,4,2,0,40,0,1
90493,-100,4,2,0,40,0,1
90914,-62.5,4,2,0,40,0,1
90998,-100,4,2,0,40,0,1
91419,-62.5,4,2,0,40,0,1
91504,-100,4,2,0,40,0,1
94959,-142.857142857143,4,2,0,40,0,1
95043,-100,4,2,0,40,0,1
95127,-142.857142857143,4,2,0,40,0,1
95212,-100,4,2,0,40,0,1
98582,-100,4,2,0,40,0,0
108948,-142.857142857143,4,2,0,40,0,0
109200,-62.5,4,2,0,40,0,0
109285,-100,4,2,0,40,0,0
120071,-125,4,2,0,40,0,0
128161,-111.111111111111,4,2,0,40,0,0
130858,-200,4,2,0,40,0,0
131026,-66.6666666666667,4,2,0,40,0,0
131195,-200,4,2,0,40,0,0
131363,-66.6666666666667,4,2,0,40,0,0
131532,-200,4,2,0,40,0,0
131700,-66.6666666666667,4,2,0,40,0,0
131869,-200,4,2,0,40,0,0
132037,-66.6666666666667,4,2,0,40,0,0
132206,-200,4,2,0,40,0,0
132375,-66.6666666666667,4,2,0,40,0,0
132543,-200,4,2,0,40,0,0
132712,-66.6666666666667,4,2,0,40,0,0
132880,-200,4,2,0,40,0,0
133049,-66.6666666666667,4,2,0,40,0,0
133217,-100,4,2,0,40,0,0
133386,-200,4,2,0,40,0,0
133470,-85.4700854700855,4,2,0,40,0,0
133554,-200,4,2,0,40,0,0
133723,-66.6666666666667,4,2,0,40,0,0
133891,-200,4,2,0,40,0,0
134060,-66.6666666666667,4,2,0,40,0,0
134228,-200,4,2,0,40,0,0
134397,-66.6666666666667,4,2,0,40,0,0
134566,-200,4,2,0,40,0,0
134734,-66.6666666666667,4,2,0,40,0,0
134903,-200,4,2,0,40,0,0
135071,-66.6666666666667,4,2,0,40,0,0
135240,-200,4,2,0,40,0,0
135408,-66.6666666666667,4,2,0,40,0,0
135577,-200,4,2,0,40,0,0
135745,-66.6666666666667,4,2,0,40,0,0
135914,-100,4,2,0,40,0,0
136082,-200,4,2,0,40,0,0
136167,-85.4700854700855,4,2,0,40,0,0
136251,-100,4,2,0,40,0,0
136925,-200,4,2,0,40,0,0
137009,-85.4700854700855,4,2,0,40,0,0
137094,-100,4,2,0,40,0,0
137599,-200,4,2,0,40,0,0
137684,-85.4700854700855,4,2,0,40,0,0
137768,-100,4,2,0,40,0,0
138273,-200,4,2,0,40,0,0
138358,-85.4700854700855,4,2,0,40,0,0
138442,-100,4,2,0,40,0,0
140296,-10,4,2,0,40,0,0
140380,-333.333333333333,4,2,0,40,0,0
141223,-111.111111111111,4,2,0,40,0,0
141644,-100,4,2,0,40,0,0
145184,-133.333333333333,4,2,0,40,0,0
145268,-100,4,2,0,40,0,0
145352,-133.333333333333,4,2,0,40,0,0
145436,-100,4,2,0,40,0,0
150745,-166.666666666667,4,2,0,40,0,0
150830,-100,4,2,0,40,0,0
151251,-166.666666666667,4,2,0,40,0,0
151335,-100,4,2,0,40,0,0
160521,-76.9230769230769,4,2,0,40,0,0
160605,-100,4,2,0,40,0,0
161195,-76.9230769230769,4,2,0,40,0,0
161279,-100,4,2,0,40,0,0
161869,-76.9230769230769,4,2,0,40,0,0
161953,-100,4,2,0,40,0,0
162712,-142.857142857143,4,2,0,40,0,0
162796,-100,4,2,0,40,0,0
187486,-33.3333333333333,4,2,0,40,0,0
189424,-153.846153846153,4,2,0,40,0,0
189846,-100,4,2,0,40,0,0
194397,-166.666666666667,4,2,0,40,0,0
194481,-100,4,2,0,40,0,0
194734,-166.666666666667,4,2,0,40,0,0
194818,-100,4,2,0,40,0,0
206363,-200,4,2,0,40,0,0
206405,-100,4,2,0,40,0,0
206532,-200,4,2,0,40,0,0
206574,-100,4,2,0,40,0,0
206700,-50,4,2,0,40,0,0
206743,-100,4,2,0,40,0,0
206869,-200,4,2,0,40,0,0
206911,-100,4,2,0,40,0,0
207037,-200,4,2,0,40,0,0
207080,-100,4,2,0,40,0,0
207206,-50,4,2,0,40,0,0
207248,-100,4,2,0,40,0,0
207543,-200,4,2,0,40,0,0
207585,-100,4,2,0,40,0,0
207712,-200,4,2,0,40,0,0
207754,-100,4,2,0,40,0,0
207880,-200,4,2,0,40,0,0
207922,-100,4,2,0,40,0,0
208049,-40,4,2,0,40,0,0
208091,-100,4,2,0,40,0,0
208217,-200,4,2,0,40,0,0
208259,-100,4,2,0,40,0,0
208386,-200,4,2,0,40,0,0
208428,-100,4,2,0,40,0,0
208554,-40,4,2,0,40,0,0
208596,-100,4,2,0,40,0,0
208723,-333.333333333333,4,2,0,40,0,0
208765,-100,4,2,0,40,0,0
209060,-200,4,2,0,40,0,0
209144,-100,4,2,0,40,0,0
209397,-200,4,2,0,40,0,0
209481,-100,4,2,0,40,0,0
209734,-200,4,2,0,40,0,0
209818,-100,4,2,0,40,0,0
210071,-200,4,2,0,40,0,0
210155,-100,4,2,0,40,0,0
210408,-200,4,2,0,40,0,0
210493,-100,4,2,0,40,0,0
210745,-200,4,2,0,40,0,0
210830,-100,4,2,0,40,0,0
211082,-200,4,2,0,40,0,0
211167,-100,4,2,0,40,0,0
211419,-200,4,2,0,40,0,0
211504,-100,4,2,0,40,0,0
214453,-100,4,2,0,40,0,1
214959,-166.666666666667,4,2,0,40,0,1
215043,-100,4,2,0,40,0,1
215127,-166.666666666667,4,2,0,40,0,1
215212,-100,4,2,0,40,0,1
220184,-90.9090909090909,4,2,0,40,0,1
220605,-99.9999999999999,4,2,0,40,0,1
220773,-100,4,2,0,40,0,1
220858,-142.857142857143,4,2,0,40,0,1
220942,-100,4,2,0,40,0,1
221026,-142.857142857143,4,2,0,40,0,1
221111,-100,4,2,0,40,0,1
221700,-166.666666666667,4,2,0,40,0,1
221785,-100,4,2,0,40,0,1
221869,-166.666666666667,4,2,0,40,0,1
221953,-100,4,2,0,40,0,1
223049,-142.857142857143,4,2,0,40,0,1
223133,-100,4,2,0,40,0,1
223217,-142.857142857143,4,2,0,40,0,1
223302,-100,4,2,0,40,0,1
226082,-166.666666666667,4,2,0,40,0,1
226167,-100,4,2,0,40,0,1
226251,-166.666666666667,4,2,0,40,0,1
226335,-100,4,2,0,40,0,1
226419,-166.666666666667,4,2,0,40,0,1
226504,-100,4,2,0,40,0,1
228779,-166.666666666667,4,2,0,40,0,1
228863,-100,4,2,0,40,0,1
228948,-166.666666666667,4,2,0,40,0,1
229032,-100,4,2,0,40,0,1
229116,-166.666666666667,4,2,0,40,0,1
229200,-100,4,2,0,40,0,1
231476,-166.666666666667,4,2,0,40,0,1
231560,-100,4,2,0,40,0,1
231644,-166.666666666667,4,2,0,40,0,1
231728,-100,4,2,0,40,0,1
231813,-166.666666666667,4,2,0,40,0,1
231897,-100,4,2,0,40,0,1
232487,-142.857142857143,4,2,0,40,0,1
232571,-100,4,2,0,40,0,1
232655,-142.857142857143,4,2,0,40,0,1
232740,-100,4,2,0,40,0,1
232824,-142.857142857143,4,2,0,40,0,1
232908,-100,4,2,0,40,0,1
233835,-166.666666666667,4,2,0,40,0,1
233919,-100,4,2,0,40,0,1
234341,-166.666666666667,4,2,0,40,0,1
234425,-100,4,2,0,40,0,1
235352,-142.857142857143,4,2,0,40,0,1
235436,-100,4,2,0,40,0,1
235521,-142.857142857143,4,2,0,40,0,1
235605,-100,4,2,0,40,0,1
236026,-100,4,2,0,40,0,0

[HitObjects]
64,192,1420,5,0,0:0:0:15:bell.wav
192,192,1420,1,0,0:0:0:0:
320,192,1588,1,0,0:0:0:15:bell.wav
192,192,1757,1,0,0:0:0:15:bell.wav
448,192,1925,1,0,0:0:0:15:bell.wav
64,192,2094,1,0,0:0:0:15:bell.wav
192,192,2262,1,0,0:0:0:15:bell.wav
320,192,2431,1,0,0:0:0:15:bell.wav
448,192,2599,1,0,0:0:0:15:bell.wav
64,192,2768,1,0,0:0:0:15:bell.wav
192,192,2936,1,0,0:0:0:15:bell.wav
448,192,3105,1,0,0:0:0:15:bell.wav
320,192,3273,1,0,0:0:0:15:bell.wav
448,192,3442,1,0,0:0:0:15:bell.wav
64,192,3611,1,0,0:0:0:15:bell.wav
192,192,3779,1,0,0:0:0:15:bell.wav
448,192,3948,1,0,0:0:0:15:bell.wav
320,192,4116,1,0,0:0:0:15:bell.wav
64,192,4116,1,0,0:0:0:15:bell.wav
448,192,4285,1,0,0:0:0:15:bell.wav
192,192,4453,1,0,0:0:0:15:bell.wav
448,192,4622,1,0,0:0:0:15:bell.wav
64,192,4790,1,0,0:0:0:15:bell.wav
320,192,4959,1,0,0:0:0:15:bell.wav
192,192,5127,1,0,0:0:0:15:bell.wav
448,192,5296,1,0,0:0:0:15:bell.wav
64,192,5464,1,0,0:0:0:15:bell.wav
192,192,5633,1,0,0:0:0:15:bell.wav
320,192,5802,1,0,0:0:0:15:bell.wav
448,192,5970,1,0,0:0:0:15:bell.wav
192,192,6139,1,0,0:0:0:15:bell.wav
320,192,6307,1,0,0:0:0:15:bell.wav
64,192,6476,1,0,0:0:0:15:bell.wav
448,192,6644,1,0,0:0:0:15:bell.wav
320,192,6813,1,0,0:0:0:15:bell.wav
192,192,6813,1,0,0:0:0:15:bell.wav
64,192,6981,1,0,0:0:0:15:bell.wav
192,192,7150,1,0,0:0:0:15:bell.wav
320,192,7318,1,0,0:0:0:15:bell.wav
192,192,7487,1,0,0:0:0:15:bell.wav
64,192,7655,1,0,0:0:0:15:bell.wav
320,192,7824,1,0,0:0:0:15:bell.wav
448,192,7993,1,0,0:0:0:15:bell.wav
64,192,8161,1,0,0:0:0:15:bell.wav
192,192,8330,1,0,0:0:0:15:bell.wav
320,192,8498,1,0,0:0:0:15:bell.wav
448,192,8667,1,0,0:0:0:15:bell.wav
192,192,8835,1,0,0:0:0:15:bell.wav
64,192,9004,1,0,0:0:0:15:bell.wav
320,192,9172,1,0,0:0:0:15:bell.wav
448,192,9341,1,0,0:0:0:15:bell.wav
64,192,9509,1,0,0:0:0:15:bell.wav
192,192,9509,1,0,0:0:0:15:bell.wav
448,192,9678,1,0,0:0:0:15:bell.wav
320,192,9846,1,0,0:0:0:15:bell.wav
64,192,10015,1,0,0:0:0:15:bell.wav
448,192,10184,1,0,0:0:0:15:bell.wav
320,192,10352,1,0,0:0:0:15:bell.wav
192,192,10521,1,0,0:0:0:15:bell.wav
64,192,10689,1,0,0:0:0:15:bell.wav
448,192,10858,1,0,0:0:0:20:soft-hitnormal2.wav
192,192,10942,1,0,0:0:0:20:soft-hitnormal2.wav
320,192,11026,1,0,0:0:0:20:soft-hitnormal2.wav
64,192,11111,1,0,0:0:0:20:soft-hitnormal2.wav
448,192,11195,1,0,0:0:0:20:soft-hitnormal2.wav
192,192,11279,1,0,0:0:0:20:soft-hitnormal2.wav
320,192,11363,1,0,0:0:0:20:soft-hitnormal2.wav
64,192,11448,1,0,0:0:0:20:soft-hitnormal2.wav
192,192,11532,1,0,0:0:0:20:soft-hitnormal2.wav
320,192,11616,1,0,0:0:0:20:soft-hitnormal2.wav
448,192,11700,1,0,0:0:0:20:soft-hitnormal2.wav
192,192,11785,1,0,0:0:0:20:soft-hitnormal2.wav
320,192,11869,1,0,0:0:0:20:soft-hitnormal2.wav
64,192,11953,1,0,0:0:0:20:soft-hitnormal2.wav
192,192,12037,1,0,0:0:0:20:soft-hitnormal2.wav
320,192,12122,1,0,0:0:0:20:soft-hitnormal2.wav
64,192,12206,1,0,0:0:0:15:bell.wav
448,192,12206,128,0,12375:0:0:0:0:
192,192,12375,1,0,0:0:0:15:bell.wav
320,192,12543,1,0,0:0:0:15:bell.wav
448,192,12712,1,0,0:0:0:15:bell.wav
192,192,12880,1,0,0:0:0:15:bell.wav
64,192,13049,1,0,0:0:0:15:bell.wav
320,192,13217,1,0,0:0:0:15:bell.wav
448,192,13386,1,0,0:0:0:15:bell.wav
64,192,13554,1,0,0:0:0:15:bell.wav
320,192,13723,1,0,0:0:0:15:bell.wav
192,192,13891,1,0,0:0:0:15:bell.wav
448,192,14060,1,0,0:0:0:15:bell.wav
192,192,14228,1,0,0:0:0:15:bell.wav
64,192,14397,1,0,0:0:0:15:bell.wav
320,192,14566,1,0,0:0:0:15:bell.wav
448,192,14734,1,0,0:0:0:15:bell.wav
64,192,14903,1,0,0:0:0:15:bell.wav
320,192,14903,1,0,0:0:0:15:bell.wav
192,192,15071,1,0,0:0:0:15:bell.wav
320,192,15240,1,0,0:0:0:15:bell.wav
448,192,15408,1,0,0:0:0:15:bell.wav
64,192,15577,1,0,0:0:0:15:bell.wav
320,192,15745,1,0,0:0:0:15:bell.wav
192,192,15914,1,0,0:0:0:15:bell.wav
448,192,16082,1,0,0:0:0:15:bell.wav
64,192,16251,1,0,0:0:0:15:bell.wav
320,192,16419,1,0,0:0:0:15:bell.wav
192,192,16588,1,0,0:0:0:15:bell.wav
448,192,16757,1,0,0:0:0:15:bell.wav
64,192,16925,1,0,0:0:0:15:bell.wav
192,192,17094,1,0,0:0:0:15:bell.wav
320,192,17262,1,0,0:0:0:15:bell.wav
448,192,17431,1,0,0:0:0:15:bell.wav
192,192,17599,1,0,0:0:0:15:bell.wav
320,192,17599,1,0,0:0:0:15:bell.wav
64,192,17768,1,0,0:0:0:15:bell.wav
320,192,17936,1,0,0:0:0:15:bell.wav
448,192,18105,1,0,0:0:0:15:bell.wav
64,192,18273,1,0,0:0:0:15:bell.wav
192,192,18442,1,0,0:0:0:15:bell.wav
320,192,18611,1,0,0:0:0:15:bell.wav
448,192,18779,1,0,0:0:0:15:bell.wav
64,192,18948,1,0,0:0:0:15:bell.wav
320,192,19116,1,0,0:0:0:15:bell.wav
192,192,19285,1,0,0:0:0:15:bell.wav
448,192,19453,1,0,0:0:0:15:bell.wav
64,192,19622,1,0,0:0:0:15:bell.wav
192,192,19790,1,0,0:0:0:15:bell.wav
320,192,19959,1,0,0:0:0:15:bell.wav
448,192,20127,1,0,0:0:0:15:bell.wav
64,192,20296,128,0,21644:0:0:0:15:bell.wav
192,192,20296,1,0,0:0:0:0:
320,192,20464,1,0,0:0:0:15:bell.wav
448,192,20633,1,0,0:0:0:15:bell.wav
320,192,20802,1,0,0:0:0:15:bell.wav
192,192,20970,1,0,0:0:0:15:bell.wav
448,192,21139,1,0,0:0:0:15:bell.wav
192,192,21307,1,0,0:0:0:15:bell.wav
320,192,21476,1,0,0:0:0:15:bell.wav
192,192,21644,1,0,0:0:0:0:
448,192,21644,128,0,22993:0:0:0:0:
64,192,22993,1,0,0:0:0:35:LR_CymbalFSU.wav
320,192,22993,1,0,0:0:0:40:LR4_Kick HrW BRF.wav
192,192,22993,1,0,0:0:0:0:
448,192,23161,1,0,0:0:0:0:
64,192,23330,1,0,0:0:0:70:LR_Drum EDge.wav
320,192,23330,1,0,0:0:0:0:
192,192,23498,1,0,0:0:0:0:
320,192,23667,1,0,0:0:0:50:LR_Drum Click.wav
448,192,23667,1,0,0:0:0:0:
320,192,23835,1,0,0:0:0:50:LR_Drum Click.wav
448,192,23835,1,0,0:0:0:0:
192,192,24004,1,0,0:0:0:70:LR_Tom Hit 3.wav
64,192,24004,1,0,0:0:0:0:
448,192,24172,1,0,0:0:0:0:
192,192,24341,1,0,0:0:0:70:LR_Drum EDge.wav
64,192,24509,1,0,0:0:0:0:
448,192,24678,1,0,0:0:0:70:LR_Drum EDge.wav
320,192,24846,1,0,0:0:0:0:
64,192,25015,1,0,0:0:0:70:LR_Drum Finish.wav
192,192,25015,1,0,0:0:0:70:LR_Drum Hit HAT.wav
448,192,25015,1,0,0:0:0:0:
320,192,25184,1,0,0:0:0:0:
192,192,25352,1,0,0:0:0:70:LR_Drum EDge.wav
448,192,25352,1,0,0:0:0:0:
64,192,25521,1,0,0:0:0:0:
192,192,25689,1,0,0:0:0:40:LR4_Kick HrW BRF.wav
320,192,25689,1,0,0:0:0:40:LR_CymbalFSU.wav
448,192,25689,1,0,0:0:0:0:
64,192,25858,1,0,0:0:0:0:
192,192,26026,1,0,0:0:0:70:LR_Drum EDge.wav
448,192,26026,1,0,0:0:0:0:
320,192,26195,1,0,0:0:0:0:
64,192,26363,1,0,0:0:0:50:LR_Drum Click.wav
192,192,26363,1,0,0:0:0:0:
64,192,26532,1,0,0:0:0:50:LR_Drum Click.wav
192,192,26532,1,0,0:0:0:0:
320,192,26700,1,0,0:0:0:70:LR_Tom Hit 3.wav
448,192,26700,1,0,0:0:0:0:
64,192,26869,1,0,0:0:0:0:
320,192,27037,1,0,0:0:0:50:LR_Drum EDge.wav
448,192,27206,1,0,0:0:0:0:
64,192,27375,1,0,0:0:0:50:LR_Drum Click.wav
320,192,27375,1,0,0:0:0:0:
64,192,27543,1,0,0:0:0:50:LR_Drum Click.wav
320,192,27543,1,0,0:0:0:0:
64,192,27712,1,0,0:0:0:50:LR_Tom Hit 3.wav
320,192,27712,1,0,0:0:0:0:
448,192,27880,1,0,0:0:0:0:
64,192,28049,1,0,0:0:0:50:LR_Drum EDge.wav
320,192,28049,1,0,0:0:0:0:
192,192,28217,1,0,0:0:0:0:
64,192,28386,1,0,0:0:0:50:LR_Drum Hit HAT.wav
320,192,28386,1,0,0:0:0:50:LR_Drum Finish.wav
448,192,28386,1,0,0:0:0:0:
192,192,28554,1,0,0:0:0:0:
320,192,28723,1,0,0:0:0:70:LR_Drum EDge.wav
64,192,28723,1,0,0:0:0:0:
448,192,28891,1,0,0:0:0:0:
64,192,29060,1,0,0:0:0:50:LR_Drum Click.wav
192,192,29060,1,0,0:0:0:0:
64,192,29228,1,0,0:0:0:50:LR_Drum Click.wav
192,192,29228,1,0,0:0:0:0:
320,192,29397,1,0,0:0:0:70:LR_Tom Hit 3.wav
448,192,29397,1,0,0:0:0:0:
64,192,29566,1,0,0:0:0:0:
192,192,29734,1,0,0:0:0:0:
320,192,29903,1,0,0:0:0:0:
448,192,30071,1,0,0:0:0:0:
192,192,30240,1,0,0:0:0:0:
64,192,30408,1,0,0:0:0:50:LR_Drum Finish.wav
448,192,30408,1,0,0:0:0:70:LR_Drum Hit HAT.wav
320,192,30408,1,0,0:0:0:0:
192,192,30577,1,0,0:0:0:0:
320,192,30745,1,0,0:0:0:50:LR_Drum EDge.wav
64,192,30745,1,0,0:0:0:0:
192,192,30914,1,0,0:0:0:0:
448,192,30914,1,0,0:0:0:0:
192,192,31082,1,0,0:0:0:40:LR4_Kick HrW BRF.wav
320,192,31082,1,0,0:0:0:40:LR_CymbalFSU.wav
64,192,31082,1,0,0:0:0:0:
448,192,31251,1,0,0:0:0:0:
320,192,31419,1,0,0:0:0:0:
64,192,31419,1,0,0:0:0:50:LR_Drum EDge.wav
192,192,31588,1,0,0:0:0:0:
320,192,31757,1,0,0:0:0:50:LR_Drum Click.wav
448,192,31757,1,0,0:0:0:0:
320,192,31925,1,0,0:0:0:50:LR_Drum Click.wav
448,192,31925,1,0,0:0:0:0:
64,192,32094,1,0,0:0:0:70:LR_Tom Hit 3.wav
192,192,32094,1,0,0:0:0:0:
320,192,32262,1,0,0:0:0:0:
64,192,32431,1,0,0:0:0:40:LR_Snare Fast.wav
192,192,32431,1,0,0:0:0:40:LR_CymbalFSU.wav
448,192,32431,1,0,0:0:0:0:
64,192,32599,1,0,0:0:0:40:LR_Snare Fast.wav
192,192,32599,1,0,0:0:0:40:LR_CymbalFSU.wav
448,192,32599,1,0,0:0:0:0:
64,192,32768,1,0,0:0:0:40:LR_Snare Fast.wav
192,192,32768,1,0,0:0:0:40:LR_CymbalFSU.wav
448,192,32768,1,0,0:0:0:0:
64,192,33105,1,0,0:0:0:40:LR_Snare Fast.wav
320,192,33105,1,0,0:0:0:40:LR_CymbalFSU.wav
448,192,33105,1,0,0:0:0:0:
64,192,33273,1,0,0:0:0:40:LR_Snare Fast.wav
320,192,33273,1,0,0:0:0:40:LR_CymbalFSU.wav
448,192,33273,1,0,0:0:0:0:
64,192,33442,1,0,0:0:0:40:LR_Snare Fast.wav
320,192,33442,1,0,0:0:0:40:LR_CymbalFSU.wav
448,192,33442,1,0,0:0:0:0:
64,192,33779,1,0,0:0:0:40:LR4_Kick HrW BRF.wav
320,192,33779,1,0,0:0:0:40:LR_CymbalFSU.wav
192,192,33779,1,0,0:0:0:0:
448,192,33948,1,0,0:0:0:0:
64,192,34116,1,0,0:0:0:70:LR_Drum EDge.wav
192,192,34116,1,0,0:0:0:0:
320,192,34285,1,0,0:0:0:0:
192,192,34453,1,0,0:0:0:50:LR_Drum Click.wav
448,192,34453,1,0,0:0:0:0:
192,192,34622,1,0,0:0:0:50:LR_Drum Click.wav
448,192,34622,1,0,0:0:0:0:
64,192,34790,1,0,0:0:0:70:LR_Tom Hit 3.wav
320,192,34790,1,0,0:0:0:0:
192,192,34959,1,0,0:0:0:0:
320,192,35127,1,0,0:0:0:70:LR_Drum EDge.wav
448,192,35296,1,0,0:0:0:0:
64,192,35464,1,0,0:0:0:0:
448,192,35633,1,0,0:0:0:0:
192,192,35802,1,0,0:0:0:50:LR_Drum Click.wav
320,192,35802,1,0,0:0:0:0:
64,192,35802,1,0,0:0:0:0:
448,192,35970,1,0,0:0:0:50:LR_Drum Click.wav
320,192,35970,1,0,0:0:0:0:
64,192,36139,1,0,0:0:0:70:LR_Tom Hit 3.wav
192,192,36139,1,0,0:0:0:0:
192,192,36307,1,0,0:0:0:0:
320,192,36307,1,0,0:0:0:0:
64,192,36476,1,0,0:0:0:70:LR_Drum Hit HAT.wav
320,192,36476,1,0,0:0:0:70:LR_Drum Finish.wav
448,192,36476,1,0,0:0:0:0:
192,192,36644,1,0,0:0:0:0:
320,192,36813,1,0,0:0:0:70:LR_Drum EDge.wav
448,192,36813,1,0,0:0:0:0:
192,192,36981,1,0,0:0:0:0:
64,192,37150,1,0,0:0:0:50:LR_Drum Click.wav
320,192,37150,1,0,0:0:0:0:
64,192,37318,1,0,0:0:0:50:LR_Drum Click.wav
320,192,37318,1,0,0:0:0:0:
192,192,37487,1,0,0:0:0:70:LR_Tom Hit 3.wav
448,192,37487,1,0,0:0:0:0:
320,192,37655,1,0,0:0:0:0:
192,192,37824,1,0,0:0:0:70:LR_Drum EDge.wav
64,192,37993,1,0,0:0:0:0:
448,192,38161,1,0,0:0:0:50:LR_Drum Click.wav
192,192,38161,1,0,0:0:0:0:
448,192,38330,1,0,0:0:0:50:LR_Drum Click.wav
192,192,38330,1,0,0:0:0:0:
448,192,38498,1,0,0:0:0:70:LR_Tom Hit 3.wav
192,192,38498,1,0,0:0:0:0:
64,192,38667,1,0,0:0:0:0:
192,192,38835,1,0,0:0:0:70:LR_Drum EDge.wav
320,192,38835,1,0,0:0:0:0:
448,192,39004,1,0,0:0:0:0:
64,192,39004,1,0,0:0:0:0:
64,192,39172,1,0,0:0:0:40:LR_CymbalFSU.wav
192,192,39172,1,0,0:0:0:40:LR4_Kick HrW BRF.wav
320,192,39172,1,0,0:0:0:0:
448,192,39341,1,0,0:0:0:0:
64,192,39509,1,0,0:0:0:70:LR_Drum EDge.wav
192,192,39509,1,0,0:0:0:0:
320,192,39678,1,0,0:0:0:0:
192,192,39846,1,0,0:0:0:50:LR_Drum Click.wav
448,192,39846,1,0,0:0:0:0:
192,192,40015,1,0,0:0:0:50:LR_Drum Click.wav
448,192,40015,1,0,0:0:0:0:
64,192,40184,1,0,0:0:0:70:LR_Tom Hit 3.wav
320,192,40184,1,0,0:0:0:0:
192,192,40352,1,0,0:0:0:0:
320,192,40521,1,0,0:0:0:0:
448,192,40689,1,0,0:0:0:0:
64,192,40858,1,0,0:0:0:0:
448,192,41026,1,0,0:0:0:0:
64,192,41195,1,0,0:0:0:70:LR_Drum Hit HAT.wav
192,192,41195,1,0,0:0:0:70:LR_Drum Finish.wav
320,192,41195,1,0,0:0:0:0:
448,192,41363,1,0,0:0:0:0:
64,192,41363,1,0,0:0:0:0:
192,192,41532,1,0,0:0:0:0:
320,192,41532,1,0,0:0:0:40:LR_Tom Hit 3.wav
64,192,41700,1,0,0:0:0:0:
192,192,41700,1,0,0:0:0:40:LR_Tom Hit 3.wav
64,192,41869,1,0,0:0:0:40:LR4_Kick HrW BRF.wav
320,192,41869,1,0,0:0:0:40:LR_CymbalFSU.wav
448,192,41869,1,0,0:0:0:0:
192,192,42037,1,0,0:0:0:0:
320,192,42206,1,0,0:0:0:70:LR_Drum EDge.wav
448,192,42206,1,0,0:0:0:0:
192,192,42375,1,0,0:0:0:0:
64,192,42543,1,0,0:0:0:50:LR_Drum Click.wav
320,192,42543,1,0,0:0:0:0:
64,192,42712,1,0,0:0:0:50:LR_Drum Click.wav
320,192,42712,1,0,0:0:0:0:
192,192,42880,1,0,0:0:0:70:LR_Tom Hit 3.wav
448,192,42880,1,0,0:0:0:0:
320,192,43049,1,0,0:0:0:0:
64,192,43217,1,0,0:0:0:50:LR_Drum Click.wav
192,192,43217,1,0,0:0:0:0:
64,192,43386,1,0,0:0:0:50:LR_Drum Click.wav
192,192,43386,1,0,0:0:0:0:
320,192,43554,1,0,0:0:0:70:LR_Tom Hit 3.wav
448,192,43554,1,0,0:0:0:0:
192,192,43723,1,0,0:0:0:0:
64,192,43891,1,0,0:0:0:50:LR_Drum Click.wav
320,192,43891,1,0,0:0:0:0:
64,192,44060,1,0,0:0:0:50:LR_Drum Click.wav
320,192,44060,1,0,0:0:0:0:
192,192,44228,1,0,0:0:0:70:LR_Tom Hit 3.wav
448,192,44228,1,0,0:0:0:0:
320,192,44397,1,0,0:0:0:0:
64,192,44566,1,0,0:0:0:70:LR_Drum Finish.wav
192,192,44566,1,0,0:0:0:40:LR4_Kick HrW BRF.wav
448,192,44566,1,0,0:0:0:0:
320,192,44566,1,0,0:0:0:0:
64,192,45577,128,0,45914:0:0:0:0:
320,192,45914,128,0,46419:0:0:0:0:
192,192,46419,128,0,46757:0:0:0:0:
448,192,46757,128,0,47262:0:0:0:0:
320,192,46925,128,0,47262:0:0:0:0:
64,192,47262,128,0,47599:0:0:0:35:LR4_Kick HrW BRF.wav
192,192,47262,128,0,47599:0:0:0:0:
320,192,47768,128,0,48105:0:0:0:50:LR4_SnareKKF.wav
448,192,47768,128,0,48105:0:0:0:0:
64,192,48273,128,0,48611:0:0:0:50:LR4_SnareKKF.wav
192,192,48273,128,0,48611:0:0:0:0:
320,192,48611,1,0,0:0:0:50:LR3_BassFRT FSQP.wav
448,192,48611,1,0,0:0:0:0:
448,192,48779,1,0,0:0:0:50:LR3_BassFRT FSQP.wav
320,192,48779,1,0,0:0:0:0:
64,192,48948,1,0,0:0:0:50:LR3_BassFRT FSQP.wav
192,192,48948,1,0,0:0:0:0:
192,192,49116,1,0,0:0:0:50:LR3_BassFRT FSQP.wav
64,192,49116,1,0,0:0:0:0:
448,192,49285,1,0,0:0:0:50:LR4_SnareKKF.wav
320,192,49285,1,0,0:0:0:0:
64,192,49285,1,0,0:0:0:0:
448,192,49453,1,0,0:0:0:0:
192,192,49453,1,0,0:0:0:40:LR_Tom Hit.wav
192,192,49622,1,0,0:0:0:0:
64,192,49622,1,0,0:0:0:40:LR_Tom Hit 2.wav
448,192,49790,1,0,0:0:0:40:LR_Tom Hit 3.wav
320,192,49790,1,0,0:0:0:0:
64,192,49959,128,0,50296:0:0:0:35:LR4_Kick HrW BRF.wav
320,192,49959,128,0,50296:0:0:0:0:
192,192,50464,128,0,50802:0:0:0:35:LR4_Kick HrW BRF.wav
448,192,50464,128,0,50802:0:0:0:0:
64,192,50970,128,0,51307:0:0:0:35:LR4_Kick HrW BRF.wav
320,192,50970,128,0,51307:0:0:0:0:
192,192,51307,1,0,0:0:0:70:LR_Tom Hit 3.wav
448,192,51307,1,0,0:0:0:0:
320,192,51476,1,0,0:0:0:70:LR_Tom Hit 2.wav
448,192,51476,1,0,0:0:0:0:
64,192,51644,1,0,0:0:0:70:LR_Tom Hit.wav
192,192,51644,1,0,0:0:0:0:
320,192,51813,1,0,0:0:0:0:
448,192,51813,1,0,0:0:0:40:LR4_Kick HrW BRF.wav
448,192,51897,1,0,0:0:0:40:LR4_Kick HrW BRF.wav
320,192,51897,1,0,0:0:0:0:
192,192,51981,1,0,0:0:0:0:
64,192,51981,1,0,0:0:0:40:LR4_SnareKKF.wav
320,192,52023,1,0,0:0:0:0:
448,192,52066,1,0,0:0:0:0:
64,192,52108,1,0,0:0:0:0:
192,192,52150,1,0,0:0:0:0:
320,192,52192,1,0,0:0:0:0:
448,192,52234,1,0,0:0:0:0:
64,192,52276,1,0,0:0:0:0:
192,192,52318,1,0,0:0:0:0:
448,192,52361,1,0,0:0:0:0:
320,192,52403,1,0,0:0:0:0:
192,192,52445,1,0,0:0:0:0:
64,192,52487,1,0,0:0:0:0:
448,192,52529,1,0,0:0:0:0:
320,192,52571,1,0,0:0:0:0:
192,192,52613,1,0,0:0:0:0:
64,192,52655,128,0,52993:0:0:0:45:LR4_Kick HrW BRF.wav
448,192,52655,128,0,52993:0:0:0:0:
320,192,52993,128,0,53330:0:0:0:70:LR_Drum Click.wav
192,192,53161,128,0,53330:0:0:0:0:
64,192,53330,1,0,0:0:0:45:LR4_SnareKKF.wav
448,192,53330,1,0,0:0:0:0:
320,192,53498,1,0,0:0:0:40:LR4_Kick HrW BRF.wav
448,192,53498,1,0,0:0:0:0:
448,192,53667,1,0,0:0:0:40:LR4_Kick HrW BRF.wav
192,192,53667,1,0,0:0:0:0:
64,192,53667,1,0,0:0:0:0:
320,192,53835,1,0,0:0:0:45:LR4_Kick HrW BRF.wav
192,192,53835,1,0,0:0:0:0:
192,192,54341,1,0,0:0:0:40:LR4_SnareKKF.wav
64,192,54341,128,0,54678:0:0:0:0:
320,192,54341,1,0,0:0:0:0:
448,192,54678,1,0,0:0:0:70:LR_Tom Hit.wav
320,192,54846,1,0,0:0:0:30:LR4_Kick HrW BRF.wav
192,192,54931,1,0,0:0:0:40:LR4_Kick HrW BRF.wav
64,192,55015,1,0,0:0:0:40:LR4_SnareKKF.wav
320,192,55015,1,0,0:0:0:0:
448,192,55015,1,0,0:0:0:0:
192,192,55184,1,0,0:0:0:0:
320,192,55352,128,0,55689:0:0:0:40:LR_Snare Fast.wav
448,192,55352,128,0,55689:0:0:0:40:LR_Snare Fast.wav
64,192,55689,128,0,56026:0:0:0:40:LR_Snare Fast.wav
192,192,55689,128,0,56026:0:0:0:40:LR_Snare Fast.wav
448,192,56026,1,0,0:0:0:50:LR_Snare Fast.wav
320,192,56026,1,0,0:0:0:0:
64,192,56195,128,0,56532:0:0:0:40:LR_Snare Fast.wav
192,192,56195,128,0,56532:0:0:0:0:
320,192,56532,128,0,56700:0:0:0:50:LR4_Kick HrW BRF.wav
448,192,56532,1,0,0:0:0:0:
192,192,56700,1,0,0:0:0:40:LR_Snare Fast.wav
64,192,56700,1,0,0:0:0:0:
192,192,56953,1,0,0:0:0:40:LR_Snare Fast.wav
64,192,56953,1,0,0:0:0:0:
192,192,57206,1,0,0:0:0:40:LR_Snare Fast.wav
64,192,57206,1,0,0:0:0:0:
448,192,57375,1,0,0:0:0:70:LR_DS - Snare.wav
64,192,57375,1,0,0:0:0:0:
320,192,57375,1,0,0:0:0:0:
448,192,57543,1,0,0:0:0:70:LR_Tom Hit 3.wav
320,192,57712,1,0,0:0:0:70:LR_Tom Hit 2.wav
64,192,57712,128,0,58049:0:0:0:0:
192,192,57880,1,0,0:0:0:70:LR_Tom Hit.wav
320,192,58049,128,0,58386:0:0:0:50:LR_Snare Fast.wav
448,192,58049,128,0,58386:0:0:0:0:
192,192,58217,1,0,0:0:0:0:
64,192,58386,1,0,0:0:0:50:LR_Snare Fast.wav
192,192,58386,1,0,0:0:0:0:
192,192,58554,128,0,58891:0:0:0:50:LR4_Kick HrW BRF.wav
64,192,58554,128,0,58891:0:0:0:0:
448,192,58723,1,0,0:0:0:0:
448,192,58891,1,0,0:0:0:50:LR_Snare Fast.wav
320,192,58891,1,0,0:0:0:0:
64,192,59060,128,0,59397:0:0:0:50:LR4_Kick HrW BRF.wav
448,192,59060,128,0,59397:0:0:0:0:
192,192,59228,128,0,59397:0:0:0:0:
320,192,59397,1,0,0:0:0:70:LR_Drum Hit HAT.wav
448,192,59903,1,0,0:0:0:40:LR_Snare Fast.wav
320,192,59903,1,0,0:0:0:0:
448,192,59987,1,0,0:0:0:40:LR_Snare Fast.wav
320,192,59987,1,0,0:0:0:0:
64,192,60071,1,0,0:0:0:40:LR4_SnareKKF.wav
192,192,60071,1,0,0:0:0:0:
192,192,60324,1,0,0:0:0:70:LR_Snare Fast.wav
448,192,60324,1,0,0:0:0:0:
64,192,60577,1,0,0:0:0:70:LR_Snare Fast.wav
320,192,60577,1,0,0:0:0:0:
448,192,60745,128,0,61419:0:0:0:50:LR4_Kick HrW BRF.wav
192,192,60745,128,0,61082:0:0:0:0:
64,192,61082,128,0,61419:0:0:0:70:LR_Drum EDge.wav
192,192,61419,1,0,0:0:0:70:LR_Snare Fast.wav
320,192,61419,1,0,0:0:0:0:
64,192,61588,1,0,0:0:0:50:LR_Drum Click.wav
192,192,61588,1,0,0:0:0:0:
320,192,61757,1,0,0:0:0:50:LR_DS - Snare.wav
448,192,61757,1,0,0:0:0:0:
192,192,61925,1,0,0:0:0:50:LR_Drum Click.wav
320,192,61925,1,0,0:0:0:0:
448,192,61925,1,0,0:0:0:0:
320,192,62262,1,0,0:0:0:50:LR_Drum Click.wav
448,192,62262,128,0,62599:0:0:0:0:
192,192,62262,128,0,62599:0:0:0:0:
64,192,62599,128,0,62768:0:0:0:0:
320,192,62768,1,0,0:0:0:70:LR_Tom Hit 3.wav
448,192,62768,1,0,0:0:0:0:
192,192,62936,1,0,0:0:0:70:LR_Tom Hit 2.wav
64,192,63105,128,0,63442:0:0:0:70:LR_Tom Hit.wav
320,192,63105,128,0,63442:0:0:0:0:
448,192,63442,128,0,63779:0:0:0:50:LR4_Kick HrW BRF.wav
192,192,63442,128,0,63611:0:0:0:0:
64,192,63611,128,0,63779:0:0:0:0:
192,192,63779,1,0,0:0:0:50:LR_Snare Fast.wav
320,192,63779,1,0,0:0:0:0:
448,192,63948,1,0,0:0:0:50:LR4_Kick HrW BRF.wav
320,192,63948,128,0,64116:0:0:0:0:
192,192,64116,1,0,0:0:0:0:
64,192,64285,128,0,64622:0:0:0:50:LR4_CyCV2.wav
448,192,64285,128,0,64622:0:0:0:0:
192,192,64622,128,0,64959:0:0:0:50:LR_Snare Fast.wav
320,192,64622,128,0,64959:0:0:0:0:
64,192,64959,1,0,0:0:0:50:LR_Drum Click.wav
448,192,64959,1,0,0:0:0:0:
448,192,65127,1,0,0:0:0:70:LR_Snare Fast.wav
320,192,65127,1,0,0:0:0:0:
64,192,65296,128,0,65464:0:0:0:70:LR_DS - Snare.wav
192,192,65296,1,0,0:0:0:0:
320,192,65464,1,0,0:0:0:70:LR_Snare Fast.wav
448,192,65464,1,0,0:0:0:0:
64,192,65633,1,0,0:0:0:70:LR_DS - Snare.wav
192,192,65633,1,0,0:0:0:0:
448,192,65802,1,0,0:0:0:70:LR_Snare Fast.wav
320,192,65802,1,0,0:0:0:0:
64,192,65802,1,0,0:0:0:0:
320,192,65970,1,0,0:0:0:70:LR_Snare Fast.wav
192,192,65970,1,0,0:0:0:0:
64,192,66139,128,0,68835:0:0:0:70:LR_Snare Fast.wav
192,192,66139,1,0,0:0:0:0:
448,192,66139,1,0,0:0:0:0:
320,192,66476,1,0,0:0:0:70:LR_Snare Fast.wav
448,192,66476,1,0,0:0:0:0:
192,192,66813,1,0,0:0:0:70:LR_Snare Fast.wav
320,192,66813,1,0,0:0:0:0:
192,192,67150,1,0,0:0:0:70:LR_Snare Fast.wav
448,192,67150,1,0,0:0:0:0:
320,192,67487,1,0,0:0:0:70:LR_Snare Fast.wav
448,192,67487,1,0,0:0:0:0:
192,192,67824,1,0,0:0:0:70:LR_Snare Fast.wav
448,192,67824,1,0,0:0:0:0:
192,192,68161,1,0,0:0:0:70:LR_Snare Fast.wav
320,192,68161,1,0,0:0:0:0:
192,192,68498,1,0,0:0:0:70:LR_Snare Fast.wav
448,192,68498,1,0,0:0:0:0:
320,192,68835,1,0,0:0:0:70:LR_Snare Fast.wav
448,192,68835,1,0,0:0:0:0:
64,192,69004,1,0,0:0:0:40:LR4_Kick HrW BRF.wav
192,192,69004,1,0,0:0:0:0:
64,192,69088,1,0,0:0:0:40:LR4_Kick HrW BRF.wav
192,192,69088,1,0,0:0:0:0:
448,192,69172,1,0,0:0:0:40:LR_Snare Fast.wav
320,192,69172,1,0,0:0:0:0:
64,192,69341,1,0,0:0:0:40:LR4_Kick HrW BRF.wav
192,192,69341,1,0,0:0:0:0:
64,192,69425,1,0,0:0:0:40:LR4_Kick HrW BRF.wav
192,192,69425,1,0,0:0:0:0:
448,192,69509,1,0,0:0:0:40:LR_Snare Fast.wav
320,192,69509,1,0,0:0:0:0:
448,192,69678,1,0,0:0:0:40:LR4_Kick HrW BRF.wav
320,192,69678,1,0,0:0:0:0:
320,192,69762,1,0,0:0:0:0:
448,192,69762,1,0,0:0:0:40:LR4_Kick HrW BRF.wav
64,192,69846,1,0,0:0:0:40:LR_Snare Fast.wav
192,192,69846,1,0,0:0:0:0:
448,192,70015,1,0,0:0:0:40:LR4_Kick HrW BRF.wav
320,192,70015,1,0,0:0:0:0:
320,192,70099,1,0,0:0:0:0:
448,192,70099,1,0,0:0:0:40:LR4_Kick HrW BRF.wav
192,192,70184,1,0,0:0:0:40:LR_Snare Fast.wav
64,192,70184,1,0,0:0:0:0:
320,192,70268,1,0,0:0:0:40:LR_Snare Fast.wav
448,192,70268,1,0,0:0:0:0:
64,192,70352,1,0,0:0:0:40:LR_Snare Fast.wav
192,192,70352,1,0,0:0:0:0:
320,192,70436,1,0,0:0:0:40:LR_Snare Fast.wav
448,192,70436,1,0,0:0:0:0:
64,192,70521,1,0,0:0:0:40:LR_Snare Fast.wav
192,192,70521,1,0,0:0:0:0:
320,192,70605,1,0,0:0:0:40:LR_Snare Fast.wav
448,192,70605,1,0,0:0:0:0:
64,192,70689,1,0,0:0:0:40:LR_Snare Fast.wav
192,192,70689,1,0,0:0:0:0:
320,192,70773,1,0,0:0:0:40:LR_Snare Fast.wav
448,192,70773,1,0,0:0:0:0:
192,192,70858,1,0,0:0:0:40:LR_Snare Fast.wav
64,192,70858,1,0,0:0:0:0:
320,192,70942,1,0,0:0:0:40:LR_Snare Fast.wav
448,192,70942,1,0,0:0:0:0:
64,192,71026,1,0,0:0:0:40:LR_Snare Fast.wav
192,192,71026,1,0,0:0:0:0:
320,192,71111,1,0,0:0:0:40:LR_Snare Fast.wav
448,192,71111,1,0,0:0:0:0:
64,192,71195,1,0,0:0:0:40:LR_Snare Fast.wav
192,192,71195,1,0,0:0:0:0:
448,192,71279,1,0,0:0:0:40:LR_Snare Fast.wav
320,192,71363,1,0,0:0:0:40:LR_Snare Fast.wav
192,192,71448,1,0,0:0:0:40:LR_Snare Fast.wav
448,192,71532,1,0,0:0:0:50:LR4_Kick HrW BRF.wav
320,192,71532,1,0,0:0:0:70:LR_Drum Finish.wav
64,192,71532,1,0,0:0:0:0:
64,192,76082,1,0,0:0:0:70:LR_Drum EDge.wav
448,192,76082,1,0,0:0:0:0:
320,192,76167,1,0,0:0:0:0:
192,192,76167,1,0,0:0:0:45:LR4_Kick HrW BRF.wav
64,192,76251,1,0,0:0:0:70:LR_Snare Fast.wav
448,192,76251,1,0,0:0:0:0:
64,192,76504,1,0,0:0:0:70:LR_Snare Fast.wav
320,192,76504,1,0,0:0:0:0:
448,192,76504,1,0,0:0:0:0:
64,192,76757,1,0,0:0:0:70:LR_Snare Fast.wav
192,192,76757,1,0,0:0:0:0:
448,192,76757,1,0,0:0:0:0:
192,192,76925,1,0,0:0:0:50:LR4_Kick HrW BRF.wav
320,192,76925,1,0,0:0:0:0:
448,192,77262,1,0,0:0:0:40:LR4_SnareKKF.wav
320,192,77262,1,0,0:0:0:0:
64,192,77262,1,0,0:0:0:40:LR_Drum Hit HAT.wav
192,192,77431,1,0,0:0:0:40:LR_Drum Hit HAT.wav
192,192,77599,1,0,0:0:0:40:LR_Drum Hit HAT.wav
320,192,77768,1,0,0:0:0:40:LR_Drum Hit HAT.wav
64,192,77768,1,0,0:0:0:40:LR4_Kick HrW BRF.wav
320,192,77936,1,0,0:0:0:40:LR4_SnareKKF.wav
192,192,77936,1,0,0:0:0:0:
448,192,77936,1,0,0:0:0:0:
64,192,78105,128,0,78273:0:0:0:0:
320,192,78273,1,0,0:0:0:40:LR4_Kick HrW BRF.wav
448,192,78273,1,0,0:0:0:0:
448,192,78442,128,0,78611:0:0:0:0:
192,192,78611,1,0,0:0:0:40:LR4_SnareKKF.wav
320,192,78611,1,0,0:0:0:0:
64,192,78611,1,0,0:0:0:0:
64,192,78779,128,0,79285:0:0:0:0:
448,192,78779,1,0,0:0:0:0:
192,192,79116,1,0,0:0:0:40:LR4_Kick HrW BRF.wav
320,192,79116,1,0,0:0:0:0:
448,192,79285,128,0,79622:0:0:0:40:LR4_SnareKKF.wav
320,192,79285,128,0,79453:0:0:0:0:
192,192,79285,1,0,0:0:0:0:
192,192,79622,1,0,0:0:0:40:LR4_Kick HrW BRF.wav
64,192,79622,128,0,79959:0:0:0:0:
192,192,79959,1,0,0:0:0:40:LR4_SnareKKF.wav
320,192,79959,1,0,0:0:0:0:
448,192,79959,1,0,0:0:0:0:
320,192,80127,1,0,0:0:0:40:bell.wav
448,192,80127,128,0,80464:0:0:0:0:
64,192,80464,1,0,0:0:0:40:LR4_Kick HrW BRF.wav
192,192,80464,1,0,0:0:0:0:
192,192,80633,1,0,0:0:0:0:
320,192,80633,1,0,0:0:0:40:LR4_SnareKKF.wav
448,192,80633,128,0,80970:0:0:0:0:
64,192,80970,1,0,0:0:0:40:LR4_Kick HrW BRF.wav
192,192,80970,1,0,0:0:0:0:
320,192,81139,128,0,81307:0:0:0:0:
64,192,81307,1,0,0:0:0:40:LR4_SnareKKF.wav
448,192,81307,1,0,0:0:0:0:
192,192,81307,1,0,0:0:0:0:
192,192,81476,128,0,81644:0:0:0:0:
320,192,81644,1,0,0:0:0:0:
192,192,81813,1,0,0:0:0:40:LR4_Kick HrW BRF.wav
64,192,81813,128,0,82318:0:0:0:0:
320,192,81981,1,0,0:0:0:40:LR4_SnareKKF.wav
448,192,81981,1,0,0:0:0:0:
192,192,82150,128,0,82318:0:0:0:0:
320,192,82318,1,0,0:0:0:40:LR4_Kick HrW BRF.wav
448,192,82318,128,0,82655:0:0:0:0:
64,192,82655,1,0,0:0:0:40:LR4_SnareKKF.wav
192,192,82698,1,0,0:0:0:0:
320,192,82740,1,0,0:0:0:0:
448,192,82782,1,0,0:0:0:0:
64,192,82824,1,0,0:0:0:0:
192,192,82866,1,0,0:0:0:0:
320,192,82908,1,0,0:0:0:0:
448,192,82950,1,0,0:0:0:0:
64,192,82993,1,0,0:0:0:40:LR4_SnareKKF.wav
192,192,83161,1,0,0:0:0:40:LR4_Kick HrW BRF.wav
320,192,83161,1,0,0:0:0:0:
448,192,83330,1,0,0:0:0:40:LR4_SnareKKF.wav
320,192,83330,1,0,0:0:0:0:
64,192,83330,1,0,0:0:0:0:
448,192,83498,1,0,0:0:0:0:
64,192,83667,128,0,84004:0:0:0:40:LR4_Kick HrW BRF.wav
192,192,83667,1,0,0:0:0:0:
320,192,83667,1,0,0:0:0:0:
448,192,84004,1,0,0:0:0:0:
320,192,84004,1,0,0:0:0:0:
192,192,84172,1,0,0:0:0:40:LR_Drum Hit HAT.wav
448,192,84341,1,0,0:0:0:50:LR_Drum Hit HAT.wav
192,192,84341,1,0,0:0:0:0:
64,192,84509,1,0,0:0:0:0:
192,192,84509,1,0,0:0:0:40:LR4_Kick HrW BRF.wav
320,192,84678,1,0,0:0:0:40:LR4_SnareKKF.wav
64,192,84678,1,0,0:0:0:0:
448,192,84678,1,0,0:0:0:0:
192,192,84846,128,0,85015:0:0:0:40:bell.wav
320,192,85015,1,0,0:0:0:40:LR4_Kick HrW BRF.wav
448,192,85015,128,0,85352:0:0:0:0:
320,192,85184,1,0,0:0:0:0:
64,192,85352,1,0,0:0:0:50:LR_Drum Hit HAT.wav
192,192,85352,1,0,0:0:0:0:
320,192,85521,1,0,0:0:0:50:LR_Drum Hit HAT.wav
320,192,85689,1,0,0:0:0:50:LR_Drum Hit HAT.wav
192,192,85858,1,0,0:0:0:50:LR_Drum Hit HAT.wav
64,192,85858,1,0,0:0:0:40:LR4_Kick HrW BRF.wav
320,192,86026,1,0,0:0:0:40:LR4_SnareKKF.wav
192,192,86026,1,0,0:0:0:0:
448,192,86026,1,0,0:0:0:0:
64,192,86195,128,0,86363:0:0:0:40:LR4_Kick HrW BRF.wav
320,192,86363,1,0,0:0:0:40:LR4_Kick HrW BRF.wav
448,192,86363,128,0,86700:0:0:0:0:
64,192,86700,1,0,0:0:0:50:LR_Drum Hit HAT.wav
192,192,86700,1,0,0:0:0:0:
320,192,86700,1,0,0:0:0:0:
448,192,86869,1,0,0:0:0:50:LR_Drum Hit HAT.wav
320,192,86869,128,0,87206:0:0:0:0:
192,192,87206,1,0,0:0:0:40:LR_Drum Hit HAT.wav
64,192,87206,1,0,0:0:0:0:
448,192,87375,1,0,0:0:0:0:
64,192,87375,128,0,87712:0:0:0:40:LR4_SnareKKF.wav
320,192,87375,1,0,0:0:0:0:
192,192,87712,1,0,0:0:0:40:LR4_Kick HrW BRF.wav
320,192,87712,1,0,0:0:0:0:
448,192,88049,128,0,88386:0:0:0:40:LR4_SnareKKF.wav
64,192,88049,1,0,0:0:0:40:LR4_CyCV2.wav
192,192,88049,1,0,0:0:0:0:
320,192,88049,1,0,0:0:0:0:
320,192,88386,1,0,0:0:0:70:bell.wav
192,192,88554,1,0,0:0:0:40:LR_Snare Fast.wav
320,192,88554,1,0,0:0:0:0:
192,192,88723,1,0,0:0:0:40:LR4_SnareKKF.wav
448,192,88723,1,0,0:0:0:0:
64,192,88723,1,0,0:0:0:0:
64,192,88891,128,0,89060:0:0:0:0:
192,192,89060,1,0,0:0:0:40:LR4_Kick HrW BRF.wav
448,192,89060,128,0,89228:0:0:0:0:
320,192,89228,128,0,89397:0:0:0:0:
64,192,89397,1,0,0:0:0:40:LR4_SnareKKF.wav
192,192,89397,1,0,0:0:0:0:
448,192,89397,128,0,89903:0:0:0:0:
320,192,89566,128,0,89903:0:0:0:0:
64,192,89903,1,0,0:0:0:40:LR_Snare Fast.wav
192,192,89903,1,0,0:0:0:0:
320,192,90071,1,0,0:0:0:40:LR4_SnareKKF.wav
448,192,90071,128,0,90408:0:0:0:0:
64,192,90071,1,0,0:0:0:0:
64,192,90408,128,0,90745:0:0:0:40:LR4_Kick HrW BRF.wav
192,192,90408,1,0,0:0:0:0:
320,192,90745,1,0,0:0:0:40:LR4_SnareKKF.wav
448,192,90745,1,0,0:0:0:0:
192,192,90745,1,0,0:0:0:0:
192,192,90914,128,0,91251:0:0:0:0:
64,192,90914,1,0,0:0:0:0:
320,192,91251,1,0,0:0:0:40:LR_Snare Fast.wav
448,192,91251,1,0,0:0:0:0:
192,192,91419,1,0,0:0:0:40:LR4_SnareKKF.wav
64,192,91419,128,0,91757:0:0:0:0:
448,192,91419,1,0,0:0:0:0:
320,192,91757,1,0,0:0:0:40:LR4_Kick HrW BRF.wav
192,192,91757,1,0,0:0:0:0:
448,192,91925,128,0,92094:0:0:0:0:
192,192,92094,1,0,0:0:0:40:LR4_SnareKKF.wav
320,192,92094,1,0,0:0:0:0:
64,192,92094,1,0,0:0:0:0:
64,192,92262,128,0,92431:0:0:0:0:
448,192,92431,1,0,0:0:0:70:bell.wav
320,192,92599,1,0,0:0:0:40:LR_Snare Fast.wav
192,192,92599,1,0,0:0:0:0:
320,192,92768,1,0,0:0:0:40:LR4_SnareKKF.wav
64,192,92768,128,0,92936:0:0:0:0:
448,192,92768,1,0,0:0:0:0:
192,192,92936,128,0,93105:0:0:0:0:
320,192,93105,1,0,0:0:0:40:LR4_Kick HrW BRF.wav
448,192,93105,128,0,93442:0:0:0:0:
64,192,93442,1,0,0:0:0:40:LR4_SnareKKF.wav
192,192,93484,1,0,0:0:0:0:
320,192,93526,1,0,0:0:0:0:
448,192,93568,1,0,0:0:0:0:
64,192,93611,1,0,0:0:0:0:
192,192,93653,1,0,0:0:0:0:
320,192,93695,1,0,0:0:0:0:
448,192,93737,1,0,0:0:0:0:
64,192,93779,1,0,0:0:0:40:LR4_SnareKKF.wav
192,192,93948,1,0,0:0:0:40:LR_Snare Fast.wav
320,192,93948,1,0,0:0:0:0:
64,192,94116,1,0,0:0:0:40:LR4_SnareKKF.wav
320,192,94116,1,0,0:0:0:0:
448,192,94116,1,0,0:0:0:0:
64,192,94285,1,0,0:0:0:40:bell.wav
192,192,94453,128,0,94790:0:0:0:40:LR4_Kick HrW BRF.wav
448,192,94453,128,0,94622:0:0:0:0:
320,192,94622,128,0,94790:0:0:0:0:
64,192,94790,1,0,0:0:0:40:LR_Snare Fast.wav
448,192,94790,1,0,0:0:0:0:
192,192,94959,1,0,0:0:0:70:bell.wav
192,192,95127,1,0,0:0:0:70:bell.wav
448,192,95296,1,0,0:0:0:40:LR_Snare Fast.wav
320,192,95296,1,0,0:0:0:0:
448,192,95464,1,0,0:0:0:40:LR_Snare Fast.wav
64,192,95464,1,0,0:0:0:0:
192,192,95464,1,0,0:0:0:0:
320,192,95633,128,0,95802:0:0:0:40:LR4_SnareKKF.wav
64,192,95802,128,0,96139:0:0:0:40:LR4_Kick HrW BRF.wav
448,192,95802,128,0,96139:0:0:0:0:
192,192,96139,1,0,0:0:0:40:LR_Snare Fast.wav
320,192,96139,1,0,0:0:0:0:
320,192,96307,128,0,96476:0:0:0:40:LR_Snare Fast.wav
192,192,96307,128,0,96476:0:0:0:0:
64,192,96476,1,0,0:0:0:0:
448,192,96476,1,0,0:0:0:40:LR4_SnareKKF.wav
320,192,96644,1,0,0:0:0:40:LR4_Kick HrW BRF.wav
192,192,96644,1,0,0:0:0:0:
192,192,96813,1,0,0:0:0:40:LR4_SnareKKF.wav
64,192,96813,1,0,0:0:0:0:
448,192,96813,1,0,0:0:0:0:
320,192,96981,128,0,97150:0:0:0:40:LR_Drum Hit HAT.wav
64,192,97150,1,0,0:0:0:70:bell.wav
192,192,97234,1,0,0:0:0:70:bell.wav
320,192,97318,1,0,0:0:0:70:bell.wav
448,192,97403,1,0,0:0:0:70:bell.wav
64,192,97487,1,0,0:0:0:70:bell.wav
192,192,97571,1,0,0:0:0:70:bell.wav
448,192,97655,1,0,0:0:0:70:bell.wav
320,192,97740,1,0,0:0:0:70:bell.wav
64,192,97824,1,0,0:0:0:70:bell.wav
192,192,97908,1,0,0:0:0:70:bell.wav
320,192,97993,1,0,0:0:0:70:bell.wav
448,192,98077,1,0,0:0:0:70:bell.wav
192,192,98161,1,0,0:0:0:70:bell.wav
320,192,98245,1,0,0:0:0:70:bell.wav
192,192,98330,1,0,0:0:0:70:bell.wav
320,192,98414,1,0,0:0:0:15:bell.wav
64,192,98498,1,0,0:0:0:50:LR_CymbalFSU.wav
192,192,98498,1,0,0:0:0:0:
448,192,98498,1,0,0:0:0:0:
320,192,98667,1,0,0:0:0:30:bell.wav
448,192,98835,1,0,0:0:0:40:LR_Drum Rim Fast.wav
192,192,98835,1,0,0:0:0:0:
64,192,99004,1,0,0:0:0:30:bell.wav
192,192,99088,1,0,0:0:0:30:bell.wav
448,192,99172,1,0,0:0:0:30:bell.wav
320,192,99257,1,0,0:0:0:30:bell.wav
64,192,99341,1,0,0:0:0:30:bell.wav
192,192,99425,1,0,0:0:0:30:bell.wav
320,192,99509,1,0,0:0:0:0:
448,192,99509,1,0,0:0:0:70:LR_Drum EDge.wav
64,192,99678,1,0,0:0:0:30:bell.wav
192,192,99762,1,0,0:0:0:30:bell.wav
320,192,99846,1,0,0:0:0:30:bell.wav
448,192,99931,1,0,0:0:0:15:bell.wav
320,192,100015,1,0,0:0:0:30:bell.wav
192,192,100099,1,0,0:0:0:30:bell.wav
64,192,100184,1,0,0:0:0:0:
448,192,100184,1,0,0:0:0:40:LR_Drum Rim Fast.wav
192,192,100352,1,0,0:0:0:30:bell.wav
64,192,100436,1,0,0:0:0:30:bell.wav
320,192,100521,1,0,0:0:0:30:bell.wav
448,192,100605,1,0,0:0:0:30:bell.wav
192,192,100689,1,0,0:0:0:30:bell.wav
320,192,100773,1,0,0:0:0:30:bell.wav
448,192,100858,1,0,0:0:0:0:
64,192,100858,1,0,0:0:0:60:LR_Drum EDge.wav
64,192,101026,1,0,0:0:0:30:bell.wav
192,192,101111,1,0,0:0:0:30:bell.wav
448,192,101195,1,0,0:0:0:0:
320,192,101195,1,0,0:0:0:40:LR4_Kick HrW BRF.wav
192,192,101363,1,0,0:0:0:30:bell.wav
64,192,101532,1,0,0:0:0:40:LR_Drum Rim Fast.wav
320,192,101532,1,0,0:0:0:0:
448,192,101700,1,0,0:0:0:30:bell.wav
192,192,101785,1,0,0:0:0:30:bell.wav
320,192,101869,1,0,0:0:0:30:bell.wav
64,192,101953,1,0,0:0:0:30:bell.wav
192,192,102037,1,0,0:0:0:30:bell.wav
320,192,102122,1,0,0:0:0:30:bell.wav
448,192,102206,1,0,0:0:0:60:LR_Drum EDge.wav
192,192,102206,1,0,0:0:0:0:
64,192,102375,1,0,0:0:0:30:bell.wav
320,192,102459,1,0,0:0:0:30:bell.wav
192,192,102543,1,0,0:0:0:30:bell.wav
448,192,102627,1,0,0:0:0:30:bell.wav
320,192,102712,1,0,0:0:0:30:bell.wav
192,192,102796,1,0,0:0:0:30:bell.wav
64,192,102880,1,0,0:0:0:40:LR_Drum Rim Fast.wav
320,192,102880,1,0,0:0:0:0:
448,192,103049,1,0,0:0:0:30:bell.wav
192,192,103133,1,0,0:0:0:30:bell.wav
320,192,103217,1,0,0:0:0:30:bell.wav
64,192,103302,1,0,0:0:0:30:bell.wav
192,192,103386,1,0,0:0:0:30:bell.wav
320,192,103470,1,0,0:0:0:30:bell.wav
448,192,103554,1,0,0:0:0:60:LR_Drum EDge.wav
64,192,103554,1,0,0:0:0:0:
192,192,103723,1,0,0:0:0:30:bell.wav
320,192,103807,1,0,0:0:0:30:bell.wav
448,192,103891,1,0,0:0:0:30:bell.wav
64,192,103891,1,0,0:0:0:30:bell.wav
192,192,104060,1,0,0:0:0:30:bell.wav
320,192,104228,1,0,0:0:0:40:LR_Drum Rim Fast.wav
448,192,104228,1,0,0:0:0:0:
64,192,104397,1,0,0:0:0:30:bell.wav
320,192,104481,1,0,0:0:0:30:bell.wav
192,192,104566,1,0,0:0:0:30:bell.wav
448,192,104650,1,0,0:0:0:30:bell.wav
320,192,104734,1,0,0:0:0:30:bell.wav
192,192,104818,1,0,0:0:0:30:bell.wav
448,192,104903,1,0,0:0:0:60:LR_Drum EDge.wav
64,192,104903,1,0,0:0:0:0:
192,192,105071,1,0,0:0:0:30:bell.wav
320,192,105155,1,0,0:0:0:30:bell.wav
64,192,105240,1,0,0:0:0:30:bell.wav
448,192,105240,1,0,0:0:0:30:bell.wav
192,192,105408,1,0,0:0:0:30:bell.wav
320,192,105577,1,0,0:0:0:40:LR_Drum Rim Fast.wav
448,192,105577,1,0,0:0:0:0:
64,192,105745,1,0,0:0:0:30:bell.wav
448,192,105830,1,0,0:0:0:30:bell.wav
192,192,105914,1,0,0:0:0:30:bell.wav
320,192,105914,1,0,0:0:0:0:
64,192,105998,1,0,0:0:0:30:bell.wav
448,192,106082,1,0,0:0:0:30:bell.wav
320,192,106167,1,0,0:0:0:30:bell.wav
192,192,106251,1,0,0:0:0:0:
64,192,106251,1,0,0:0:0:60:LR_Drum EDge.wav
448,192,106419,1,0,0:0:0:30:bell.wav
320,192,106504,1,0,0:0:0:30:bell.wav
192,192,106588,1,0,0:0:0:40:LR4_Kick HrW BRF.wav
64,192,106588,1,0,0:0:0:0:
320,192,106757,1,0,0:0:0:30:bell.wav
192,192,106925,1,0,0:0:0:40:LR_Drum Rim Fast.wav
448,192,106925,1,0,0:0:0:0:
64,192,107094,1,0,0:0:0:30:bell.wav
192,192,107178,1,0,0:0:0:30:bell.wav
448,192,107262,1,0,0:0:0:30:bell.wav
320,192,107346,1,0,0:0:0:30:bell.wav
192,192,107431,1,0,0:0:0:30:bell.wav
320,192,107515,1,0,0:0:0:30:bell.wav
192,192,107599,1,0,0:0:0:0:
64,192,107599,1,0,0:0:0:60:LR_Drum EDge.wav
320,192,107768,1,0,0:0:0:30:bell.wav
192,192,107852,1,0,0:0:0:30:bell.wav
64,192,107936,1,0,0:0:0:40:LR4_Kick HrW BRF.wav
448,192,107936,1,0,0:0:0:0:
320,192,108105,1,0,0:0:0:30:bell.wav
192,192,108273,1,0,0:0:0:40:LR_Drum Rim Fast.wav
448,192,108273,1,0,0:0:0:0:
64,192,108442,1,0,0:0:0:40:bell.wav
192,192,108526,1,0,0:0:0:40:bell.wav
448,192,108611,1,0,0:0:0:40:bell.wav
320,192,108695,1,0,0:0:0:40:bell.wav
192,192,108779,1,0,0:0:0:40:bell.wav
320,192,108863,1,0,0:0:0:40:bell.wav
64,192,108948,1,0,0:0:0:70:LR_Drum Click.wav
192,192,108948,1,0,0:0:0:40:LR4_SnareKKF.wav
448,192,108948,1,0,0:0:0:0:
64,192,109285,1,0,0:0:0:40:LR4_Kick HrW BRF.wav
192,192,109285,1,0,0:0:0:40:LR4_CyCV2.wav
320,192,109285,1,0,0:0:0:0:
448,192,109285,1,0,0:0:0:0:
320,192,109453,1,0,0:0:0:0:
64,192,109622,1,0,0:0:0:40:LR4_SnareKKF.wav
192,192,109622,1,0,0:0:0:0:
448,192,109622,1,0,0:0:0:0:
320,192,109790,1,0,0:0:0:0:
320,192,109959,1,0,0:0:0:70:bell.wav
192,192,110127,1,0,0:0:0:0:
64,192,110127,1,0,0:0:0:40:LR_Snare Fast.wav
192,192,110296,1,0,0:0:0:40:LR4_SnareKKF.wav
448,192,110296,1,0,0:0:0:0:
320,192,110296,1,0,0:0:0:0:
64,192,110464,1,0,0:0:0:0:
320,192,110633,1,0,0:0:0:40:LR4_Kick HrW BRF.wav
448,192,110633,1,0,0:0:0:0:
192,192,110802,1,0,0:0:0:0:
64,192,110970,1,0,0:0:0:40:LR4_SnareKKF.wav
320,192,110970,1,0,0:0:0:0:
448,192,110970,1,0,0:0:0:0:
192,192,111139,1,0,0:0:0:0:
192,192,111307,1,0,0:0:0:70:bell.wav
320,192,111476,1,0,0:0:0:70:LR_Snare Fast.wav
448,192,111476,1,0,0:0:0:0:
64,192,111644,1,0,0:0:0:40:LR4_SnareKKF.wav
320,192,111644,1,0,0:0:0:0:
192,192,111644,1,0,0:0:0:0:
448,192,111813,1,0,0:0:0:0:
320,192,111981,1,0,0:0:0:40:LR4_Kick HrW BRF.wav
64,192,111981,1,0,0:0:0:0:
192,192,112150,1,0,0:0:0:0:
64,192,112318,1,0,0:0:0:40:LR4_SnareKKF.wav
448,192,112318,1,0,0:0:0:0:
320,192,112318,1,0,0:0:0:0:
192,192,112487,1,0,0:0:0:0:
192,192,112655,1,0,0:0:0:70:bell.wav
64,192,112824,1,0,0:0:0:40:LR_Snare Fast.wav
320,192,112824,1,0,0:0:0:0:
64,192,112993,1,0,0:0:0:40:LR4_SnareKKF.wav
448,192,112993,1,0,0:0:0:0:
192,192,112993,1,0,0:0:0:0:
448,192,113161,1,0,0:0:0:0:
64,192,113330,1,0,0:0:0:40:LR4_Kick HrW BRF.wav
192,192,113330,1,0,0:0:0:0:
320,192,113498,1,0,0:0:0:0:
64,192,113667,1,0,0:0:0:40:LR4_SnareKKF.wav
448,192,113667,1,0,0:0:0:0:
192,192,113667,1,0,0:0:0:0:
320,192,113835,1,0,0:0:0:0:
320,192,114004,1,0,0:0:0:70:bell.wav
192,192,114172,1,0,0:0:0:40:LR_Snare Fast.wav
448,192,114172,1,0,0:0:0:0:
64,192,114341,1,0,0:0:0:40:LR4_SnareKKF.wav
448,192,114341,1,0,0:0:0:0:
320,192,114341,1,0,0:0:0:0:
192,192,114509,1,0,0:0:0:0:
320,192,114678,1,0,0:0:0:40:LR4_Kick HrW BRF.wav
448,192,114678,1,0,0:0:0:0:
64,192,114846,1,0,0:0:0:0:
192,192,115015,1,0,0:0:0:40:LR4_SnareKKF.wav
448,192,115015,1,0,0:0:0:0:
320,192,115015,1,0,0:0:0:0:
64,192,115184,1,0,0:0:0:0:
64,192,115352,1,0,0:0:0:70:bell.wav
320,192,115521,1,0,0:0:0:40:LR_Snare Fast.wav
448,192,115521,1,0,0:0:0:0:
192,192,115689,1,0,0:0:0:40:LR4_SnareKKF.wav
448,192,115689,1,0,0:0:0:0:
64,192,115689,1,0,0:0:0:0:
320,192,115858,1,0,0:0:0:0:
64,192,116026,1,0,0:0:0:40:LR4_Kick HrW BRF.wav
192,192,116026,1,0,0:0:0:0:
448,192,116195,1,0,0:0:0:0:
64,192,116363,1,0,0:0:0:40:LR4_SnareKKF.wav
320,192,116363,1,0,0:0:0:0:
192,192,116363,1,0,0:0:0:0:
448,192,116532,1,0,0:0:0:0:
448,192,116700,1,0,0:0:0:70:bell.wav
64,192,116869,1,0,0:0:0:40:LR_Snare Fast.wav
192,192,116869,1,0,0:0:0:0:
64,192,117037,1,0,0:0:0:40:LR4_SnareKKF.wav
320,192,117037,1,0,0:0:0:0:
448,192,117037,1,0,0:0:0:0:
192,192,117206,1,0,0:0:0:0:
64,192,117375,1,0,0:0:0:40:LR4_Kick HrW BRF.wav
448,192,117375,1,0,0:0:0:0:
320,192,117543,1,0,0:0:0:0:
64,192,117712,1,0,0:0:0:40:LR4_SnareKKF.wav
192,192,117712,1,0,0:0:0:0:
448,192,117712,1,0,0:0:0:0:
320,192,117880,1,0,0:0:0:0:
64,192,118049,1,0,0:0:0:70:bell.wav
192,192,118217,1,0,0:0:0:40:LR_Snare Fast.wav
320,192,118217,1,0,0:0:0:0:
64,192,118386,1,0,0:0:0:40:LR4_SnareKKF.wav
448,192,118386,1,0,0:0:0:0:
320,192,118386,1,0,0:0:0:0:
192,192,118554,1,0,0:0:0:0:
320,192,118723,1,0,0:0:0:40:LR4_Kick HrW BRF.wav
448,192,118723,1,0,0:0:0:0:
192,192,118891,1,0,0:0:0:0:
448,192,119060,1,0,0:0:0:40:LR4_SnareKKF.wav
64,192,119060,1,0,0:0:0:0:
320,192,119060,1,0,0:0:0:0:
192,192,119228,1,0,0:0:0:0:
448,192,119397,1,0,0:0:0:70:bell.wav
192,192,119566,1,0,0:0:0:40:LR_Snare Fast.wav
320,192,119566,1,0,0:0:0:0:
64,192,119734,1,0,0:0:0:40:LR4_SnareKKF.wav
448,192,119734,1,0,0:0:0:0:
320,192,119734,1,0,0:0:0:0:
192,192,119903,1,0,0:0:0:0:
320,192,120071,1,0,0:0:0:10:bell.wav
64,192,120071,1,0,0:0:0:0:
448,192,120240,1,0,0:0:0:10:bell.wav
64,192,120408,1,0,0:0:0:10:bell.wav
320,192,120577,1,0,0:0:0:10:bell.wav
192,192,120745,1,0,0:0:0:10:bell.wav
448,192,120914,1,0,0:0:0:10:bell.wav
64,192,121082,1,0,0:0:0:10:bell.wav
192,192,121251,1,0,0:0:0:10:bell.wav
320,192,121419,1,0,0:0:0:10:bell.wav
448,192,121588,1,0,0:0:0:10:bell.wav
192,192,121757,1,0,0:0:0:10:bell.wav
320,192,121925,1,0,0:0:0:10:bell.wav
64,192,122094,1,0,0:0:0:10:bell.wav
448,192,122262,1,0,0:0:0:10:bell.wav
320,192,122431,1,0,0:0:0:10:bell.wav
64,192,122599,1,0,0:0:0:10:bell.wav
320,192,122768,1,0,0:0:0:10:bell.wav
448,192,122768,1,0,0:0:0:0:
192,192,122936,1,0,0:0:0:10:bell.wav
448,192,123105,1,0,0:0:0:10:bell.wav
320,192,123273,1,0,0:0:0:10:bell.wav
64,192,123442,1,0,0:0:0:10:bell.wav
320,192,123611,1,0,0:0:0:10:bell.wav
192,192,123779,1,0,0:0:0:10:bell.wav
448,192,123948,1,0,0:0:0:10:bell.wav
64,192,124116,1,0,0:0:0:10:bell.wav
320,192,124285,1,0,0:0:0:10:bell.wav
192,192,124453,1,0,0:0:0:10:bell.wav
320,192,124622,1,0,0:0:0:10:bell.wav
192,192,124790,1,0,0:0:0:10:bell.wav
448,192,124790,1,0,0:0:0:0:
64,192,124959,1,0,0:0:0:10:bell.wav
192,192,125127,1,0,0:0:0:10:bell.wav
320,192,125296,1,0,0:0:0:10:bell.wav
192,192,125464,1,0,0:0:0:10:bell.wav
448,192,125464,1,0,0:0:0:0:
64,192,125633,1,0,0:0:0:10:bell.wav
320,192,125802,1,0,0:0:0:10:bell.wav
448,192,125970,1,0,0:0:0:10:bell.wav
64,192,126139,1,0,0:0:0:10:bell.wav
320,192,126307,1,0,0:0:0:10:bell.wav
192,192,126476,1,0,0:0:0:10:bell.wav
64,192,126644,1,0,0:0:0:10:bell.wav
192,192,126813,1,0,0:0:0:10:bell.wav
320,192,126981,1,0,0:0:0:10:bell.wav
64,192,127150,1,0,0:0:0:10:bell.wav
448,192,127318,1,0,0:0:0:10:bell.wav
192,192,127487,1,0,0:0:0:10:bell.wav
64,192,127487,1,0,0:0:0:0:
320,192,127655,1,0,0:0:0:10:bell.wav
64,192,127824,1,0,0:0:0:10:bell.wav
448,192,127993,1,0,0:0:0:10:bell.wav
192,192,128161,1,0,0:0:0:10:bell.wav
320,192,128161,1,0,0:0:0:0:
64,192,128330,1,0,0:0:0:10:bell.wav
448,192,128498,1,0,0:0:0:10:bell.wav
320,192,128667,1,0,0:0:0:10:bell.wav
192,192,128835,1,0,0:0:0:10:bell.wav
448,192,129004,1,0,0:0:0:10:bell.wav
320,192,129172,1,0,0:0:0:10:bell.wav
192,192,129341,1,0,0:0:0:10:bell.wav
64,192,129509,1,0,0:0:0:10:bell.wav
320,192,129509,1,0,0:0:0:0:
448,192,129678,1,0,0:0:0:10:bell.wav
320,192,129846,1,0,0:0:0:10:bell.wav
192,192,130015,1,0,0:0:0:10:bell.wav
320,192,130184,1,0,0:0:0:10:bell.wav
64,192,130352,1,0,0:0:0:10:bell.wav
192,192,130521,1,0,0:0:0:10:bell.wav
320,192,130689,1,0,0:0:0:10:bell.wav
64,192,130858,1,0,0:0:0:50:LR_Snare Fast.wav
192,192,130858,1,0,0:0:0:0:
448,192,130858,1,0,0:0:0:0:
64,192,131195,1,0,0:0:0:50:LR_Snare Fast.wav
192,192,131195,1,0,0:0:0:0:
320,192,131195,1,0,0:0:0:0:
64,192,131532,1,0,0:0:0:50:LR_Snare Fast.wav
192,192,131532,1,0,0:0:0:0:
448,192,131532,1,0,0:0:0:0:
64,192,131869,1,0,0:0:0:50:LR_Snare Fast.wav
320,192,131869,1,0,0:0:0:0:
448,192,131869,1,0,0:0:0:0:
192,192,132206,1,0,0:0:0:50:LR_Snare Fast.wav
320,192,132206,1,0,0:0:0:0:
448,192,132206,1,0,0:0:0:0:
64,192,132543,1,0,0:0:0:50:LR_Snare Fast.wav
192,192,132543,1,0,0:0:0:0:
320,192,132543,1,0,0:0:0:0:
64,192,132880,1,0,0:0:0:50:LR_Snare Fast.wav
192,192,132880,1,0,0:0:0:0:
448,192,132880,1,0,0:0:0:0:
64,192,133217,1,0,0:0:0:50:LR_Snare Fast.wav
320,192,133217,1,0,0:0:0:0:
448,192,133217,1,0,0:0:0:0:
320,192,133386,1,0,0:0:0:40:LR4_Kick HrW BRF.wav
192,192,133386,1,0,0:0:0:0:
64,192,133554,1,0,0:0:0:50:LR_Snare Fast.wav
192,192,133554,1,0,0:0:0:0:
448,192,133554,1,0,0:0:0:0:
64,192,133891,1,0,0:0:0:50:LR_Snare Fast.wav
192,192,133891,1,0,0:0:0:0:
448,192,133891,1,0,0:0:0:0:
64,192,134228,1,0,0:0:0:50:LR_Snare Fast.wav
320,192,134228,1,0,0:0:0:0:
448,192,134228,1,0,0:0:0:0:
192,192,134566,1,0,0:0:0:50:LR_Snare Fast.wav
320,192,134566,1,0,0:0:0:0:
448,192,134566,1,0,0:0:0:0:
64,192,134903,1,0,0:0:0:50:LR_Snare Fast.wav
320,192,134903,1,0,0:0:0:0:
448,192,134903,1,0,0:0:0:0:
64,192,135240,1,0,0:0:0:50:LR_Snare Fast.wav
192,192,135240,1,0,0:0:0:0:
448,192,135240,1,0,0:0:0:0:
64,192,135577,1,0,0:0:0:50:LR_Snare Fast.wav
192,192,135577,1,0,0:0:0:0:
320,192,135577,1,0,0:0:0:0:
64,192,135914,1,0,0:0:0:50:LR_Snare Fast.wav
320,192,135914,1,0,0:0:0:0:
448,192,135914,1,0,0:0:0:0:
192,192,136082,1,0,0:0:0:40:LR4_Kick HrW BRF.wav
320,192,136082,1,0,0:0:0:0:
192,192,136251,1,0,0:0:0:50:LR_Snare Fast.wav
64,192,136251,1,0,0:0:0:0:
448,192,136251,1,0,0:0:0:0:
64,192,136419,1,0,0:0:0:50:LR_Snare Fast.wav
448,192,136419,1,0,0:0:0:0:
320,192,136588,1,0,0:0:0:50:LR_Snare Fast.wav
192,192,136588,1,0,0:0:0:0:
64,192,136757,1,0,0:0:0:50:LR_Snare Fast.wav
448,192,136757,1,0,0:0:0:0:
320,192,136925,1,0,0:0:0:50:LR_Snare Fast.wav
192,192,136925,1,0,0:0:0:0:
64,192,137094,1,0,0:0:0:50:LR_Snare Fast.wav
448,192,137094,1,0,0:0:0:0:
320,192,137262,1,0,0:0:0:50:LR_Snare Fast.wav
192,192,137262,1,0,0:0:0:0:
64,192,137431,1,0,0:0:0:50:LR_Snare Fast.wav
448,192,137431,1,0,0:0:0:0:
192,192,137599,1,0,0:0:0:50:LR_Snare Fast.wav
320,192,137599,1,0,0:0:0:0:
64,192,137768,1,0,0:0:0:50:LR_Snare Fast.wav
192,192,137768,1,0,0:0:0:0:
192,192,137936,1,0,0:0:0:50:LR_Snare Fast.wav
320,192,137936,1,0,0:0:0:0:
320,192,138105,1,0,0:0:0:50:LR_Snare Fast.wav
448,192,138105,1,0,0:0:0:0:
64,192,138273,1,0,0:0:0:50:LR_Snare Fast.wav
192,192,138273,1,0,0:0:0:0:
320,192,138442,1,0,0:0:0:50:LR_Snare Fast.wav
448,192,138442,1,0,0:0:0:0:
192,192,138611,1,0,0:0:0:50:LR_Snare Fast.wav
320,192,138611,1,0,0:0:0:0:
64,192,138779,1,0,0:0:0:50:LR_Snare Fast.wav
192,192,138779,1,0,0:0:0:0:
320,192,138948,1,0,0:0:0:40:LR_Snare Fast.wav
448,192,138948,1,0,0:0:0:0:
64,192,139060,1,0,0:0:0:0:
192,192,139060,1,0,0:0:0:40:LR_Snare Fast.wav
448,192,139158,1,0,0:0:0:40:LR_Snare Fast.wav
320,192,139158,1,0,0:0:0:0:
192,192,139285,1,0,0:0:0:40:LR_Snare Fast.wav
64,192,139285,1,0,0:0:0:0:
320,192,139397,1,0,0:0:0:40:LR_Snare Fast.wav
448,192,139397,1,0,0:0:0:0:
64,192,139509,1,0,0:0:0:40:LR_Snare Fast.wav
192,192,139509,1,0,0:0:0:0:
448,192,139622,1,0,0:0:0:40:LR_Snare Fast.wav
320,192,139622,1,0,0:0:0:0:
64,192,139734,1,0,0:0:0:0:
192,192,139734,1,0,0:0:0:40:LR_Snare Fast.wav
448,192,139846,1,0,0:0:0:40:LR_Snare Fast.wav
320,192,139846,1,0,0:0:0:0:
192,192,139959,1,0,0:0:0:40:LR_Snare Fast.wav
64,192,139959,1,0,0:0:0:0:
320,192,140071,1,0,0:0:0:40:LR_Snare Fast.wav
448,192,140071,1,0,0:0:0:0:
192,192,140169,1,0,0:0:0:40:LR_Snare Fast.wav
64,192,140169,1,0,0:0:0:0:
64,192,140296,1,0,0:0:0:40:LR4_Kick HrW BRF.wav
448,192,140296,1,0,0:0:0:70:LR_Drum Finish.wav
320,192,140296,1,0,0:0:0:0:
192,192,141223,1,0,0:0:0:0:
320,192,141307,1,0,0:0:0:0:
448,192,141391,1,0,0:0:0:0:
64,192,141476,1,0,0:0:0:0:
192,192,141560,1,0,0:0:0:0:
64,192,141644,128,0,142318:0:0:0:40:LR4_Kick HrW BRF.wav
448,192,141644,128,0,142318:0:0:0:0:
320,192,141644,1,0,0:0:0:0:
192,192,142318,1,0,0:0:0:40:LR4_SnareKKF.wav
320,192,142318,1,0,0:0:0:0:
64,192,142655,128,0,143667:0:0:0:40:LR4_Kick HrW BRF.wav
192,192,142655,128,0,143498:0:0:0:0:
320,192,142655,128,0,143330:0:0:0:0:
320,192,143667,1,0,0:0:0:40:LR4_SnareKKF.wav
448,192,143667,1,0,0:0:0:0:
192,192,143891,1,0,0:0:0:70:bell.wav
64,192,144004,1,0,0:0:0:70:bell.wav
448,192,144214,1,0,0:0:0:0:
192,192,144341,128,0,145015:0:0:0:50:LR4_Kick HrW BRF.wav
320,192,144341,128,0,145015:0:0:0:0:
64,192,145015,1,0,0:0:0:40:LR4_SnareKKF.wav
448,192,145015,1,0,0:0:0:0:
192,192,145184,1,0,0:0:0:40:LR4_Kick HrW BRF.wav
320,192,145184,1,0,0:0:0:0:
192,192,145352,1,0,0:0:0:40:LR4_Kick HrW BRF.wav
320,192,145352,1,0,0:0:0:0:
64,192,145521,128,0,145689:0:0:0:40:LR_Snare Fast.wav
448,192,145521,128,0,145689:0:0:0:0:
64,192,145858,128,0,146026:0:0:0:40:LR_Snare Fast.wav
448,192,145858,128,0,146026:0:0:0:0:
192,192,146026,1,0,0:0:0:0:
320,192,146026,1,0,0:0:0:0:
192,192,146195,128,0,146363:0:0:0:40:LR_Snare Fast.wav
320,192,146363,1,0,0:0:0:0:
448,192,146363,1,0,0:0:0:0:
64,192,146363,128,0,146532:0:0:0:0:
192,192,146532,128,0,146700:0:0:0:0:
448,192,146700,1,0,0:0:0:0:
320,192,146785,1,0,0:0:0:0:
192,192,146869,1,0,0:0:0:0:
64,192,146953,1,0,0:0:0:0:
448,192,147037,128,0,147712:0:0:0:40:LR4_Kick HrW BRF.wav
320,192,147037,1,0,0:0:0:0:
64,192,147206,1,0,0:0:0:0:
192,192,147375,1,0,0:0:0:0:
320,192,147543,1,0,0:0:0:0:
64,192,147712,1,0,0:0:0:40:LR4_SnareKKF.wav
192,192,147712,1,0,0:0:0:0:
320,192,147796,1,0,0:0:0:0:
448,192,147880,1,0,0:0:0:0:
192,192,148049,128,0,149060:0:0:0:40:LR4_SnareKKF.wav
64,192,148049,1,0,0:0:0:0:
448,192,148133,1,0,0:0:0:0:
320,192,148217,128,0,148723:0:0:0:0:
64,192,148723,128,0,149060:0:0:0:40:LR4_Kick HrW BRF.wav
320,192,149060,1,0,0:0:0:40:LR4_SnareKKF.wav
448,192,149060,1,0,0:0:0:0:
192,192,149285,1,0,0:0:0:70:bell.wav
448,192,149397,1,0,0:0:0:60:bell.wav
64,192,149608,1,0,0:0:0:40:bell.wav
192,192,149734,128,0,150408:0:0:0:40:LR_Snare Fast.wav
448,192,149734,1,0,0:0:0:0:
320,192,150071,1,0,0:0:0:40:LR_Snare Fast.wav
448,192,150071,1,0,0:0:0:0:
64,192,150408,1,0,0:0:0:40:LR4_SnareKKF.wav
320,192,150408,1,0,0:0:0:0:
448,192,150535,1,0,0:0:0:0:
192,192,150619,1,0,0:0:0:0:
64,192,150745,128,0,151082:0:0:0:40:LR4_Kick HrW BRF.wav
320,192,150745,128,0,151082:0:0:0:0:
192,192,151251,128,0,151757:0:0:0:40:LR4_Kick HrW BRF.wav
448,192,151251,128,0,151757:0:0:0:0:
64,192,151757,1,0,0:0:0:40:LR4_SnareKKF.wav
320,192,151757,1,0,0:0:0:0:
192,192,151925,128,0,152094:0:0:0:0:
320,192,152009,128,0,152094:0:0:0:0:
64,192,152094,128,0,152262:0:0:0:0:
448,192,152262,128,0,152431:0:0:0:0:
64,192,152431,1,0,0:0:0:40:LR4_Kick HrW BRF.wav
320,192,152431,128,0,153105:0:0:0:0:
192,192,152431,128,0,153105:0:0:0:0:
64,192,153105,1,0,0:0:0:40:LR4_SnareKKF.wav
448,192,153105,1,0,0:0:0:0:
64,192,153442,1,0,0:0:0:40:LR_Snare Fast.wav
192,192,153442,128,0,153779:0:0:0:0:
448,192,153442,128,0,153779:0:0:0:0:
448,192,153948,1,0,0:0:0:40:LR_Snare Fast.wav
64,192,153948,128,0,154285:0:0:0:0:
320,192,153948,1,0,0:0:0:0:
192,192,154116,128,0,154285:0:0:0:0:
320,192,154285,128,0,154453:0:0:0:0:
64,192,154453,1,0,0:0:0:40:LR4_SnareKKF.wav
192,192,154453,1,0,0:0:0:0:
448,192,154453,128,0,154959:0:0:0:0:
320,192,154790,128,0,154959:0:0:0:0:
192,192,154959,128,0,155127:0:0:0:0:
320,192,155127,1,0,0:0:0:40:LR4_Kick HrW BRF.wav
448,192,155127,1,0,0:0:0:0:
64,192,155127,128,0,155802:0:0:0:0:
192,192,155296,1,0,0:0:0:0:
448,192,155464,1,0,0:0:0:0:
192,192,155802,1,0,0:0:0:40:LR4_SnareKKF.wav
448,192,155802,1,0,0:0:0:0:
192,192,156139,128,0,156813:0:0:0:40:LR_Snare Fast.wav
320,192,156139,1,0,0:0:0:0:
64,192,156307,1,0,0:0:0:0:
320,192,156644,1,0,0:0:0:0:
64,192,156813,128,0,157150:0:0:0:40:LR4_Kick HrW BRF.wav
448,192,156813,1,0,0:0:0:0:
448,192,157150,1,0,0:0:0:40:LR_Snare Fast.wav
320,192,157150,1,0,0:0:0:0:
64,192,157375,1,0,0:0:0:70:bell.wav
320,192,157445,1,0,0:0:0:70:bell.wav
448,192,157698,1,0,0:0:0:40:bell.wav
64,192,157824,128,0,158498:0:0:0:40:LR4_Kick HrW BRF.wav
192,192,157824,1,0,0:0:0:0:
448,192,157993,1,0,0:0:0:0:
320,192,158161,1,0,0:0:0:0:
192,192,158330,1,0,0:0:0:0:
320,192,158498,1,0,0:0:0:35:LR4_SnareKKF.wav
448,192,158498,1,0,0:0:0:0:
192,192,158667,1,0,0:0:0:35:LR4_SnareKKF.wav
64,192,158835,128,0,159509:0:0:0:40:LR4_Kick HrW BRF.wav
448,192,158835,1,0,0:0:0:0:
320,192,159004,1,0,0:0:0:0:
192,192,159172,1,0,0:0:0:0:
448,192,159341,1,0,0:0:0:0:
192,192,159509,128,0,159846:0:0:0:40:LR_Snare Fast.wav
320,192,159509,1,0,0:0:0:0:
448,192,159678,1,0,0:0:0:0:
64,192,159846,1,0,0:0:0:40:LR4_SnareKKF.wav
320,192,159846,1,0,0:0:0:0:
448,192,159931,128,0,160015:0:0:0:0:
320,192,160015,128,0,160099:0:0:0:0:
192,192,160099,128,0,160184:0:0:0:0:
64,192,160184,128,0,160268:0:0:0:0:
448,192,160268,128,0,160352:0:0:0:0:
320,192,160352,128,0,160521:0:0:0:0:
192,192,160436,128,0,160521:0:0:0:0:
64,192,160521,1,0,0:0:0:40:LR4_Kick HrW BRF.wav
448,192,160521,128,0,160773:0:0:0:0:
192,192,160689,1,0,0:0:0:0:
320,192,160773,1,0,0:0:0:0:
64,192,160858,128,0,160942:0:0:0:0:
192,192,160942,128,0,161026:0:0:0:0:
320,192,161026,128,0,161195:0:0:0:0:
448,192,161111,128,0,161195:0:0:0:0:
192,192,161195,1,0,0:0:0:40:LR4_Kick HrW BRF.wav
64,192,161195,128,0,161448:0:0:0:0:
320,192,161363,1,0,0:0:0:0:
192,192,161448,1,0,0:0:0:0:
448,192,161532,128,0,161616:0:0:0:0:
320,192,161616,128,0,161700:0:0:0:0:
192,192,161700,128,0,161869:0:0:0:0:
64,192,161785,128,0,161869:0:0:0:0:
320,192,161869,1,0,0:0:0:40:LR4_Kick HrW BRF.wav
448,192,161869,128,0,162122:0:0:0:0:
192,192,162037,1,0,0:0:0:0:
320,192,162122,1,0,0:0:0:0:
64,192,162206,128,0,162290:0:0:0:0:
192,192,162290,128,0,162375:0:0:0:0:
320,192,162375,128,0,162543:0:0:0:0:
448,192,162459,128,0,162543:0:0:0:0:
192,192,162543,1,0,0:0:0:40:LR4_Kick HrW BRF.wav
64,192,162543,128,0,163217:0:0:0:0:
448,192,162712,128,0,163217:0:0:0:40:bell.wav
192,192,163217,1,0,0:0:0:55:LR4_CyCV2.wav
320,192,163217,1,0,0:0:0:70:LR_Drum EDge.wav
64,192,163386,1,0,0:0:0:0:
192,192,163554,1,0,0:0:0:40:LR_Drum EDge.wav
448,192,163554,1,0,0:0:0:0:
64,192,163723,1,0,0:0:0:40:bell.wav
192,192,163807,1,0,0:0:0:40:LR_Drum Rim Fast.wav
448,192,163807,1,0,0:0:0:0:
320,192,163891,1,0,0:0:0:40:bell.wav
64,192,163976,1,0,0:0:0:40:LR_Drum Rim Fast.wav
192,192,163976,1,0,0:0:0:0:
320,192,164060,1,0,0:0:0:70:LR_Drum EDge.wav
448,192,164060,1,0,0:0:0:0:
192,192,164228,1,0,0:0:0:40:LR_Drum Rim Fast.wav
64,192,164397,1,0,0:0:0:70:LR_DS - Snare.wav
320,192,164397,1,0,0:0:0:0:
448,192,164566,1,0,0:0:0:70:LR_Drum EDge.wav
320,192,164566,1,0,0:0:0:0:
192,192,164734,1,0,0:0:0:70:LR_Drum EDge.wav
64,192,164903,1,0,0:0:0:40:LR_Snare Fast.wav
320,192,164903,1,0,0:0:0:0:
448,192,165071,1,0,0:0:0:0:
64,192,165155,1,0,0:0:0:0:
320,192,165155,1,0,0:0:0:0:
192,192,165240,1,0,0:0:0:70:LR_Drum EDge.wav
448,192,165324,1,0,0:0:0:0:
320,192,165324,1,0,0:0:0:0:
64,192,165408,1,0,0:0:0:70:LR_Drum EDge.wav
192,192,165408,1,0,0:0:0:0:
320,192,165577,1,0,0:0:0:40:LR_Snare Fast.wav
192,192,165577,1,0,0:0:0:0:
448,192,165577,1,0,0:0:0:0:
64,192,165914,1,0,0:0:0:40:LR_Snare Fast.wav
192,192,165914,1,0,0:0:0:0:
320,192,165914,1,0,0:0:0:40:LR4_CyCV2.wav
320,192,166082,1,0,0:0:0:0:
64,192,166251,1,0,0:0:0:40:LR4_SnareKKF.wav
192,192,166251,1,0,0:0:0:0:
448,192,166251,1,0,0:0:0:0:
320,192,166419,1,0,0:0:0:40:LR_Snare Fast.wav
448,192,166419,1,0,0:0:0:0:
192,192,166588,1,0,0:0:0:40:LR_Snare Fast.wav
64,192,166757,1,0,0:0:0:40:LR4_SnareKKF.wav
320,192,166757,1,0,0:0:0:0:
448,192,166757,1,0,0:0:0:0:
192,192,166925,1,0,0:0:0:0:
448,192,167094,1,0,0:0:0:70:LR_Drum Click.wav
320,192,167094,1,0,0:0:0:0:
192,192,167262,1,0,0:0:0:0:
64,192,167431,1,0,0:0:0:70:LR_Drum Click.wav
320,192,167431,1,0,0:0:0:0:
448,192,167599,1,0,0:0:0:0:
192,192,167599,1,0,0:0:0:40:LR4_SnareKKF.wav
64,192,167599,1,0,0:0:0:0:
448,192,167768,1,0,0:0:0:40:LR_Snare Fast.wav
320,192,167768,1,0,0:0:0:0:
64,192,167936,1,0,0:0:0:40:LR_Snare Fast.wav
192,192,167936,1,0,0:0:0:0:
320,192,168105,1,0,0:0:0:40:LR_Snare Fast.wav
448,192,168105,1,0,0:0:0:0:
192,192,168273,1,0,0:0:0:40:LR4_SnareKKF.wav
320,192,168273,1,0,0:0:0:0:
64,192,168273,1,0,0:0:0:0:
448,192,168442,1,0,0:0:0:0:
64,192,168611,1,0,0:0:0:40:LR_Snare Fast.wav
192,192,168611,1,0,0:0:0:0:
64,192,168779,1,0,0:0:0:40:LR_Snare Fast.wav
192,192,168779,1,0,0:0:0:0:
448,192,168948,1,0,0:0:0:0:
64,192,168948,1,0,0:0:0:0:
320,192,168948,1,0,0:0:0:40:LR4_SnareKKF.wav
192,192,169116,1,0,0:0:0:0:
320,192,169285,1,0,0:0:0:40:LR_Snare Fast.wav
448,192,169285,1,0,0:0:0:0:
64,192,169453,1,0,0:0:0:0:
192,192,169453,1,0,0:0:0:40:LR_Snare Fast.wav
448,192,169622,1,0,0:0:0:0:
192,192,169790,1,0,0:0:0:40:LR4_SnareKKF.wav
320,192,169790,1,0,0:0:0:0:
64,192,169790,1,0,0:0:0:0:
64,192,169959,1,0,0:0:0:40:LR_Snare Fast.wav
320,192,170127,1,0,0:0:0:40:LR_Snare Fast.wav
192,192,170127,1,0,0:0:0:0:
64,192,170296,1,0,0:0:0:40:LR4_SnareKKF.wav
320,192,170296,1,0,0:0:0:0:
448,192,170296,1,0,0:0:0:0:
64,192,170464,1,0,0:0:0:40:LR_Snare Fast.wav
192,192,170464,1,0,0:0:0:0:
192,192,170633,1,0,0:0:0:40:LR_Snare Fast.wav
448,192,170633,1,0,0:0:0:0:
320,192,170802,1,0,0:0:0:40:LR_Snare Fast.wav
448,192,170802,1,0,0:0:0:0:
64,192,170970,1,0,0:0:0:40:LR4_SnareKKF.wav
192,192,170970,1,0,0:0:0:0:
320,192,170970,1,0,0:0:0:0:
448,192,171139,1,0,0:0:0:0:
64,192,171307,1,0,0:0:0:40:LR_Snare Fast.wav
192,192,171307,1,0,0:0:0:0:
320,192,171476,1,0,0:0:0:0:
192,192,171644,1,0,0:0:0:40:LR4_SnareKKF.wav
448,192,171644,1,0,0:0:0:0:
64,192,171644,1,0,0:0:0:0:
320,192,171813,1,0,0:0:0:40:LR_Snare Fast.wav
448,192,171813,1,0,0:0:0:0:
192,192,171981,1,0,0:0:0:40:LR_Snare Fast.wav
64,192,171981,1,0,0:0:0:0:
64,192,172150,1,0,0:0:0:40:LR4_SnareKKF.wav
320,192,172150,1,0,0:0:0:0:
448,192,172150,1,0,0:0:0:0:
192,192,172318,1,0,0:0:0:0:
320,192,172487,1,0,0:0:0:70:LR_Drum Click.wav
448,192,172487,1,0,0:0:0:0:
64,192,172655,1,0,0:0:0:0:
192,192,172824,1,0,0:0:0:70:LR_Drum Click.wav
320,192,172824,1,0,0:0:0:0:
64,192,172993,1,0,0:0:0:0:
320,192,172993,1,0,0:0:0:0:
448,192,172993,1,0,0:0:0:0:
192,192,173161,1,0,0:0:0:40:LR_Snare Fast.wav
64,192,173161,1,0,0:0:0:0:
320,192,173330,1,0,0:0:0:40:LR_Snare Fast.wav
448,192,173330,1,0,0:0:0:0:
192,192,173498,1,0,0:0:0:40:LR_Snare Fast.wav
64,192,173498,1,0,0:0:0:0:
64,192,173667,1,0,0:0:0:40:LR4_SnareKKF.wav
448,192,173667,1,0,0:0:0:0:
320,192,173667,1,0,0:0:0:0:
192,192,173835,1,0,0:0:0:0:
64,192,174004,1,0,0:0:0:40:LR_Snare Fast.wav
448,192,174004,1,0,0:0:0:0:
320,192,174172,1,0,0:0:0:0:
64,192,174341,1,0,0:0:0:40:LR4_SnareKKF.wav
192,192,174341,1,0,0:0:0:0:
448,192,174341,1,0,0:0:0:0:
320,192,174509,1,0,0:0:0:40:LR_Snare Fast.wav
448,192,174509,1,0,0:0:0:0:
192,192,174678,1,0,0:0:0:0:
64,192,174846,1,0,0:0:0:40:LR_Snare Fast.wav
320,192,174846,1,0,0:0:0:0:
192,192,175015,1,0,0:0:0:0:
320,192,175184,1,0,0:0:0:40:LR4_SnareKKF.wav
448,192,175184,1,0,0:0:0:0:
64,192,175184,1,0,0:0:0:0:
448,192,175352,1,0,0:0:0:0:
64,192,175521,1,0,0:0:0:40:LR_Snare Fast.wav
192,192,175521,1,0,0:0:0:0:
192,192,175689,1,0,0:0:0:40:LR4_SnareKKF.wav
320,192,175689,1,0,0:0:0:0:
448,192,175689,1,0,0:0:0:0:
64,192,175858,1,0,0:0:0:40:LR_Snare Fast.wav
192,192,175858,1,0,0:0:0:0:
64,192,175942,1,0,0:0:0:40:LR_Snare Fast.wav
192,192,175942,1,0,0:0:0:0:
320,192,176026,1,0,0:0:0:70:LR_DS - Snare.wav
448,192,176026,1,0,0:0:0:0:
192,192,176195,1,0,0:0:0:70:LR_DS - Snare.wav
64,192,176195,1,0,0:0:0:0:
320,192,176363,1,0,0:0:0:70:LR_DS - Snare.wav
448,192,176363,1,0,0:0:0:0:
192,192,176532,1,0,0:0:0:0:
448,192,176700,1,0,0:0:0:70:LR_Drum Finish.wav
64,192,176700,1,0,0:0:0:40:LR4_CyCV2.wav
192,192,176700,1,0,0:0:0:0:
320,192,176700,1,0,0:0:0:0:
320,192,176869,1,0,0:0:0:0:
64,192,177037,1,0,0:0:0:40:LR4_SnareKKF.wav
192,192,177037,1,0,0:0:0:0:
448,192,177037,1,0,0:0:0:0:
320,192,177206,1,0,0:0:0:40:LR_Snare Fast.wav
448,192,177206,1,0,0:0:0:0:
192,192,177375,1,0,0:0:0:40:LR_Snare Fast.wav
64,192,177543,1,0,0:0:0:40:LR4_SnareKKF.wav
320,192,177543,1,0,0:0:0:0:
448,192,177543,1,0,0:0:0:0:
192,192,177712,1,0,0:0:0:0:
448,192,177880,1,0,0:0:0:70:LR_Drum Click.wav
320,192,177880,1,0,0:0:0:0:
192,192,178049,1,0,0:0:0:0:
64,192,178217,1,0,0:0:0:70:LR_Drum Click.wav
320,192,178217,1,0,0:0:0:0:
448,192,178386,1,0,0:0:0:0:
192,192,178386,1,0,0:0:0:40:LR4_SnareKKF.wav
320,192,178386,1,0,0:0:0:0:
64,192,178554,1,0,0:0:0:40:LR_Snare Fast.wav
192,192,178554,1,0,0:0:0:0:
192,192,178723,1,0,0:0:0:40:LR_Snare Fast.wav
320,192,178723,1,0,0:0:0:0:
320,192,178891,1,0,0:0:0:40:LR_Snare Fast.wav
448,192,178891,1,0,0:0:0:0:
192,192,179060,1,0,0:0:0:40:LR4_SnareKKF.wav
448,192,179060,1,0,0:0:0:0:
64,192,179060,1,0,0:0:0:0:
320,192,179228,1,0,0:0:0:0:
64,192,179397,1,0,0:0:0:40:LR_Snare Fast.wav
192,192,179397,1,0,0:0:0:0:
64,192,179566,1,0,0:0:0:40:LR_Snare Fast.wav
192,192,179566,1,0,0:0:0:0:
192,192,179734,1,0,0:0:0:40:LR4_SnareKKF.wav
320,192,179734,1,0,0:0:0:0:
448,192,179734,1,0,0:0:0:0:
64,192,179903,1,0,0:0:0:0:
320,192,180071,1,0,0:0:0:40:LR_Snare Fast.wav
448,192,180071,1,0,0:0:0:0:
192,192,180240,1,0,0:0:0:0:
64,192,180240,1,0,0:0:0:40:LR_Snare Fast.wav
448,192,180408,1,0,0:0:0:0:
64,192,180577,1,0,0:0:0:40:LR4_SnareKKF.wav
320,192,180577,1,0,0:0:0:0:
192,192,180577,1,0,0:0:0:0:
64,192,180745,1,0,0:0:0:40:LR_Snare Fast.wav
320,192,180914,1,0,0:0:0:40:LR_Snare Fast.wav
192,192,180914,1,0,0:0:0:0:
64,192,181082,1,0,0:0:0:40:LR4_SnareKKF.wav
320,192,181082,1,0,0:0:0:0:
448,192,181082,1,0,0:0:0:0:
192,192,181251,1,0,0:0:0:0:
64,192,181251,1,0,0:0:0:40:LR_Snare Fast.wav
192,192,181419,1,0,0:0:0:40:LR_Snare Fast.wav
320,192,181419,1,0,0:0:0:0:
320,192,181588,1,0,0:0:0:40:LR_Snare Fast.wav
448,192,181588,1,0,0:0:0:0:
64,192,181757,1,0,0:0:0:40:LR4_SnareKKF.wav
192,192,181757,1,0,0:0:0:0:
448,192,181757,1,0,0:0:0:0:
320,192,181925,1,0,0:0:0:0:
64,192,182094,1,0,0:0:0:40:LR_Snare Fast.wav
192,192,182094,1,0,0:0:0:0:
320,192,182262,1,0,0:0:0:0:
192,192,182431,1,0,0:0:0:40:LR4_SnareKKF.wav
448,192,182431,1,0,0:0:0:0:
64,192,182431,1,0,0:0:0:0:
320,192,182599,1,0,0:0:0:40:LR_Snare Fast.wav
448,192,182599,1,0,0:0:0:0:
192,192,182768,1,0,0:0:0:40:LR_Snare Fast.wav
64,192,182936,1,0,0:0:0:40:LR4_SnareKKF.wav
320,192,182936,1,0,0:0:0:0:
448,192,182936,1,0,0:0:0:0:
192,192,183105,1,0,0:0:0:0:
320,192,183273,1,0,0:0:0:70:LR_Drum Click.wav
448,192,183273,1,0,0:0:0:0:
64,192,183442,1,0,0:0:0:0:
192,192,183611,1,0,0:0:0:70:LR_Drum Click.wav
320,192,183611,1,0,0:0:0:0:
64,192,183779,1,0,0:0:0:40:LR4_SnareKKF.wav
320,192,183779,1,0,0:0:0:0:
448,192,183779,1,0,0:0:0:0:
192,192,183948,1,0,0:0:0:40:LR_Snare Fast.wav
64,192,183948,1,0,0:0:0:0:
448,192,184116,1,0,0:0:0:70:LR_Snare Fast.wav
320,192,184116,1,0,0:0:0:0:
192,192,184285,1,0,0:0:0:70:LR_Snare Fast.wav
64,192,184285,1,0,0:0:0:0:
448,192,184453,1,0,0:0:0:40:LR4_SnareKKF.wav
192,192,184453,1,0,0:0:0:0:
320,192,184453,1,0,0:0:0:0:
64,192,184622,1,0,0:0:0:0:
448,192,184790,1,0,0:0:0:40:LR_Snare Fast.wav
192,192,184790,1,0,0:0:0:0:
320,192,184959,1,0,0:0:0:0:
64,192,185127,1,0,0:0:0:70:LR_Snare Fast.wav
192,192,185127,1,0,0:0:0:0:
320,192,185296,1,0,0:0:0:40:LR_Snare Fast.wav
448,192,185296,1,0,0:0:0:0:
64,192,185464,1,0,0:0:0:0:
192,192,185464,1,0,0:0:0:40:LR4_SnareKKF.wav
448,192,185464,1,0,0:0:0:0:
320,192,185633,1,0,0:0:0:40:LR4_Kick HrW BRF.wav
192,192,185633,1,0,0:0:0:0:
320,192,185802,1,0,0:0:0:0:
192,192,185970,1,0,0:0:0:40:LR4_SnareKKF.wav
448,192,185970,1,0,0:0:0:0:
64,192,185970,1,0,0:0:0:0:
64,192,186139,1,0,0:0:0:0:
448,192,186307,1,0,0:0:0:40:LR_Snare Fast.wav
320,192,186307,1,0,0:0:0:0:
192,192,186476,1,0,0:0:0:40:LR4_SnareKKF.wav
320,192,186476,1,0,0:0:0:0:
64,192,186476,1,0,0:0:0:0:
320,192,186644,1,0,0:0:0:40:LR_Snare Fast.wav
448,192,186644,1,0,0:0:0:0:
320,192,186728,1,0,0:0:0:40:LR_Snare Fast.wav
448,192,186728,1,0,0:0:0:0:
64,192,186813,1,0,0:0:0:70:LR_DS - Snare.wav
192,192,186813,1,0,0:0:0:0:
320,192,186981,1,0,0:0:0:70:LR_DS - Snare.wav
448,192,186981,1,0,0:0:0:0:
64,192,187150,1,0,0:0:0:70:LR_DS - Snare.wav
192,192,187150,1,0,0:0:0:0:
320,192,187318,1,0,0:0:0:0:
64,192,187487,1,0,0:0:0:70:LR_Drum Finish.wav
192,192,187487,1,0,0:0:0:0:
448,192,187487,1,0,0:0:0:40:LR4_CyCV2.wav
64,192,189846,1,0,0:0:0:40:LR4_SnareKKF.wav
320,192,189846,1,0,0:0:0:0:
448,192,189846,1,0,0:0:0:0:
192,192,190184,1,0,0:0:0:40:LR4_Kick HrW BRF.wav
320,192,190184,1,0,0:0:0:0:
64,192,190184,128,0,191532:0:0:0:0:
192,192,190521,1,0,0:0:0:40:LR4_SnareKKF.wav
448,192,190521,1,0,0:0:0:0:
320,192,190689,1,0,0:0:0:0:
192,192,190858,1,0,0:0:0:70:bell.wav
448,192,191026,1,0,0:0:0:40:LR4_Kick HrW BRF.wav
320,192,191195,1,0,0:0:0:40:LR4_SnareKKF.wav
192,192,191195,1,0,0:0:0:0:
448,192,191363,1,0,0:0:0:0:
320,192,191532,128,0,192880:0:0:0:40:LR4_Kick HrW BRF.wav
192,192,191532,1,0,0:0:0:0:
448,192,191700,1,0,0:0:0:0:
64,192,191869,1,0,0:0:0:40:LR4_SnareKKF.wav
192,192,191869,1,0,0:0:0:0:
448,192,192037,1,0,0:0:0:0:
192,192,192206,1,0,0:0:0:70:bell.wav
64,192,192375,1,0,0:0:0:40:LR4_Kick HrW BRF.wav
192,192,192543,1,0,0:0:0:40:LR4_SnareKKF.wav
448,192,192543,1,0,0:0:0:0:
64,192,192712,1,0,0:0:0:0:
448,192,192880,128,0,194228:0:0:0:40:LR4_Kick HrW BRF.wav
192,192,192880,1,0,0:0:0:0:
64,192,193049,1,0,0:0:0:0:
192,192,193217,1,0,0:0:0:40:LR4_SnareKKF.wav
320,192,193217,1,0,0:0:0:0:
64,192,193386,1,0,0:0:0:0:
192,192,193554,1,0,0:0:0:70:bell.wav
320,192,193723,1,0,0:0:0:40:LR4_Kick HrW BRF.wav
64,192,193891,1,0,0:0:0:40:LR4_SnareKKF.wav
192,192,193891,1,0,0:0:0:0:
64,192,194060,1,0,0:0:0:0:
320,192,194228,1,0,0:0:0:40:LR4_Kick HrW BRF.wav
192,192,194228,1,0,0:0:0:0:
64,192,194397,128,0,194566:0:0:0:70:LR_Drum Hit HAT.wav
320,192,194566,1,0,0:0:0:40:LR4_SnareKKF.wav
448,192,194566,1,0,0:0:0:0:
64,192,194734,128,0,194903:0:0:0:70:LR_Drum Hit HAT.wav
192,192,194903,1,0,0:0:0:0:
320,192,194987,1,0,0:0:0:0:
64,192,195071,128,0,195240:0:0:0:40:LR4_Kick HrW BRF.wav
448,192,195071,1,0,0:0:0:60:bell.wav
192,192,195240,1,0,0:0:0:60:bell.wav
448,192,195240,128,0,195408:0:0:0:0:
320,192,195240,1,0,0:0:0:40:LR4_SnareKKF.wav
320,192,195408,128,0,195577:0:0:0:0:
192,192,195577,128,0,196925:0:0:0:40:LR4_Kick HrW BRF.wav
64,192,195577,1,0,0:0:0:0:
448,192,195745,1,0,0:0:0:0:
320,192,195914,1,0,0:0:0:40:LR4_SnareKKF.wav
448,192,195914,1,0,0:0:0:0:
64,192,196082,1,0,0:0:0:0:
320,192,196251,1,0,0:0:0:70:bell.wav
64,192,196419,1,0,0:0:0:40:LR4_Kick HrW BRF.wav
320,192,196588,1,0,0:0:0:40:LR4_SnareKKF.wav
448,192,196588,1,0,0:0:0:0:
448,192,196757,1,0,0:0:0:0:
64,192,196925,128,0,198273:0:0:0:40:LR4_Kick HrW BRF.wav
320,192,196925,1,0,0:0:0:0:
192,192,197094,1,0,0:0:0:0:
320,192,197262,1,0,0:0:0:40:LR4_SnareKKF.wav
448,192,197262,1,0,0:0:0:0:
192,192,197431,1,0,0:0:0:0:
320,192,197599,1,0,0:0:0:70:bell.wav
448,192,197768,1,0,0:0:0:40:LR4_Kick HrW BRF.wav
320,192,197936,1,0,0:0:0:40:LR4_SnareKKF.wav
192,192,197936,1,0,0:0:0:0:
448,192,198105,1,0,0:0:0:0:
320,192,198273,128,0,199622:0:0:0:40:LR4_Kick HrW BRF.wav
192,192,198273,1,0,0:0:0:0:
448,192,198442,1,0,0:0:0:0:
64,192,198611,1,0,0:0:0:40:LR4_SnareKKF.wav
192,192,198611,1,0,0:0:0:0:
448,192,198779,1,0,0:0:0:0:
192,192,198948,1,0,0:0:0:70:bell.wav
448,192,199116,1,0,0:0:0:40:LR4_Kick HrW BRF.wav
64,192,199285,1,0,0:0:0:40:LR4_SnareKKF.wav
192,192,199285,1,0,0:0:0:0:
64,192,199453,1,0,0:0:0:0:
192,192,199622,1,0,0:0:0:40:LR4_Kick HrW BRF.wav
448,192,199622,128,0,200970:0:0:0:0:
64,192,199790,1,0,0:0:0:0:
192,192,199959,1,0,0:0:0:40:LR4_SnareKKF.wav
320,192,199959,1,0,0:0:0:0:
64,192,200127,1,0,0:0:0:0:
192,192,200296,1,0,0:0:0:70:bell.wav
320,192,200464,1,0,0:0:0:40:LR4_Kick HrW BRF.wav
192,192,200633,1,0,0:0:0:40:LR4_SnareKKF.wav
64,192,200633,1,0,0:0:0:0:
320,192,200802,1,0,0:0:0:0:
192,192,200970,128,0,202318:0:0:0:40:LR4_Kick HrW BRF.wav
64,192,200970,1,0,0:0:0:0:
448,192,201139,1,0,0:0:0:0:
320,192,201307,1,0,0:0:0:40:LR4_SnareKKF.wav
64,192,201307,1,0,0:0:0:0:
448,192,201476,1,0,0:0:0:0:
320,192,201644,1,0,0:0:0:70:bell.wav
64,192,201813,1,0,0:0:0:40:LR4_Kick HrW BRF.wav
320,192,201981,1,0,0:0:0:40:LR4_SnareKKF.wav
448,192,201981,1,0,0:0:0:0:
320,192,202150,1,0,0:0:0:0:
448,192,202318,128,0,202993:0:0:0:40:LR4_Kick HrW BRF.wav
64,192,202318,1,0,0:0:0:0:
320,192,202487,1,0,0:0:0:0:
64,192,202655,1,0,0:0:0:40:LR4_SnareKKF.wav
192,192,202655,1,0,0:0:0:0:
64,192,202824,1,0,0:0:0:0:
192,192,202993,1,0,0:0:0:70:bell.wav
320,192,202993,128,0,203667:0:0:0:0:
64,192,203161,1,0,0:0:0:40:LR4_Kick HrW BRF.wav
192,192,203330,1,0,0:0:0:40:LR4_SnareKKF.wav
448,192,203330,1,0,0:0:0:0:
448,192,203498,1,0,0:0:0:0:
64,192,203667,128,0,205015:0:0:0:40:LR4_Kick HrW BRF.wav
192,192,203667,1,0,0:0:0:0:
448,192,203835,1,0,0:0:0:0:
320,192,204004,1,0,0:0:0:40:LR4_SnareKKF.wav
192,192,204004,1,0,0:0:0:0:
448,192,204172,1,0,0:0:0:0:
192,192,204341,1,0,0:0:0:70:bell.wav
448,192,204509,1,0,0:0:0:40:LR4_Kick HrW BRF.wav
192,192,204678,1,0,0:0:0:40:LR4_SnareKKF.wav
320,192,204678,1,0,0:0:0:0:
448,192,204846,1,0,0:0:0:0:
192,192,205015,128,0,206363:0:0:0:40:LR4_Kick HrW BRF.wav
320,192,205015,1,0,0:0:0:0:
448,192,205184,1,0,0:0:0:0:
64,192,205352,1,0,0:0:0:40:LR4_SnareKKF.wav
320,192,205352,1,0,0:0:0:0:
448,192,205521,1,0,0:0:0:0:
320,192,205689,1,0,0:0:0:70:bell.wav
64,192,205858,1,0,0:0:0:40:LR4_Kick HrW BRF.wav
448,192,206026,1,0,0:0:0:40:LR4_SnareKKF.wav
320,192,206026,1,0,0:0:0:0:
64,192,206195,1,0,0:0:0:0:
448,192,206363,128,0,207712:0:0:0:40:LR4_Kick HrW BRF.wav
320,192,206363,1,0,0:0:0:0:
64,192,206532,1,0,0:0:0:40:LR4_Kick HrW BRF.wav
192,192,206700,1,0,0:0:0:40:LR4_SnareKKF.wav
320,192,206700,1,0,0:0:0:0:
64,192,206869,1,0,0:0:0:40:LR4_Kick HrW BRF.wav
320,192,207037,1,0,0:0:0:40:LR4_Kick HrW BRF.wav
64,192,207206,1,0,0:0:0:40:LR4_SnareKKF.wav
192,192,207206,1,0,0:0:0:0:
320,192,207375,1,0,0:0:0:0:
192,192,207543,1,0,0:0:0:40:LR4_Kick HrW BRF.wav
320,192,207712,128,0,209060:0:0:0:40:LR4_Kick HrW BRF.wav
64,192,207712,1,0,0:0:0:0:
448,192,207880,1,0,0:0:0:40:LR4_Kick HrW BRF.wav
64,192,208049,1,0,0:0:0:40:LR4_SnareKKF.wav
192,192,208049,1,0,0:0:0:0:
448,192,208217,1,0,0:0:0:40:LR4_Kick HrW BRF.wav
64,192,208386,1,0,0:0:0:40:LR4_Kick HrW BRF.wav
192,192,208554,1,0,0:0:0:40:LR4_SnareKKF.wav
448,192,208554,1,0,0:0:0:0:
64,192,208723,1,0,0:0:0:40:LR4_Kick HrW BRF.wav
448,192,208891,1,0,0:0:0:0:
64,192,209060,128,0,211757:0:0:0:40:LR_Snare Fast.wav
192,192,209060,1,0,0:0:0:0:
448,192,209060,1,0,0:0:0:0:
192,192,209397,1,0,0:0:0:40:LR_Snare Fast.wav
320,192,209397,1,0,0:0:0:0:
320,192,209734,1,0,0:0:0:40:LR_Snare Fast.wav
448,192,209734,1,0,0:0:0:0:
192,192,210071,1,0,0:0:0:40:LR_Snare Fast.wav
448,192,210071,1,0,0:0:0:0:
320,192,210408,1,0,0:0:0:40:LR_Snare Fast.wav
192,192,210408,1,0,0:0:0:0:
320,192,210745,1,0,0:0:0:40:LR_Snare Fast.wav
448,192,210745,1,0,0:0:0:0:
192,192,211082,1,0,0:0:0:40:LR_Snare Fast.wav
448,192,211082,1,0,0:0:0:0:
320,192,211419,1,0,0:0:0:40:LR_Snare Fast.wav
192,192,211419,1,0,0:0:0:0:
448,192,211757,1,0,0:0:0:40:LR_Snare Fast.wav
192,192,211757,1,0,0:0:0:0:
64,192,211925,1,0,0:0:0:40:LR4_Kick HrW BRF.wav
320,192,211925,1,0,0:0:0:0:
192,192,212094,1,0,0:0:0:40:LR_Snare Fast.wav
448,192,212094,1,0,0:0:0:0:
64,192,212262,1,0,0:0:0:40:LR4_Kick HrW BRF.wav
320,192,212262,1,0,0:0:0:0:
64,192,212431,1,0,0:0:0:40:LR_Snare Fast.wav
448,192,212431,1,0,0:0:0:0:
192,192,212599,1,0,0:0:0:40:LR4_Kick HrW BRF.wav
320,192,212599,1,0,0:0:0:0:
448,192,212768,1,0,0:0:0:40:LR_Snare Fast.wav
64,192,212768,1,0,0:0:0:0:
320,192,212936,1,0,0:0:0:40:LR4_Kick HrW BRF.wav
192,192,212936,1,0,0:0:0:0:
320,192,213105,1,0,0:0:0:40:LR_Snare Fast.wav
448,192,213105,1,0,0:0:0:0:
64,192,213189,1,0,0:0:0:40:LR_Snare Fast.wav
192,192,213189,1,0,0:0:0:0:
320,192,213273,1,0,0:0:0:40:LR_Snare Fast.wav
448,192,213273,1,0,0:0:0:0:
64,192,213358,1,0,0:0:0:40:LR_Snare Fast.wav
192,192,213358,1,0,0:0:0:0:
320,192,213442,1,0,0:0:0:40:LR_Snare Fast.wav
448,192,213442,1,0,0:0:0:0:
64,192,213526,1,0,0:0:0:40:LR_Snare Fast.wav
192,192,213526,1,0,0:0:0:0:
320,192,213611,1,0,0:0:0:40:LR_Snare Fast.wav
448,192,213611,1,0,0:0:0:0:
64,192,213695,1,0,0:0:0:40:LR_Snare Fast.wav
192,192,213695,1,0,0:0:0:0:
320,192,213779,1,0,0:0:0:40:LR_Snare Fast.wav
448,192,213779,1,0,0:0:0:0:
64,192,213863,1,0,0:0:0:40:LR_Snare Fast.wav
192,192,213863,1,0,0:0:0:0:
320,192,213948,1,0,0:0:0:40:LR_Snare Fast.wav
448,192,213948,1,0,0:0:0:0:
64,192,214032,1,0,0:0:0:40:LR_Snare Fast.wav
192,192,214032,1,0,0:0:0:0:
320,192,214116,128,0,214453:0:0:0:40:LR_Snare Fast.wav
448,192,214116,128,0,214453:0:0:0:0:
192,192,214453,1,0,0:0:0:40:LR4_Kick HrW BRF.wav
64,192,214453,1,0,0:0:0:0:
64,192,214790,1,0,0:0:0:40:LR4_SnareKKF.wav
192,192,214790,1,0,0:0:0:0:
448,192,214790,1,0,0:0:0:0:
448,192,214959,1,0,0:0:0:0:
448,192,215127,1,0,0:0:0:70:bell.wav
320,192,215127,1,0,0:0:0:0:
192,192,215296,1,0,0:0:0:40:LR4_Kick HrW BRF.wav
64,192,215296,1,0,0:0:0:0:
448,192,215464,1,0,0:0:0:40:LR4_SnareKKF.wav
320,192,215464,1,0,0:0:0:0:
64,192,215464,1,0,0:0:0:0:
320,192,215633,1,0,0:0:0:0:
64,192,215802,1,0,0:0:0:40:LR4_Kick HrW BRF.wav
192,192,215802,1,0,0:0:0:0:
64,192,215970,1,0,0:0:0:0:
192,192,216139,1,0,0:0:0:40:LR4_SnareKKF.wav
448,192,216139,1,0,0:0:0:0:
64,192,216307,1,0,0:0:0:0:
192,192,216476,1,0,0:0:0:70:bell.wav
320,192,216644,1,0,0:0:0:40:LR4_Kick HrW BRF.wav
448,192,216644,1,0,0:0:0:0:
192,192,216813,1,0,0:0:0:40:LR4_SnareKKF.wav
320,192,216813,1,0,0:0:0:0:
64,192,216813,1,0,0:0:0:0:
448,192,216981,1,0,0:0:0:0:
64,192,217150,1,0,0:0:0:40:LR4_Kick HrW BRF.wav
192,192,217150,1,0,0:0:0:0:
320,192,217318,1,0,0:0:0:0:
192,192,217487,1,0,0:0:0:40:LR4_SnareKKF.wav
448,192,217487,1,0,0:0:0:0:
64,192,217487,1,0,0:0:0:0:
320,192,217655,1,0,0:0:0:40:LR4_Kick HrW BRF.wav
192,192,217655,1,0,0:0:0:0:
64,192,217824,1,0,0:0:0:70:bell.wav
320,192,217993,1,0,0:0:0:40:LR4_Kick HrW BRF.wav
192,192,217993,1,0,0:0:0:0:
192,192,218161,1,0,0:0:0:40:LR4_SnareKKF.wav
448,192,218161,1,0,0:0:0:0:
64,192,218161,1,0,0:0:0:0:
448,192,218330,1,0,0:0:0:0:
192,192,218498,1,0,0:0:0:40:LR4_Kick HrW BRF.wav
320,192,218498,1,0,0:0:0:0:
64,192,218667,1,0,0:0:0:0:
192,192,218835,1,0,0:0:0:40:LR4_SnareKKF.wav
448,192,218835,1,0,0:0:0:0:
320,192,218835,1,0,0:0:0:0:
192,192,219004,1,0,0:0:0:0:
448,192,219172,1,0,0:0:0:70:bell.wav
320,192,219257,1,0,0:0:0:0:
64,192,219341,1,0,0:0:0:40:LR4_Kick HrW BRF.wav
192,192,219341,1,0,0:0:0:0:
192,192,219509,1,0,0:0:0:40:LR4_SnareKKF.wav
448,192,219509,1,0,0:0:0:0:
320,192,219509,1,0,0:0:0:0:
448,192,219678,1,0,0:0:0:0:
64,192,219846,1,0,0:0:0:40:LR4_Kick HrW BRF.wav
192,192,219846,1,0,0:0:0:0:
320,192,220015,1,0,0:0:0:0:
448,192,220184,1,0,0:0:0:40:LR4_SnareKKF.wav
64,192,220184,1,0,0:0:0:0:
192,192,220226,1,0,0:0:0:0:
320,192,220268,1,0,0:0:0:0:
448,192,220310,1,0,0:0:0:0:
64,192,220352,1,0,0:0:0:0:
192,192,220394,1,0,0:0:0:0:
320,192,220436,1,0,0:0:0:0:
448,192,220478,1,0,0:0:0:0:
64,192,220521,1,0,0:0:0:40:LR_Drum Hit HAT.wav
320,192,220689,1,0,0:0:0:40:LR4_Kick HrW BRF.wav
192,192,220689,1,0,0:0:0:0:
64,192,220858,1,0,0:0:0:40:LR4_SnareKKF.wav
448,192,220858,1,0,0:0:0:0:
320,192,220858,1,0,0:0:0:0:
448,192,221026,1,0,0:0:0:0:
192,192,221195,1,0,0:0:0:40:LR4_Kick HrW BRF.wav
320,192,221195,1,0,0:0:0:0:
192,192,221363,1,0,0:0:0:0:
320,192,221532,1,0,0:0:0:40:LR4_SnareKKF.wav
448,192,221532,1,0,0:0:0:0:
64,192,221532,1,0,0:0:0:0:
64,192,221700,1,0,0:0:0:0:
64,192,221869,1,0,0:0:0:65:bell.wav
192,192,221869,1,0,0:0:0:0:
448,192,222037,1,0,0:0:0:40:LR4_Kick HrW BRF.wav
320,192,222037,1,0,0:0:0:0:
192,192,222206,1,0,0:0:0:40:LR4_SnareKKF.wav
64,192,222206,1,0,0:0:0:0:
320,192,222206,1,0,0:0:0:0:
448,192,222375,1,0,0:0:0:0:
64,192,222543,1,0,0:0:0:40:LR4_Kick HrW BRF.wav
192,192,222543,1,0,0:0:0:0:
448,192,222712,1,0,0:0:0:0:
192,192,222880,1,0,0:0:0:40:LR4_SnareKKF.wav
320,192,222880,1,0,0:0:0:0:
64,192,222880,1,0,0:0:0:0:
448,192,223049,1,0,0:0:0:0:
448,192,223217,1,0,0:0:0:65:bell.wav
64,192,223386,1,0,0:0:0:40:LR4_Kick HrW BRF.wav
192,192,223386,1,0,0:0:0:0:
448,192,223554,1,0,0:0:0:40:LR4_SnareKKF.wav
320,192,223554,1,0,0:0:0:0:
64,192,223554,1,0,0:0:0:0:
192,192,223723,1,0,0:0:0:0:
320,192,223891,1,0,0:0:0:40:LR4_Kick HrW BRF.wav
448,192,223891,1,0,0:0:0:0:
192,192,224060,1,0,0:0:0:0:
448,192,224228,1,0,0:0:0:40:LR4_SnareKKF.wav
64,192,224228,1,0,0:0:0:0:
320,192,224228,1,0,0:0:0:0:
192,192,224397,1,0,0:0:0:0:
448,192,224566,1,0,0:0:0:65:bell.wav
192,192,224734,1,0,0:0:0:40:LR4_Kick HrW BRF.wav
64,192,224734,1,0,0:0:0:0:
320,192,224903,1,0,0:0:0:40:LR4_SnareKKF.wav
192,192,224903,1,0,0:0:0:0:
448,192,224903,1,0,0:0:0:0:
448,192,225071,1,0,0:0:0:0:
192,192,225240,1,0,0:0:0:40:LR4_Kick HrW BRF.wav
64,192,225240,1,0,0:0:0:0:
320,192,225408,1,0,0:0:0:0:
448,192,225577,1,0,0:0:0:70:bell.wav
320,192,225745,1,0,0:0:0:0:
64,192,225914,1,0,0:0:0:40:LR4_SnareKKF.wav
448,192,225914,1,0,0:0:0:0:
192,192,225914,1,0,0:0:0:0:
320,192,226082,1,0,0:0:0:40:LR4_Kick HrW BRF.wav
448,192,226082,1,0,0:0:0:0:
320,192,226251,1,0,0:0:0:40:LR4_Kick HrW BRF.wav
448,192,226251,1,0,0:0:0:0:
320,192,226419,1,0,0:0:0:40:LR4_Kick HrW BRF.wav
448,192,226419,1,0,0:0:0:0:
64,192,226588,1,0,0:0:0:70:bell.wav
320,192,226757,1,0,0:0:0:0:
192,192,226925,1,0,0:0:0:40:LR4_Kick HrW BRF.wav
448,192,226925,1,0,0:0:0:0:
320,192,227094,1,0,0:0:0:0:
192,192,227262,1,0,0:0:0:40:LR4_SnareKKF.wav
448,192,227262,1,0,0:0:0:0:
64,192,227262,1,0,0:0:0:0:
320,192,227431,128,0,227936:0:0:0:70:bell.wav
448,192,227599,128,0,227936:0:0:0:70:bell.wav
64,192,227768,1,0,0:0:0:0:
64,192,227936,1,0,0:0:0:40:LR4_Kick HrW BRF.wav
192,192,227936,1,0,0:0:0:0:
448,192,228105,1,0,0:0:0:0:
320,192,228273,1,0,0:0:0:40:LR4_Kick HrW BRF.wav
192,192,228442,1,0,0:0:0:0:
64,192,228611,1,0,0:0:0:40:LR4_SnareKKF.wav
320,192,228611,1,0,0:0:0:0:
448,192,228611,1,0,0:0:0:0:
192,192,228779,1,0,0:0:0:40:LR4_Kick HrW BRF.wav
64,192,228779,1,0,0:0:0:0:
192,192,228948,1,0,0:0:0:40:LR4_Kick HrW BRF.wav
64,192,228948,1,0,0:0:0:0:
192,192,229116,1,0,0:0:0:40:LR4_Kick HrW BRF.wav
64,192,229116,1,0,0:0:0:0:
320,192,229285,128,0,229622:0:0:0:0:
448,192,229453,128,0,229622:0:0:0:40:LR_Snare Fast.wav
192,192,229622,1,0,0:0:0:0:
64,192,229622,1,0,0:0:0:40:LR4_Kick HrW BRF.wav
320,192,229790,1,0,0:0:0:40:LR_Snare Fast.wav
448,192,229790,1,0,0:0:0:0:
320,192,229875,1,0,0:0:0:40:LR_Snare Fast.wav
448,192,229875,1,0,0:0:0:0:
192,192,229959,1,0,0:0:0:40:LR4_SnareKKF.wav
64,192,229959,1,0,0:0:0:0:
320,192,230127,1,0,0:0:0:40:LR_Snare Fast.wav
448,192,230127,1,0,0:0:0:0:
64,192,230212,1,0,0:0:0:40:LR4_SnareKKF.wav
192,192,230212,1,0,0:0:0:0:
320,192,230464,1,0,0:0:0:40:LR4_SnareKKF.wav
192,192,230464,1,0,0:0:0:0:
448,192,230464,1,0,0:0:0:0:
64,192,230633,1,0,0:0:0:40:LR4_Kick HrW BRF.wav
192,192,230633,1,0,0:0:0:0:
64,192,230802,1,0,0:0:0:0:
448,192,230970,1,0,0:0:0:70:bell.wav
320,192,231012,1,0,0:0:0:0:
192,192,231054,1,0,0:0:0:0:
64,192,231096,1,0,0:0:0:0:
448,192,231139,1,0,0:0:0:0:
320,192,231181,1,0,0:0:0:0:
192,192,231223,1,0,0:0:0:0:
64,192,231265,1,0,0:0:0:0:
448,192,231307,1,0,0:0:0:40:LR4_SnareKKF.wav
320,192,231307,1,0,0:0:0:0:
192,192,231476,1,0,0:0:0:40:LR4_Kick HrW BRF.wav
64,192,231476,1,0,0:0:0:0:
192,192,231644,1,0,0:0:0:40:LR4_Kick HrW BRF.wav
64,192,231644,1,0,0:0:0:0:
192,192,231813,1,0,0:0:0:40:LR4_Kick HrW BRF.wav
64,192,231813,1,0,0:0:0:0:
448,192,231981,1,0,0:0:0:70:bell.wav
320,192,232150,1,0,0:0:0:0:
64,192,232318,1,0,0:0:0:40:LR4_Kick HrW BRF.wav
192,192,232318,1,0,0:0:0:0:
192,192,232487,1,0,0:0:0:0:
320,192,232487,1,0,0:0:0:0:
448,192,232655,1,0,0:0:0:40:LR4_SnareKKF.wav
64,192,232655,1,0,0:0:0:0:
320,192,232655,1,0,0:0:0:0:
448,192,232824,1,0,0:0:0:70:bell.wav
320,192,232824,1,0,0:0:0:0:
64,192,232993,1,0,0:0:0:70:bell.wav
192,192,232993,1,0,0:0:0:0:
448,192,233077,1,0,0:0:0:0:
64,192,233161,1,0,0:0:0:0:
320,192,233161,1,0,0:0:0:0:
192,192,233330,1,0,0:0:0:40:LR4_SnareKKF.wav
448,192,233330,1,0,0:0:0:0:
64,192,233498,1,0,0:0:0:40:LR4_Kick HrW BRF.wav
192,192,233498,1,0,0:0:0:0:
448,192,233582,1,0,0:0:0:40:LR4_Kick HrW BRF.wav
320,192,233582,1,0,0:0:0:0:
64,192,233667,1,0,0:0:0:40:LR4_Kick HrW BRF.wav
192,192,233667,1,0,0:0:0:0:
64,192,233835,1,0,0:0:0:40:LR4_SnareKKF.wav
320,192,233835,1,0,0:0:0:0:
320,192,234004,1,0,0:0:0:40:LR4_Kick HrW BRF.wav
448,192,234004,1,0,0:0:0:0:
64,192,234088,1,0,0:0:0:40:LR4_Kick HrW BRF.wav
192,192,234088,1,0,0:0:0:0:
320,192,234172,1,0,0:0:0:40:LR4_Kick HrW BRF.wav
448,192,234172,1,0,0:0:0:0:
64,192,234341,1,0,0:0:0:40:LR4_SnareKKF.wav
448,192,234341,1,0,0:0:0:0:
192,192,234509,1,0,0:0:0:70:LR_DS+-+Snare.wav
320,192,234509,1,0,0:0:0:0:
448,192,234678,1,0,0:0:0:0:
64,192,234678,1,0,0:0:0:70:LR_DS - Snare.wav
192,192,234846,1,0,0:0:0:70:LR_Drum EDge.wav
320,192,234846,1,0,0:0:0:0:
448,192,235015,1,0,0:0:0:0:
64,192,235015,1,0,0:0:0:70:LR_DS - Snare.wav
192,192,235184,1,0,0:0:0:70:LR_DS - Snare.wav
320,192,235184,1,0,0:0:0:0:
64,192,235352,1,0,0:0:0:50:LR_Snare Fast.wav
448,192,235352,1,0,0:0:0:0:
64,192,235521,1,0,0:0:0:50:LR_Snare Fast.wav
448,192,235521,1,0,0:0:0:0:
192,192,235689,1,0,0:0:0:70:LR_Snare Fast.wav
320,192,235689,1,0,0:0:0:0:
64,192,235858,128,0,236026:0:0:0:0:
192,192,235858,128,0,236026:0:0:0:70:LR_Snare Fast.wav
320,192,235858,128,0,236026:0:0:0:0:
448,192,235858,128,0,236026:0:0:0:0:
