osu file format v14

[General]
AudioFilename: ninelie 192.mp3
AudioLeadIn: 0
PreviewTime: 301848
Countdown: 0
SampleSet: Soft
StackLeniency: 0.7
Mode: 0
LetterboxInBreaks: 1
WidescreenStoryboard: 1

[Editor]
Bookmarks: 22188,44262,55292,77361,99430,110469,124257,146326,168395,190464,212533,223572,234602,256671,278740,289779,303572,328395,350464,367021,372533
DistanceSpacing: 0.5
BeatDivisor: 4
GridSize: 4
TimelineZoom: 2.2

[Metadata]
Title:ninelie (Oblongar Remix)
TitleUnicode:ninelie (Oblongar Remix)
Artist:Aimer with chelly (EGOIST)
ArtistUnicode:Aimer with chelly (EGOIST)
Creator:Zexous
Version:Burning Silence
Source:甲鉄城のカバネリ
Tags:dnb drum n bass koutetsujou no kabaneri of the iron fortress hiroyuki sawano
BeatmapID:1345922
BeatmapSetID:634283

[Difficulty]
HPDrainRate:6
CircleSize:4
OverallDifficulty:9
ApproachRate:9
SliderMultiplier:1.8
SliderTickRate:1

[Events]
//Background and Video events
0,0,"butterflies 1920.jpg",0,0
//Break Periods
2,278945,289179
//Storyboard Layer 0 (Background)
//Storyboard Layer 1 (Fail)
//Storyboard Layer 2 (Pass)
//Storyboard Layer 3 (Foreground)
//Storyboard Sound Samples

[TimingPoints]
125,344.827142857143,4,2,1,100,1,0
22193,-111.111111111111,4,2,2,100,0,0
27711,-111.111111111111,4,2,3,100,0,0
28228,-111.111111111111,4,2,2,100,0,0
28400,-111.111111111111,4,2,3,70,0,0
29090,-111.111111111111,4,2,3,40,0,0
29435,-111.111111111111,4,2,2,40,0,0
30469,-111.111111111111,4,2,2,100,0,0
38745,-111.111111111111,4,2,3,100,0,0
39262,-111.111111111111,4,2,2,100,0,0
39435,-111.111111111111,4,2,3,70,0,0
40124,-111.111111111111,4,2,3,40,0,0
40469,-111.111111111111,4,2,2,40,0,0
41504,-111.111111111111,4,2,2,100,0,0
44262,-111.111111111111,4,2,2,70,0,0
52883,-125,4,2,2,60,0,0
53573,-142.857142857143,4,2,2,50,0,0
54262,-166.666666666667,4,2,2,40,0,0
54952,-166.666666666667,4,2,2,55,0,0
55124,-166.666666666667,4,2,2,70,0,0
55297,-100,4,2,2,100,0,0
60814,-100,4,2,3,100,0,0
61331,-100,4,2,2,100,0,0
61504,-100,4,2,3,100,0,0
61849,-100,4,2,2,100,0,0
71849,-100,4,2,3,100,0,0
72366,-100,4,2,2,100,0,0
72538,-100,4,2,3,100,0,0
72883,-100,4,2,2,100,0,0
74607,-111.111111111111,4,2,2,80,0,0
75124,-125,4,2,2,60,0,0
75642,-142.857142857143,4,2,2,40,0,0
75986,-166.666666666667,4,2,2,20,0,0
76504,-200,4,2,2,10,0,0
77366,-200,4,2,0,20,0,0
91159,-151.515151515152,4,2,0,20,0,0
91676,-200,4,2,0,20,0,0
93917,-151.515151515152,4,2,0,20,0,0
94435,-200,4,2,0,20,0,0
99435,-142.857142857143,4,2,0,50,0,0
110469,-125,4,2,1,10,0,0
115986,-117.647058823529,4,2,2,20,0,0
116676,-117.647058823529,4,2,2,30,0,0
117366,-111.111111111111,4,2,2,40,0,0
118055,-111.111111111111,4,2,2,50,0,0
118745,-105.263157894737,4,2,2,60,0,0
119435,-105.263157894737,4,2,2,70,0,0
120124,-100,4,2,2,80,0,0
120814,-100,4,2,2,90,0,0
121504,-100,4,2,2,100,0,0
124262,-90.9090909090909,4,2,3,100,0,1
124348,-90.9090909090909,4,2,1,100,0,0
138055,-90.9090909090909,4,2,3,100,0,0
138142,-90.9090909090909,4,2,1,100,0,0
146331,-142.857142857143,4,2,1,20,0,0
149090,-90.909090909091,4,2,2,100,0,1
168055,-125,4,2,1,50,0,0
168400,-90.9090909090909,4,2,3,100,0,1
168486,-90.9090909090909,4,2,1,100,0,0
179435,-90.9090909090909,4,2,3,100,0,1
179521,-90.9090909090909,4,2,1,100,0,0
190469,-100,4,2,2,100,0,1
190555,-100,4,2,2,100,0,0
195986,-100,4,2,1,100,0,0
196504,-100,4,2,2,100,0,0
196676,-100,4,2,1,100,0,0
197021,-100,4,2,2,100,0,0
207021,-100,4,2,1,100,0,0
207538,-100,4,2,2,100,0,0
207710,-100,4,2,1,100,0,0
208055,-100,4,2,2,100,0,0
212538,-200,4,2,0,20,0,0
223572,-166.666666666667,4,2,2,10,0,0
224952,-153.846153846154,4,2,2,20,0,0
226331,-142.857142857143,4,2,2,30,0,0
227710,-133.333333333333,4,2,2,40,0,0
229090,-125,4,2,2,50,0,0
229779,-125,4,2,2,60,0,0
230469,-111.111111111111,4,2,2,70,0,0
231159,-111.111111111111,4,2,2,80,0,0
231848,-100,4,2,2,90,0,0
233228,-100,4,2,2,100,0,0
234607,-90.9090909090909,4,2,2,100,0,1
256503,-90.9090909090909,4,2,2,100,0,0
256676,-90.9090909090909,4,2,3,100,0,1
256762,-90.9090909090909,4,2,1,100,0,0
275986,-90.9090909090909,4,2,2,100,0,0
278400,-125,4,2,2,100,0,0
289779,-200,4,2,2,20,0,0
291159,-181.818181818182,4,2,2,30,0,0
292538,-166.666666666667,4,2,2,40,0,0
293917,-153.846153846154,4,2,2,50,0,0
295297,-142.857142857143,4,2,2,60,0,0
295986,-142.857142857143,4,2,2,65,0,0
296676,-125,4,2,2,70,0,0
297365,-125,4,2,2,75,0,0
298055,-111.111111111111,4,2,2,80,0,0
298745,-111.111111111111,4,2,2,85,0,0
299434,-100,4,2,2,90,0,0
300124,-100,4,2,2,90,0,0
300167,-100,4,2,2,45,0,0
300210,-100,4,2,2,40,0,0
300253,-100,4,2,2,35,0,0
300297,-100,4,2,2,30,0,0
300340,-100,4,2,2,25,0,0
300383,-100,4,2,2,20,0,0
300469,-100,4,2,2,70,0,0
303572,-83.3333333333333,4,2,2,100,0,1
328055,-111.111111111111,4,2,2,50,0,0
328400,-90.9090909090908,4,2,2,100,0,1
328486,-90.9090909090908,4,2,2,100,0,0
350469,-100,4,2,2,80,0,0
372538,-100,4,2,2,80,0,0
373227,-100,4,2,2,70,0,0
373917,-100,4,2,2,60,0,0
374607,-100,4,2,2,50,0,0
375296,-100,4,2,2,40,0,0
375986,-100,4,2,2,30,0,0
376676,-100,4,2,2,20,0,0
377365,-100,4,2,2,10,0,0
377883,-100,4,2,3,5,0,0

[Colours]
Combo1 : 128,255,0
Combo2 : 239,239,239
Combo3 : 255,128,255
Combo4 : 111,111,255
Combo5 : 255,255,49
Combo6 : 215,215,215
Combo7 : 179,175,205
Combo8 : 72,72,255

[HitObjects]
256,192,17366,12,8,21849,0:0:0:0:
305,349,22193,6,0,P|284:309|253:289,1,80.9999975280763,6|0,0:2|0:0,0:0:0:0:
209,376,22538,1,8,0:0:0:0:
376,319,22711,2,0,P|341:257|255:212,1,161.999995056153,2|8,0:0|0:0,0:0:0:0:
90,255,23228,1,0,0:0:0:0:
185,269,23400,1,0,0:0:0:0:
176,82,23573,54,0,L|151:-1,1,80.9999975280763,2|0,0:0|0:0,0:0:0:0:
152,176,23918,1,8,0:0:0:0:
17,102,24090,2,0,B|66:88|66:88|122:95|122:95|183:80,1,161.999995056153,2|8,0:0|0:0,0:0:0:0:
335,107,24607,2,0,L|244:133,1,80.9999975280763,0|8,0:0|0:0,0:0:0:0:
419,126,24952,54,0,P|390:40|314:22,1,161.999995056153,2|8,0:0|0:0,0:0:0:0:
390,213,25469,2,0,L|467:190,1,80.9999975280763,2|0,0:0|0:0,0:0:0:0:
246,312,25814,1,8,0:0:0:0:
287,223,25987,1,0,0:0:0:0:
342,303,26159,1,0,0:0:0:0:
213,158,26331,54,0,P|246:133|288:123,1,80.9999975280763,2|0,0:0|0:0,0:0:0:0:
168,250,26676,1,8,0:0:0:0:
108,327,26849,2,0,B|74:287|74:287|69:169,1,161.999995056153,2|8,0:0|0:0,0:0:0:0:
139,31,27366,2,0,L|143:139,1,80.9999975280763,0|8,0:0|0:0,0:0:0:0:
347,50,27711,85,6,0:0:0:0:
347,50,27797,1,0,0:0:0:0:
347,50,27883,1,2,0:0:0:0:
272,112,28055,1,10,0:0:0:0:
256,15,28228,1,2,0:0:0:0:
446,153,28400,37,2,0:0:0:0:
437,171,28487,1,0,0:0:0:0:
428,189,28573,2,0,L|347:179,1,80.9999975280763,10|0,0:0|0:0,0:0:0:0:
272,112,28918,1,0,0:0:0:0:
417,274,29090,38,0,L|475:282,2,40.4999987640381,2|0|0,0:0|0:0|0:0,0:0:0:0:
272,112,29435,1,8,0:0:0:0:
296,304,29607,1,2,0:0:0:0:
284,208,29780,1,0,0:0:0:0:
128,253,29952,2,0,L|212:272,2,80.9999975280763,8|0|8,0:0|0:0|0:0,0:0:0:0:
94,126,30469,54,0,L|76:38,1,80.9999975280763,2|0,0:0|0:0,0:0:0:0:
33,201,30814,1,8,0:0:0:0:
162,182,30987,2,0,B|180:136|180:136|156:26,1,161.999995056153,2|8,0:0|0:0,0:0:0:0:
261,119,31504,1,0,0:0:0:0:
318,41,31676,1,0,0:0:0:0:
472,120,31849,54,0,L|384:100,1,80.9999975280763,2|0,0:0|0:0,0:0:0:0:
456,28,32193,1,8,0:0:0:0:
345,316,32366,2,0,P|350:244|424:192,1,161.999995056153,2|8,0:0|0:0,0:0:0:0:
437,290,32883,1,0,0:0:0:0:
274,190,33055,1,8,0:0:0:0:
455,284,33228,54,0,L|420:364,1,80.9999975280763,6|0,0:0|0:0,0:0:0:0:
350,232,33573,1,8,0:0:0:0:
267,280,33745,2,0,B|225:273|194:246|194:246|160:216|117:213,1,161.999995056153,2|8,0:0|0:0,0:0:0:0:
35,323,34262,1,0,0:0:0:0:
132,314,34435,1,0,0:0:0:0:
110,117,34607,54,0,L|98:22,2,80.9999975280763,2|0|8,0:0|0:0|0:0,0:0:0:0:
350,96,35124,2,0,B|273:66|273:66|194:84,1,161.999995056153,2|8,0:0|0:0,0:0:0:0:
299,161,35642,2,0,L|382:193,1,80.9999975280763,0|8,0:0|0:0,0:0:0:0:
466,313,35987,54,0,P|493:246|434:157,1,161.999995056153,2|8,0:0|0:0,0:0:0:0:
357,360,36504,2,0,L|388:281,1,80.9999975280763,2|0,0:0|0:0,0:0:0:0:
185,336,36849,1,8,0:0:0:0:
278,310,37021,1,0,0:0:0:0:
210,242,37193,1,0,0:0:0:0:
116,91,37366,54,0,L|136:183,1,80.9999975280763,2|0,0:0|0:0,0:0:0:0:
43,30,37711,1,8,0:0:0:0:
378,102,37883,2,0,B|335:106|298:88|298:88|258:67|215:76,1,161.999995056153,0|8,0:0|0:0,0:0:0:0:
461,146,38400,2,0,P|473:105|497:73,1,80.9999975280763,0|8,0:0|0:0,0:0:0:0:
313,266,38745,21,2,0:0:0:0:
313,266,38831,1,0,0:0:0:0:
313,266,38918,1,2,0:0:0:0:
381,197,39090,1,10,0:0:0:0:
406,291,39262,1,0,0:0:0:0:
205,172,39435,37,2,0:0:0:0:
212,153,39521,1,0,0:0:0:0:
220,134,39607,2,0,L|301:136,1,80.9999975280763,10|0,0:0|0:0,0:0:0:0:
382,197,39952,1,0,0:0:0:0:
223,48,40124,38,0,L|164:45,2,40.4999987640381,2|0|0,0:0|0:0|0:0,0:0:0:0:
382,197,40469,1,8,0:0:0:0:
341,8,40642,1,2,0:0:0:0:
361,103,40814,1,0,0:0:0:0:
406,291,40987,2,0,L|320:280,2,80.9999975280763,8|0|8,0:0|0:0|0:0,0:0:0:0:
443,123,41504,54,0,P|423:45|345:20,1,161.999995056153,2|8,0:0|0:0,0:0:0:0:
200,82,42021,2,0,L|301:100,1,80.9999975280763,2|0,0:0|0:0,0:0:0:0:
112,32,42366,1,8,0:0:0:0:
30,84,42538,1,0,0:0:0:0:
115,130,42711,1,0,0:0:0:0:
47,260,42883,54,0,L|30:156,1,80.9999975280763,2|0,0:0|0:0,0:0:0:0:
105,339,43228,1,8,0:0:0:0:
205,239,43400,2,0,B|156:253|156:253|100:246|100:246|39:261,1,161.999995056153,2|8,0:0|0:0,0:0:0:0:
266,309,43918,1,0,0:0:0:0:
149,166,44090,1,8,0:0:0:0:
281,323,44262,54,0,L|360:309,2,80.9999975280763,4|0|8,0:0|0:0|0:0,0:0:0:0:
396,228,44780,2,0,P|439:268|428:365,2,161.999995056153,0|8|0,0:0|0:0|0:0,0:0:0:0:
252,346,45642,2,0,L|331:332,2,80.9999975280763,0|0|8,0:0|0:0|0:0,0:0:0:0:
343,153,46159,1,0,0:0:0:0:
244,242,46331,54,0,L|254:140,1,80.9999975280763,0|8,0:0|0:0,0:0:0:0:
469,194,46676,2,0,L|375:236,1,80.9999975280763,0|8,0:0|0:0,0:0:0:0:
315,22,47021,2,0,L|398:81,1,80.9999975280763
243,93,47366,53,8,0:0:0:0:
243,93,47538,2,0,B|200:97|163:79|163:79|123:58|80:67,2,161.999995056153,0|8|0,0:0|0:0|0:0,0:0:0:0:
117,238,48400,2,0,L|109:157,2,80.9999975280763,0|0|8,0:0|0:0|0:0,0:0:0:0:
261,327,48918,2,0,B|219:320|195:286|195:286|174:320|127:330,2,161.999995056153,0|8|8,0:0|0:0|0:0,0:0:0:0:
442,279,49780,54,0,L|403:365,2,80.9999975280763,0|0|8,0:0|0:0|0:0,0:0:0:0:
397,186,50297,2,0,L|339:314,1,121.499996292114
346,316,50642,2,0,P|323:258|250:181,1,161.999995056153,8|0,0:0|0:0,0:0:0:0:
84,250,51159,2,0,L|182:270,2,80.9999975280763,0|0|8,0:0|0:0|0:0,0:0:0:0:
213,128,51676,1,0,0:0:0:0:
95,167,51849,54,0,P|113:126|138:96,1,80.9999975280763,0|8,0:0|0:0,0:0:0:0:
306,208,52193,2,0,P|261:212|223:205,1,80.9999975280763,0|8,0:0|0:0,0:0:0:0:
236,5,52538,2,0,P|262:41|274:77,1,80.9999975280763
394,241,52883,53,8,0:0:0:0:
394,241,53055,2,0,P|400:196|467:111,1,144,0|8,0:0|0:0,0:0:0:0:
478,297,53573,2,0,L|436:355,1,62.9999980773926
247,300,53918,54,0,L|331:293,1,62.9999980773926
158,255,54262,1,8,0:0:0:0:
118,336,54435,2,0,L|227:328,1,107.999996704102,0|8,0:0|0:0,0:0:0:0:
56,109,54952,53,8,0:0:0:0:
303,85,55124,1,10,0:0:0:0:
368,171,55297,6,0,P|319:186|275:187,1,90,6|0,0:0|0:0,0:0:0:0:
312,76,55642,1,8,0:0:0:0:
470,19,55814,2,0,L|449:124,1,90,2|0,0:0|0:0,0:0:0:0:
424,269,56159,1,8,0:0:0:0:
424,269,56245,1,0,0:0:0:0:
424,269,56331,2,0,P|455:230|493:208,1,90
228,298,56676,54,0,L|320:329,1,90,2|0,0:0|0:0,0:0:0:0:
191,174,57021,1,8,0:0:0:0:
141,344,57193,2,0,P|137:295|117:257,1,90,2|0,0:0|0:0,0:0:0:0:
91,101,57538,1,8,0:0:0:0:
91,101,57624,1,0,0:0:0:0:
91,101,57711,2,0,L|55:184,1,90,0|8,0:0|0:0,0:0:0:0:
341,86,58055,54,0,B|297:97|258:70|258:70|220:42|164:51,1,180,2|8,0:0|0:0,0:0:0:0:
403,23,58573,2,0,P|429:95|369:170,1,180,2|8,0:0|0:0,0:0:0:0:
194,144,59090,1,0,0:0:0:0:
194,144,59176,1,0,0:0:0:0:
194,144,59262,1,0,0:0:0:0:
98,205,59435,54,0,P|80:158|83:116,1,90,2|0,0:0|0:0,0:0:0:0:
302,135,59780,1,8,0:0:0:0:
364,222,59952,2,0,L|173:236,1,180,2|8,0:0|0:0,0:0:0:0:
441,177,60469,2,0,P|456:220|439:270,1,90,0|8,0:0|0:0,0:0:0:0:
292,45,60814,69,2,0:0:0:0:
292,45,60900,1,0,0:0:0:0:
292,45,60986,1,2,0:0:0:0:
353,134,61159,1,10,0:0:0:0:
401,38,61331,1,2,0:0:0:0:
244,188,61504,38,0,L|197:194,2,45,2|0|8,0:0|0:0|0:0,0:0:0:0:
401,38,61849,1,0,0:0:0:0:
422,43,61935,1,0,0:0:0:0:
442,54,62021,1,0,0:0:0:0:
457,71,62107,1,0,0:0:0:0:
466,91,62193,54,0,L|447:191,1,90,2|0,0:0|0:0,0:0:0:0:
481,283,62538,1,8,0:0:0:0:
481,283,62711,2,0,B|392:301|392:301|303:269,1,180,2|8,0:0|0:0,0:0:0:0:
196,315,63228,2,0,L|303:354,1,90
142,238,63573,54,0,P|109:273|101:316,1,90,2|0,0:0|0:0,0:0:0:0:
200,45,63918,1,8,0:0:0:0:
236,230,64090,2,0,L|218:132,1,90,2|0,0:0|0:0,0:0:0:0:
96,148,64435,1,8,0:0:0:0:
96,148,64521,1,0,0:0:0:0:
96,148,64607,2,0,L|78:50,1,90
375,163,64952,54,0,P|320:188|219:141,1,180,2|8,0:0|0:0,0:0:0:0:
356,284,65469,2,0,P|410:258|511:305,1,180,2|8,0:0|0:0,0:0:0:0:
425,357,65986,1,0,0:0:0:0:
444,103,66159,1,8,0:0:0:0:
416,371,66331,54,0,L|319:361,1,90
167,348,66676,1,8,0:0:0:0:
137,260,66849,2,0,L|234:270,1,90,2|0,0:0|0:0,0:0:0:0:
153,357,67193,1,8,0:0:0:0:
60,223,67366,2,0,P|93:185|136:172,1,90
230,42,67711,54,0,L|216:140,2,90,2|0|8,0:0|0:0|0:0,0:0:0:0:
325,93,68228,1,2,0:0:0:0:
325,93,68314,1,0,0:0:0:0:
325,93,68400,2,0,P|372:91|410:69,1,90,0|8,0:0|0:0,0:0:0:0:
462,153,68745,2,0,P|493:118|505:75,1,90,0|8,0:0|0:0,0:0:0:0:
404,296,69090,54,0,L|382:194,1,90,2|0,0:0|0:0,0:0:0:0:
479,347,69435,1,8,0:0:0:0:
221,290,69607,2,0,P|278:273|320:278,1,90,2|0,0:0|0:0,0:0:0:0:
222,196,69952,1,8,0:0:0:0:
342,354,70124,2,0,L|320:252,1,90
115,156,70469,54,0,L|137:258,1,90,2|0,0:0|0:0,0:0:0:0:
318,84,70814,1,8,0:0:0:0:
318,84,70900,1,0,0:0:0:0:
318,84,70986,2,0,P|242:48|154:82,1,180,2|8,0:0|0:0,0:0:0:0:
352,162,71504,2,0,L|330:60,1,90,0|8,0:0|0:0,0:0:0:0:
333,323,71849,5,2,0:0:0:0:
333,323,71935,1,0,0:0:0:0:
333,323,72021,1,2,0:0:0:0:
403,241,72193,1,10,0:0:0:0:
438,342,72366,1,2,0:0:0:0:
304,172,72538,38,0,L|258:159,2,45,2|0|8,0:0|0:0|0:0,0:0:0:0:
438,342,72883,1,0,0:0:0:0:
459,341,72969,1,0,0:0:0:0:
480,333,73055,1,0,0:0:0:0:
499,318,73142,1,0,0:0:0:0:
510,300,73228,54,0,L|478:203,1,90,2|0,0:0|0:0,0:0:0:0:
451,110,73573,1,8,0:0:0:0:
340,10,73745,2,0,B|359:67|359:67|355:119|355:119|377:188,1,180,2|8,0:0|0:0,0:0:0:0:
267,86,74262,2,0,L|236:-9,1,90
153,183,74607,54,0,P|199:172|252:173,1,80.9999975280763,2|0,0:0|0:0,0:0:0:0:
81,126,74952,1,8,0:0:0:0:
170,322,75124,2,0,L|131:167,1,144,2|8,0:0|0:0,0:0:0:0:
65,313,75642,2,0,L|48:350,2,31.4999990386963
282,278,75986,54,0,L|357:289,1,53.9999983520508,8|0,0:0|0:0,0:0:0:0:
221,213,76331,1,0,0:0:0:0:
349,298,76504,54,0,L|414:307,1,45,8|0,0:0|0:0,0:0:0:0:
471,314,76849,1,0,0:0:0:0:
471,314,76935,2,0,L|485:317,2,11.25
399,43,77366,38,0,P|371:170|505:138,1,315,2|0,0:0|0:0,0:0:0:0:
429,117,78745,2,0,B|386:128|346:100|346:100|302:70|256:81,1,180
138,202,80124,54,0,P|136:167|121:121,1,67.5,2|0,0:0|0:0,0:0:0:0:
91,262,80642,2,0,B|118:286|166:289|199:263|212:231|212:231|272:343|376:227|442:325,1,405
478,121,82883,54,0,L|459:207,1,67.5,2|0,0:0|0:0,0:0:0:0:
453,37,83400,2,0,B|401:55|392:113|392:113|354:71|279:88|262:140|275:210|334:225|369:211|400:183|396:131,1,405
128,79,85642,54,0,P|161:87|201:104,1,67.5,2|0,0:0|0:0,0:0:0:0:
77,14,86159,2,0,B|40:46|32:100|72:142|72:142|59:204|59:204|120:218|136:264|134:316|100:343|70:353,1,405
346,348,88400,54,0,P|318:221|452:253,1,315,2|0,0:0|0:0,0:0:0:0:
376,274,89780,2,0,B|337:193|337:193|374:103,1,180
103,129,91159,54,0,L|143:209,1,89.0999997280884,2|0,0:0|0:0,0:0:0:0:
19,154,91677,2,0,P|138:46|142:207,1,405
409,129,93917,54,0,L|369:209,1,89.0999997280884,2|0,0:0|0:0,0:0:0:0:
492,154,94435,2,0,P|373:46|369:207,1,405
370,207,96676,1,0,0:0:0:0:
256,344,97711,53,0,0:0:0:0:
256,192,98055,2,0,B|268:160|268:160|256:128|256:128|244:96|244:96|256:64,2,135
139,307,99435,6,0,B|163:243|126:191|126:191|174:141|174:141|146:79|191:25,1,314.999990386963,4|0,0:1|0:0,0:0:0:0:
373,307,100814,2,0,B|349:243|386:191|386:191|338:141|338:141|366:79|321:25,1,314.999990386963,4|0,0:1|0:0,0:0:0:0:
390,381,101849,54,0,P|371:303|212:304,1,251.999992309571,0|0,0:1|0:0,0:0:0:0:
239,101,102883,2,0,L|183:226,1,125.999996154785
124,11,103400,2,0,P|143:89|243:99,1,188.999994232178,0|0,0:1|0:0,0:0:0:0:
442,83,104262,2,0,L|483:23,2,62.9999980773926
363,209,104952,54,0,B|335:261|273:261|273:261|311:280|317:316|304:344|275:360|242:361|216:343|203:309|227:274|227:274|173:305|123:273,1,440.999986541748,4|0,0:1|0:0,0:0:0:0:
53,307,106331,2,0,B|35:262|53:207|94:185|144:185|176:213|176:213|186:150|143:108|143:108|102:67|118:1,1,440.999986541748,4|0,0:1|0:0,0:0:0:0:
46,49,107711,54,0,B|115:113|194:48|194:48|301:23|403:67,1,377.999988464356,4|0,0:1|0:0,0:0:0:0:
477,114,108917,2,0,B|426:106|402:67|402:67|299:115,1,188.999994232178,4|0,0:1|0:0,0:0:0:0:
364,248,109780,2,0,B|370:285|370:285|410:310|431:362,1,125.999996154785
206,319,110469,38,0,P|218:273|134:223,1,144
45,279,110986,2,0,L|135:298,1,72
72,205,111331,2,0,B|61:155|61:155|72:107|72:107|63:45,1,144
141,21,111848,53,0,0:0:0:0:
321,119,112193,1,0,0:0:0:0:
321,119,112366,2,0,P|369:109|388:17,1,144
251,74,112883,1,0,0:0:0:0:
451,233,113228,54,0,L|289:209,1,144
205,330,113745,2,0,P|190:272|239:191,1,144
362,355,114262,2,0,L|282:343,1,72
108,140,114607,54,0,P|123:198|74:279,1,144
185,118,115124,2,0,L|34:97,1,144
239,57,115642,2,0,P|261:87|265:122,1,72
474,185,115986,54,0,B|395:185|395:185|328:137,1,153.000002918243,2|8,0:0|0:0,0:0:0:0:
424,108,116504,2,0,L|505:108,1,76.5000014591217,2|0,0:0|0:0,0:0:0:0:
345,302,116848,2,0,P|338:263|318:224,2,76.5000014591217,8|0|0,0:0|0:0|0:0,0:0:0:0:
491,342,117366,54,0,P|424:348|338:292,1,161.999995056153,2|8,0:0|0:0,0:0:0:0:
251,330,117883,2,0,B|215:308|172:316|172:316|131:323|91:305,1,161.999995056153,2|8,0:0|0:0,0:0:0:0:
116,151,118400,2,0,L|148:235,1,80.9999975280763
46,84,118745,54,0,P|87:58|200:103,1,170.999995433807,2|8,0:0|0:0,0:0:0:0:
288,206,119262,2,0,L|262:34,1,170.999995433807,2|8,0:0|0:0,0:0:0:0:
462,156,119780,2,0,L|362:182,1,85.4999977169037
461,62,120124,54,0,L|358:89,2,90,2|0|8,0:0|0:0|0:0,0:0:0:0:
459,322,120642,2,0,P|457:264|371:175,1,180,2|8,0:0|0:0,0:0:0:0:
283,362,121159,2,0,L|384:335,1,90
201,298,121504,53,2,0:0:0:0:
149,228,121676,1,0,0:0:0:0:
64,238,121848,1,8,0:0:0:0:
29,316,122021,1,2,0:0:0:0:
116,309,122193,1,0,0:0:0:0:
116,309,122366,1,8,0:0:0:0:
47,74,122538,53,2,0:0:0:0:
66,84,122624,1,2,0:0:0:0:
88,91,122711,1,2,0:0:0:0:
110,94,122797,1,2,0:0:0:0:
132,92,122883,1,2,0:0:0:0:
154,86,122969,1,2,0:0:0:0:
174,77,123055,1,2,0:0:0:0:
194,66,123142,1,2,0:0:0:0:
216,59,123228,1,2,0:0:0:0:
238,56,123314,1,2,0:0:0:0:
260,57,123400,1,2,0:0:0:0:
282,62,123486,1,2,0:0:0:0:
303,71,123573,2,2,L|324:92,8,22.5
412,331,124262,85,6,0:0:0:0:
312,219,124435,1,0,0:0:0:0:
457,190,124607,1,10,0:0:0:0:
402,349,124780,53,6,0:0:0:0:
468,168,124952,1,2,0:0:0:0:
300,310,125124,1,8,0:0:0:0:
501,282,125297,1,2,0:0:0:0:
501,282,125469,1,0,0:0:0:0:
362,63,125642,54,0,L|379:178,1,99.0000030212403,4|0,0:0|0:0,0:0:0:0:
261,40,125986,1,8,0:0:0:0:
261,40,126159,2,0,L|278:155,1,99.0000030212403,4|0,0:0|0:0,0:0:0:0:
65,0,126504,1,8,0:0:0:0:
174,114,126676,2,0,L|160:17,1,99.0000030212403
84,275,127021,53,6,0:0:0:0:
168,129,127193,1,0,0:0:0:0:
53,160,127366,1,10,0:0:0:0:
198,244,127538,54,0,L|254:233,1,49.5000015106202,6|0,0:0|0:0,0:0:0:0:
313,201,127711,1,2,0:0:0:0:
337,198,127797,1,0,0:0:0:0:
361,202,127883,1,8,0:0:0:0:
342,348,128055,1,2,0:0:0:0:
480,292,128228,1,0,0:0:0:0:
454,111,128400,54,0,L|341:94,1,99.0000030212403,4|0,0:0|0:0,0:0:0:0:
473,193,128745,1,8,0:0:0:0:
299,52,128917,2,0,L|213:39,1,49.5000015106202,4|0,0:0|0:0,0:0:0:0:
182,76,129090,1,0,0:0:0:0:
159,86,129176,1,0,0:0:0:0:
136,96,129262,1,8,0:0:0:0:
118,305,129435,1,0,0:0:0:0:
71,186,129607,1,8,0:0:0:0:
320,220,129780,54,0,L|208:247,1,99.0000030212403,6|0,0:0|0:0,0:0:0:0:
313,311,130124,1,8,0:0:0:0:
328,132,130297,1,6,0:0:0:0:
474,234,130469,1,2,0:0:0:0:
415,328,130642,53,8,0:0:0:0:
440,110,130814,1,2,0:0:0:0:
482,254,130986,1,0,0:0:0:0:
236,102,131159,54,0,L|352:119,1,99.0000030212403,4|0,0:0|0:0,0:0:0:0:
176,41,131504,1,8,0:0:0:0:
173,174,131676,2,0,L|289:191,1,99.0000030212403,4|0,0:0|0:0,0:0:0:0:
113,113,132021,1,8,0:0:0:0:
207,260,132193,2,0,L|110:246,1,99.0000030212403
467,262,132538,53,6,0:0:0:0:
347,348,132711,1,0,0:0:0:0:
216,278,132883,1,10,0:0:0:0:
385,77,133055,2,0,L|408:131,1,49.5000015106202,6|0,0:0|0:0,0:0:0:0:
395,196,133228,53,2,0:0:0:0:
386,219,133314,1,0,0:0:0:0:
371,239,133400,1,8,0:0:0:0:
305,82,133573,1,0,0:0:0:0:
305,57,133659,1,0,0:0:0:0:
314,34,133745,1,0,0:0:0:0:
330,15,133831,1,0,0:0:0:0:
351,2,133917,53,4,0:0:0:0:
469,143,134090,1,0,0:0:0:0:
241,110,134262,2,0,L|352:126,2,99.0000030212403,8|4|0,0:0|0:0|0:0,0:0:0:0:
118,49,134779,2,0,L|7:33,2,99.0000030212403,8|0|8,0:0|0:0|0:0,0:0:0:0:
91,294,135297,53,6,0:0:0:0:
191,182,135469,1,0,0:0:0:0:
46,153,135642,1,10,0:0:0:0:
101,312,135814,53,6,0:0:0:0:
35,131,135986,1,2,0:0:0:0:
203,273,136159,1,8,0:0:0:0:
2,245,136331,1,2,0:0:0:0:
2,245,136504,1,0,0:0:0:0:
201,166,136676,54,0,L|302:187,1,99.0000030212403,4|0,0:0|0:0,0:0:0:0:
263,99,137021,1,8,0:0:0:0:
263,99,137193,2,0,L|364:120,1,99.0000030212403,4|0,0:0|0:0,0:0:0:0:
230,13,137538,1,8,0:0:0:0:
421,52,137711,2,0,L|325:32,1,99.0000030212403
417,262,138055,54,0,P|421:212|442:166,1,99.0000030212403,6|0,0:0|0:0,0:0:0:0:
302,283,138400,1,10,0:0:0:0:
438,342,138573,1,6,0:0:0:0:
220,308,138745,53,2,0:0:0:0:
197,298,138831,1,0,0:0:0:0:
174,288,138917,1,8,0:0:0:0:
43,119,139090,2,0,L|55:173,1,49.5000015106202,2|0,0:0|0:0,0:0:0:0:
119,216,139262,2,0,L|131:162,1,49.5000015106202
154,88,139435,54,0,P|206:87|257:102,1,99.0000030212403,4|0,0:0|0:0,0:0:0:0:
437,187,139779,1,8,0:0:0:0:
437,187,139952,2,0,P|385:188|334:173,1,99.0000030212403,4|0,0:0|0:0,0:0:0:0:
401,93,140297,1,8,0:0:0:0:
379,280,140469,1,0,0:0:0:0:
401,93,140642,1,8,0:0:0:0:
376,299,140814,54,0,L|251:314,1,99.0000030212403,6|0,0:0|0:0,0:0:0:0:
63,171,141159,1,10,0:0:0:0:
239,139,141331,1,6,0:0:0:0:
178,306,141504,1,2,0:0:0:0:
142,102,141676,53,8,0:0:0:0:
287,263,141848,1,2,0:0:0:0:
232,122,142021,1,0,0:0:0:0:
169,322,142193,54,0,L|64:336,1,99.0000030212403,4|0,0:0|0:0,0:0:0:0:
167,221,142538,1,8,0:0:0:0:
347,307,142711,2,0,P|298:301|257:275,1,99.0000030212403,4|0,0:0|0:0,0:0:0:0:
246,376,143055,1,8,0:0:0:0:
459,337,143228,2,0,P|452:278|478:241,1,99.0000030212403
465,34,143573,53,6,0:0:0:0:
381,180,143745,1,0,0:0:0:0:
496,149,143917,1,10,0:0:0:0:
351,65,144090,54,0,L|288:50,1,49.5000015106202,6|0,0:0|0:0,0:0:0:0:
229,65,144262,1,2,0:0:0:0:
205,59,144348,1,0,0:0:0:0:
184,45,144435,1,8,0:0:0:0:
99,166,144607,1,0,0:0:0:0:
37,30,144779,1,0,0:0:0:0:
300,305,144952,54,0,P|314:222|216:174,1,198.000006042481,4|8,0:0|0:0,0:0:0:0:
50,285,145469,2,0,B|148:297|148:297|245:248,1,198.000006042481,4|8,0:0|0:0,0:0:0:0:
99,208,145986,2,0,L|-8:195,1,99.0000030212403,4|0,0:0|0:0,0:0:0:0:
253,80,146331,22,0,B|318:79|357:130|357:130|396:184|477:184,1,251.999992309571
259,304,147711,2,0,B|194:305|155:254|155:254|116:200|35:200,1,251.999992309571
21,208,148573,1,4,0:0:0:0:
330,68,148917,1,8,0:0:0:0:
341,64,149090,37,6,0:0:0:0:
196,32,149262,1,0,0:0:0:0:
243,175,149435,2,0,L|251:127,1,49.5000015106202,8|0,0:0|0:0,0:0:0:0:
253,199,149607,1,2,0:0:0:0:
262,221,149693,1,0,0:0:0:0:
271,243,149779,1,0,0:0:0:0:
51,202,149952,1,8,0:0:0:0:
151,310,150124,1,0,0:0:0:0:
271,243,150297,2,0,L|326:233,1,49.5000015106202
399,260,150469,54,0,P|421:215|418:158,1,99.0000030212403,6|0,0:0|0:0,0:0:0:0:
256,61,150814,2,0,P|283:102|334:128,1,99.0000030212403,8|2,0:0|0:0,0:0:0:0:
451,40,151159,1,0,0:0:0:0:
428,50,151245,1,0,0:0:0:0:
408,64,151331,1,8,0:0:0:0:
203,138,151504,2,0,L|248:36,1,99.0000030212403,0|8,0:0|0:0,0:0:0:0:
118,233,151848,54,0,P|104:178|75:128,1,99.0000030212403,6|0,0:0|0:0,0:0:0:0:
49,334,152193,1,8,0:0:0:0:
269,336,152366,2,0,L|160:318,1,99.0000030212403,2|0,0:0|0:0,0:0:0:0:
321,249,152711,1,8,0:0:0:0:
340,264,152797,1,0,0:0:0:0:
353,284,152883,2,0,L|369:338,1,49.5000015106202
436,263,153055,2,0,L|452:209,1,49.5000015106202
488,141,153228,54,0,P|483:98|452:43,1,99.0000030212403,6|0,0:0|0:0,0:0:0:0:
269,157,153573,2,0,L|392:168,1,99.0000030212403,8|2,0:0|0:0,0:0:0:0:
144,186,153917,1,0,0:0:0:0:
239,71,154090,1,8,0:0:0:0:
18,172,154262,1,0,0:0:0:0:
113,57,154435,1,8,0:0:0:0:
208,243,154607,54,0,P|164:266|107:259,1,99.0000030212403,6|0,0:0|0:0,0:0:0:0:
267,329,154952,1,8,0:0:0:0:
317,73,155124,2,0,L|343:174,1,99.0000030212403,6|0,0:0|0:0,0:0:0:0:
348,192,155383,1,0,0:0:0:0:
354,215,155469,2,0,P|347:237|333:261,1,49.5000015106202,8|0,0:0|0:0,0:0:0:0:
430,336,155642,2,0,L|410:264,1,49.5000015106202
451,196,155814,2,0,P|470:179|500:167,1,49.5000015106202
488,71,155986,54,0,P|440:50|385:40,1,99.0000030212403,6|0,0:0|0:0,0:0:0:0:
197,146,156331,1,8,0:0:0:0:
340,106,156504,1,6,0:0:0:0:
124,84,156676,2,0,P|76:110|38:144,1,99.0000030212403,0|8,0:0|0:0,0:0:0:0:
234,253,157021,2,0,L|201:127,1,99.0000030212403,0|8,0:0|0:0,0:0:0:0:
91,326,157366,53,6,0:0:0:0:
226,266,157538,1,0,0:0:0:0:
367,313,157711,2,0,L|412:331,1,49.5000015106202,8|0,0:0|0:0,0:0:0:0:
351,293,157883,1,2,0:0:0:0:
345,269,157969,1,0,0:0:0:0:
350,244,158055,1,0,0:0:0:0:
471,97,158228,1,8,0:0:0:0:
477,121,158314,1,0,0:0:0:0:
472,146,158400,2,0,L|426:184,1,49.5000015106202
370,126,158573,2,0,L|311:135,1,49.5000015106202
291,57,158745,54,0,L|180:21,1,99.0000030212403,6|0,0:0|0:0,0:0:0:0:
61,213,159090,2,0,P|82:168|133:136,1,99.0000030212403,8|2,0:0|0:0,0:0:0:0:
271,223,159435,1,0,0:0:0:0:
143,298,159607,1,8,0:0:0:0:
143,149,159779,1,0,0:0:0:0:
187,225,159952,1,8,0:0:0:0:
380,347,160124,54,0,L|390:239,1,99.0000030212403,4|0,0:0|0:0,0:0:0:0:
398,99,160469,1,8,0:0:0:0:
252,68,160642,2,0,L|287:132,1,49.5000015106202,2|0,0:0|0:0,0:0:0:0:
398,99,160814,1,0,0:0:0:0:
380,81,160900,1,0,0:0:0:0:
356,73,160986,1,8,0:0:0:0:
171,37,161159,2,0,L|169:109,1,49.5000015106202
89,68,161331,2,0,L|51:130,1,49.5000015106202
96,186,161504,54,0,P|82:234|44:286,1,99.0000030212403,4|0,0:0|0:0,0:0:0:0:
237,190,161848,1,8,0:0:0:0:
183,366,162021,2,0,L|169:244,1,99.0000030212403,2|0,0:0|0:0,0:0:0:0:
358,290,162366,1,8,0:0:0:0:
333,293,162452,1,0,0:0:0:0:
308,296,162538,1,0,0:0:0:0:
489,367,162710,1,8,0:0:0:0:
486,218,162883,54,0,P|446:184|395:164,1,99.0000030212403,6|0,0:0|0:0,0:0:0:0:
438,297,163228,1,8,0:0:0:0:
470,73,163400,2,0,B|374:51|374:51|286:119,1,198.000006042481,6|8,0:0|0:0,0:0:0:0:
281,132,163831,1,0,0:0:0:0:
266,151,163917,2,0,L|329:183,1,49.5000015106202
194,81,164090,2,0,L|131:113,1,49.5000015106202
26,166,164262,54,0,P|66:200|117:220,1,99.0000030212403,6|0,0:0|0:0,0:0:0:0:
74,87,164607,1,8,0:0:0:0:
42,311,164779,2,0,B|138:333|138:333|226:265,1,198.000006042481,6|8,0:0|0:0,0:0:0:0:
231,252,165210,1,0,0:0:0:0:
246,233,165297,2,0,L|183:201,1,49.5000015106202
318,303,165469,2,0,L|381:271,1,49.5000015106202,8|0,0:0|0:0,0:0:0:0:
471,245,165642,54,0,P|466:192|437:141,1,99.0000030212403,6|0,0:0|0:0,0:0:0:0:
285,42,165986,2,0,P|290:95|319:146,1,99.0000030212403,2|0,0:0|0:0,0:0:0:0:
361,232,166331,1,2,0:0:0:0:
397,68,166504,1,2,0:0:0:0:
190,103,166676,1,2,0:0:0:0:
419,315,166848,53,2,0:0:0:0:
395,321,166935,1,2,0:0:0:0:
370,323,167021,1,2,0:0:0:0:
346,320,167107,1,2,0:0:0:0:
322,311,167193,1,2,0:0:0:0:
301,298,167279,1,2,0:0:0:0:
280,285,167366,1,2,0:0:0:0:
257,277,167452,1,2,0:0:0:0:
232,274,167538,1,2,0:0:0:0:
208,275,167624,1,2,0:0:0:0:
184,281,167710,2,2,L|159:300,6,24.7500007553101
184,281,168055,6,0,P|146:314|126:351,1,72,0|8,0:0|0:0,0:0:0:0:
74,39,168400,85,6,0:0:0:0:
67,186,168573,1,0,0:0:0:0:
199,121,168745,1,10,0:0:0:0:
79,19,168918,53,6,0:0:0:0:
62,210,169090,1,2,0:0:0:0:
187,30,169262,1,8,0:0:0:0:
0,109,169435,1,2,0:0:0:0:
0,109,169607,1,0,0:0:0:0:
210,136,169779,54,0,L|327:152,1,99.0000030212403,4|0,0:0|0:0,0:0:0:0:
143,210,170124,1,8,0:0:0:0:
143,210,170297,2,0,L|260:226,1,99.0000030212403,4|0,0:0|0:0,0:0:0:0:
11,355,170642,1,8,0:0:0:0:
174,297,170814,2,0,L|76:284,1,99.0000030212403
438,345,171159,53,6,0:0:0:0:
445,198,171332,1,0,0:0:0:0:
313,263,171504,1,10,0:0:0:0:
433,365,171677,53,2,0:0:0:0:
450,174,171849,1,2,0:0:0:0:
325,354,172021,1,8,0:0:0:0:
512,275,172194,1,2,0:0:0:0:
512,275,172366,1,0,0:0:0:0:
235,101,172538,53,6,0:0:0:0:
334,248,172710,1,0,0:0:0:0:
365,154,172883,1,10,0:0:0:0:
261,300,173055,54,0,L|239:349,1,49.5000015106202,6|0,0:0|0:0,0:0:0:0:
334,248,173228,1,2,0:0:0:0:
357,241,173314,1,0,0:0:0:0:
381,243,173400,1,10,0:0:0:0:
508,320,173573,1,2,0:0:0:0:
374,383,173745,1,8,0:0:0:0:
447,68,173917,54,0,L|457:178,2,99.0000030212403,6|2|8,0:0|0:0|0:0,0:0:0:0:
320,147,174435,2,0,P|270:144|217:123,1,99.0000030212403,6|0,0:0|0:0,0:0:0:0:
46,266,174779,1,8,0:0:0:0:
92,156,174952,1,0,0:0:0:0:
165,248,175124,1,0,0:0:0:0:
102,42,175297,54,0,L|84:151,1,99.0000030212403,4|0,0:0|0:0,0:0:0:0:
158,237,175642,1,8,0:0:0:0:
400,331,175814,2,0,B|303:359|303:359|206:289,1,198.000006042481,4|8,0:0|0:0,0:0:0:0:
370,254,176331,1,0,0:0:0:0:
393,245,176417,1,0,0:0:0:0:
416,236,176504,2,0,L|464:257,1,49.5000015106202
487,182,176676,54,0,L|467:80,1,99.0000030212403,4|0,0:0|0:0,0:0:0:0:
314,25,177021,2,0,P|262:30|207:57,1,99.0000030212403,8|4,0:0|0:0,0:0:0:0:
77,211,177366,2,0,P|129:206|184:179,1,99.0000030212403,0|8,0:0|0:0,0:0:0:0:
84,54,177710,1,0,0:0:0:0:
59,50,177797,1,0,0:0:0:0:
36,60,177883,2,0,L|51:123,1,49.5000015106202
88,228,178055,54,0,L|115:326,1,99.0000030212403,4|0,0:0|0:0,0:0:0:0:
397,323,178400,2,0,L|424:228,1,99.0000030212403,8|4,0:0|0:0,0:0:0:0:
429,203,178659,1,0,0:0:0:0:
435,179,178745,2,0,P|393:167|333:178,1,99.0000030212403,0|8,0:0|0:0,0:0:0:0:
178,363,179090,1,0,0:0:0:0:
332,256,179262,1,8,0:0:0:0:
54,78,179435,53,6,0:0:0:0:
150,190,179607,1,0,0:0:0:0:
201,51,179779,1,10,0:0:0:0:
38,103,179952,53,6,0:0:0:0:
134,215,180124,1,2,0:0:0:0:
185,76,180296,1,8,0:0:0:0:
22,128,180469,1,2,0:0:0:0:
18,152,180555,1,0,0:0:0:0:
13,176,180642,1,0,0:0:0:0:
169,101,180814,53,4,0:0:0:0:
118,240,180986,2,0,L|183:231,1,49.5000015106202
238,209,181159,1,8,0:0:0:0:
262,209,181245,1,0,0:0:0:0:
285,216,181331,2,0,P|337:206|395:178,1,99.0000030212403,4|0,0:0|0:0,0:0:0:0:
458,353,181676,2,0,L|390:267,2,99.0000030212403,8|0|0,0:0|0:0|0:0,0:0:0:0:
458,78,182193,53,6,0:0:0:0:
362,190,182365,1,0,0:0:0:0:
311,51,182537,1,10,0:0:0:0:
474,103,182710,53,6,0:0:0:0:
378,215,182882,1,2,0:0:0:0:
327,76,183054,1,8,0:0:0:0:
490,128,183227,1,2,0:0:0:0:
494,152,183313,1,0,0:0:0:0:
499,176,183400,1,0,0:0:0:0:
161,42,183573,53,6,0:0:0:0:
314,91,183745,1,0,0:0:0:0:
161,141,183917,1,10,0:0:0:0:
256,11,184090,2,0,L|312:3,1,49.5000015106202,6|0,0:0|0:0,0:0:0:0:
161,42,184262,1,2,0:0:0:0:
136,46,184348,1,0,0:0:0:0:
111,40,184435,1,10,0:0:0:0:
244,218,184607,1,0,0:0:0:0:
67,161,184779,1,8,0:0:0:0:
259,234,184952,54,0,L|154:259,2,99.0000030212403,2|2|8,0:0|0:0|0:0,0:0:0:0:
365,333,185469,2,0,P|357:275|374:225,1,99.0000030212403,6|0,0:0|0:0,0:0:0:0:
462,55,185814,1,8,0:0:0:0:
465,79,185900,1,0,0:0:0:0:
462,103,185986,2,0,P|455:127|439:156,1,49.5000015106202
355,147,186159,2,0,L|315:110,1,49.5000015106202
262,38,186331,54,0,P|209:45|156:61,1,99.0000030212403,4|0,0:0|0:0,0:0:0:0:
74,273,186676,1,8,0:0:0:0:
168,289,186848,2,0,B|171:237|134:203|134:203|90:164|94:113,1,198.000006042481,4|8,0:0|0:0,0:0:0:0:
74,273,187366,1,0,0:0:0:0:
194,126,187538,1,8,0:0:0:0:
60,290,187710,54,0,L|94:386,1,99.0000030212403
248,243,188055,1,8,0:0:0:0:
401,333,188228,2,0,L|299:323,1,99.0000030212403,4|0,0:0|0:0,0:0:0:0:
388,197,188573,1,8,0:0:0:0:
410,207,188659,1,0,0:0:0:0:
434,207,188745,2,0,L|479:162,1,49.5000015106202
508,98,188918,2,0,P|485:83|455:69,1,49.5000015106202
379,27,189090,54,0,P|337:62|318:104,1,99.0000030212403,4|0,0:0|0:0,0:0:0:0:
323,273,189435,1,8,0:0:0:0:
253,37,189607,2,0,P|234:88|238:134,1,99.0000030212403,4|0,0:0|0:0,0:0:0:0:
75,147,189952,1,8,0:0:0:0:
323,273,190124,1,8,0:0:0:0:
339,283,190469,38,0,P|383:281|431:267,1,90,6|0,0:0|0:0,0:0:0:0:
250,225,190814,1,8,0:0:0:0:
250,225,190986,2,0,L|235:333,1,90,2|0,0:0|0:0,0:0:0:0:
345,178,191331,1,8,0:0:0:0:
345,178,191417,1,0,0:0:0:0:
345,178,191504,2,0,P|310:136|274:123,1,90
158,45,191848,54,0,L|190:142,1,90,2|0,0:0|0:0,0:0:0:0:
249,49,192193,1,8,0:0:0:0:
77,229,192366,2,0,P|98:176|92:129,1,90,2|0,0:0|0:0,0:0:0:0:
152,303,192710,1,8,0:0:0:0:
15,109,192883,2,0,L|118:131,1,90,0|8,0:0|0:0,0:0:0:0:
336,254,193228,54,0,L|233:232,1,90,2|0,0:0|0:0,0:0:0:0:
314,149,193573,1,8,0:0:0:0:
406,358,193745,2,0,P|412:309|443:271,1,90,2|0,0:0|0:0,0:0:0:0:
430,94,194090,1,8,0:0:0:0:
437,115,194176,1,0,0:0:0:0:
444,136,194262,2,0,L|494:131,1,45
399,211,194435,2,0,L|349:216,1,45
224,156,194607,54,0,L|314:149,1,90,2|0,0:0|0:0,0:0:0:0:
157,241,194952,1,8,0:0:0:0:
358,50,195124,1,2,0:0:0:0:
210,65,195297,2,0,L|160:43,1,45
94,26,195469,2,0,L|44:48,1,45,8|0,0:0|0:0,0:0:0:0:
14,113,195641,2,0,P|8:167|20:213,1,90,0|8,0:0|0:0,0:0:0:0:
227,323,195986,5,2,0:0:0:0:
227,323,196072,1,0,0:0:0:0:
227,323,196158,1,2,0:0:0:0:
157,241,196330,1,10,0:0:0:0:
122,342,196503,1,2,0:0:0:0:
328,193,196676,38,0,L|374:175,2,45,2|0|8,0:0|0:0|0:0,0:0:0:0:
122,342,197021,1,0,0:0:0:0:
100,336,197107,1,0,0:0:0:0:
81,323,197193,1,0,0:0:0:0:
68,306,197279,1,0,0:0:0:0:
61,284,197366,54,0,L|77:184,1,90,2|0,0:0|0:0,0:0:0:0:
157,241,197710,1,8,0:0:0:0:
175,53,197883,2,0,L|159:153,1,90,2|0,0:0|0:0,0:0:0:0:
256,23,198228,1,8,0:0:0:0:
0,82,198400,2,0,P|56:88|109:75,1,90,0|8,0:0|0:0,0:0:0:0:
427,58,198745,54,0,B|383:69|344:42|344:42|306:14|250:23,1,180,2|8,0:0|0:0,0:0:0:0:
471,131,199262,2,0,P|511:70|456:-23,1,180,2|8,0:0|0:0,0:0:0:0:
388,132,199779,1,0,0:0:0:0:
388,132,199866,1,0,0:0:0:0:
388,132,199952,1,0,0:0:0:0:
372,314,200124,54,0,L|380:210,1,90,2|0,0:0|0:0,0:0:0:0:
470,281,200469,1,8,0:0:0:0:
205,186,200641,2,0,L|197:290,1,90,2|0,0:0|0:0,0:0:0:0:
290,244,200986,1,8,0:0:0:0:
107,219,201159,1,0,0:0:0:0:
290,244,201331,1,8,0:0:0:0:
89,204,201504,54,0,P|76:160|76:113,1,90,6|0,0:0|0:0,0:0:0:0:
309,103,201848,1,8,0:0:0:0:
230,28,202021,2,0,L|125:44,1,90,2|0,0:0|0:0,0:0:0:0:
327,115,202366,1,8,0:0:0:0:
344,128,202452,1,0,0:0:0:0:
361,141,202538,2,0,L|384:187,1,45
437,261,202710,2,0,L|460:215,1,45
438,100,202883,54,0,P|387:116|358:144,1,90,2|0,0:0|0:0,0:0:0:0:
265,289,203228,1,8,0:0:0:0:
265,289,203314,1,0,0:0:0:0:
265,289,203400,2,0,L|273:181,1,90,2|0,0:0|0:0,0:0:0:0:
337,37,203745,1,8,0:0:0:0:
178,178,203917,1,0,0:0:0:0:
229,16,204090,1,8,0:0:0:0:
70,157,204262,54,0,P|48:199|33:243,1,90
176,339,204607,2,0,P|161:288|120:251,1,90,8|2,0:0|0:0,0:0:0:0:
255,123,204952,1,0,0:0:0:0:
257,145,205038,1,0,0:0:0:0:
265,166,205124,1,8,0:0:0:0:
278,185,205210,1,0,0:0:0:0:
294,200,205297,2,0,L|349:194,1,45
244,263,205469,2,0,L|210:218,1,45
306,371,205641,54,0,L|318:262,1,90,2|0,0:0|0:0,0:0:0:0:
448,140,205986,1,8,0:0:0:0:
332,265,206159,54,0,L|341:189,1,45
345,145,206331,1,0,0:0:0:0:
345,145,206417,1,0,0:0:0:0:
345,145,206504,1,8,0:0:0:0:
313,43,206676,2,0,P|361:40|401:58,1,90,0|8,0:0|0:0,0:0:0:0:
178,289,207021,5,2,0:0:0:0:
178,289,207107,1,0,0:0:0:0:
178,289,207193,1,2,0:0:0:0:
76,325,207365,1,10,0:0:0:0:
96,220,207538,1,2,0:0:0:0:
261,358,207710,38,0,L|306:365,2,45,2|0|8,0:0|0:0|0:0,0:0:0:0:
96,220,208055,1,0,0:0:0:0:
90,198,208141,1,0,0:0:0:0:
92,176,208227,1,0,0:0:0:0:
102,156,208313,1,0,0:0:0:0:
119,141,208400,54,0,L|234:158,1,90,2|0,0:0|0:0,0:0:0:0:
356,139,208745,1,8,0:0:0:0:
392,242,208917,2,0,L|278:226,1,90,2|0,0:0|0:0,0:0:0:0:
365,126,209262,1,8,0:0:0:0:
435,43,209435,1,0,0:0:0:0:
471,144,209607,1,8,0:0:0:0:
380,341,209779,54,0,L|388:231,1,90,6|0,0:0|0:0,0:0:0:0:
463,175,210124,1,8,0:0:0:0:
275,313,210297,2,0,P|236:320|175:313,1,90,2|0,0:0|0:0,0:0:0:0:
170,141,210641,1,8,0:0:0:0:
170,141,210728,1,0,0:0:0:0:
170,141,210814,2,0,P|195:171|220:227,1,90
73,317,211159,54,0,P|86:279|123:230,1,90,6|0,0:0|0:0,0:0:0:0:
342,119,211504,2,0,L|245:103,1,90,8|2,0:0|0:0,0:0:0:0:
349,213,211848,2,0,L|446:197,1,90,2|2,0:0|0:0,0:0:0:0:
451,180,212107,2,2,L|480:185,2,22.5
114,43,212538,38,0,P|59:158|201:192,1,315,4|0,0:0|0:0,0:0:0:0:
140,128,213917,2,0,L|90:312,1,180
414,315,215297,54,0,P|430:268|434:231,1,67.5,4|0,0:0|0:0,0:0:0:0:
329,322,215814,2,0,B|363:270|368:209|360:169|360:169|321:194|254:194|204:135|215:30|304:-7|377:45|385:85,1,495
97,77,218055,54,0,P|91:51|71:9,1,67.5,4|0,0:0|0:0,0:0:0:0:
26,158,218572,2,0,B|119:193|180:136|180:136|238:91|277:109|323:128|343:175|327:230,1,405
415,307,220814,54,0,P|421:333|441:375,1,67.5,2|0,0:0|0:0,0:0:0:0:
452,228,221331,2,0,B|400:209|361:229|338:271|338:271|297:309|235:316|181:255|188:181|256:147,1,405
44,37,223572,54,0,L|66:149,1,107.999996704102,6|8,0:0|0:0,0:0:0:0:
76,207,224090,2,0,P|134:183|193:185,1,107.999996704102,2|8,0:0|0:0,0:0:0:0:
238,207,224607,1,0,0:0:0:0:
278,156,224779,1,0,0:0:0:0:
378,218,224952,54,0,P|430:228|500:189,1,116.999994644165,2|8,0:0|0:0,0:0:0:0:
464,68,225469,2,0,P|412:58|342:97,1,116.999994644165,2|8,0:0|0:0,0:0:0:0:
421,143,225986,1,0,0:0:0:0:
256,240,226331,54,0,L|297:367,1,125.999996154785,2|8,0:0|0:0,0:0:0:0:
157,210,226848,2,0,L|187:133,1,62.9999980773926,2|0,0:0|0:0,0:0:0:0:
174,311,227193,2,0,P|124:282|48:278,1,125.999996154785,8|0,0:0|0:0,0:0:0:0:
127,70,227710,54,0,L|73:215,1,135.000005149842,2|8,0:0|0:0,0:0:0:0:
211,68,228228,2,0,P|200:25|176:3,1,67.5000025749208,2|0,0:0|0:0,0:0:0:0:
270,125,228572,1,8,0:0:0:0:
344,91,228745,1,0,0:0:0:0:
334,10,228917,1,0,0:0:0:0:
422,137,229090,54,0,P|446:175|478:190,1,72
445,271,229435,2,0,L|427:353,1,72,10|0,0:0|0:0,0:0:0:0:
362,286,229779,2,0,P|338:248|306:233,1,72,2|0,0:0|0:0,0:0:0:0:
316,363,230124,2,0,L|365:298,1,72,10|0,0:0|0:0,0:0:0:0:
152,305,230469,54,0,L|201:371,1,80.9999975280763,2|0,0:0|0:0,0:0:0:0:
205,231,230814,2,0,P|170:251|150:285,1,80.9999975280763,10|0,0:0|0:0,0:0:0:0:
82,341,231158,2,0,L|65:263,1,80.9999975280763
43,187,231503,2,0,P|72:167|95:129,1,80.9999975280763,10|0,0:0|0:0,0:0:0:0:
230,34,231848,53,2,0:0:0:0:
252,30,231934,1,2,0:0:0:0:
274,34,232020,1,2,0:0:0:0:
293,45,232106,1,2,0:0:0:0:
307,62,232192,1,2,0:0:0:0:
314,83,232279,1,2,0:0:0:0:
313,106,232365,1,2,0:0:0:0:
305,127,232451,1,2,0:0:0:0:
290,143,232537,1,2,0:0:0:0:
275,159,232624,1,2,0:0:0:0:
267,180,232710,1,2,0:0:0:0:
266,203,232796,1,2,0:0:0:0:
273,224,232883,1,2,0:0:0:0:
287,241,232969,1,2,0:0:0:0:
306,252,233055,1,2,0:0:0:0:
328,256,233141,1,2,0:0:0:0:
351,253,233228,53,2,0:0:0:0:
338,210,233314,1,2,0:0:0:0:
304,182,233400,1,2,0:0:0:0:
259,179,233486,1,2,0:0:0:0:
221,202,233572,1,2,0:0:0:0:
177,198,233658,1,2,0:0:0:0:
144,169,233744,1,2,0:0:0:0:
134,126,233830,1,2,0:0:0:0:
151,85,233917,2,2,L|168:66,8,22.5
488,192,234607,37,6,0:0:0:0:
376,94,234779,1,0,0:0:0:0:
349,240,234952,2,0,L|395:223,1,49.5000015106202,8|0,0:0|0:0,0:0:0:0:
340,263,235124,1,2,0:0:0:0:
331,286,235210,1,0,0:0:0:0:
323,309,235297,1,0,0:0:0:0:
250,179,235469,1,8,0:0:0:0:
133,270,235641,2,0,L|249:298,1,99.0000030212403
84,333,235900,1,0,0:0:0:0:
69,319,235986,54,0,P|54:269|72:223,1,99.0000030212403,6|0,0:0|0:0,0:0:0:0:
250,179,236331,1,8,0:0:0:0:
179,16,236504,2,0,L|157:122,1,99.0000030212403,2|0,0:0|0:0,0:0:0:0:
304,83,236848,1,8,0:0:0:0:
328,77,236935,1,0,0:0:0:0:
352,71,237021,1,0,0:0:0:0:
80,45,237193,1,8,0:0:0:0:
376,66,237366,54,0,L|481:92,1,99.0000030212403,6|0,0:0|0:0,0:0:0:0:
371,315,237710,2,0,P|369:256|392:218,1,99.0000030212403,8|2,0:0|0:0,0:0:0:0:
410,211,237969,1,0,0:0:0:0:
434,206,238055,2,0,L|488:221,1,49.5000015106202
418,328,238228,2,0,L|364:313,1,49.5000015106202,8|0,0:0|0:0,0:0:0:0:
282,335,238400,2,0,P|228:319|187:278,1,99.0000030212403
166,90,238745,53,6,0:0:0:0:
127,232,238917,1,0,0:0:0:0:
22,128,239090,1,8,0:0:0:0:
105,150,239262,1,2,0:0:0:0:
75,39,239435,53,0,0:0:0:0:
98,30,239521,1,0,0:0:0:0:
121,21,239607,1,8,0:0:0:0:
24,231,239779,1,0,0:0:0:0:
215,179,239951,1,8,0:0:0:0:
457,347,240124,54,0,L|444:232,1,99.0000030212403,6|0,0:0|0:0,0:0:0:0:
493,107,240469,1,8,0:0:0:0:
362,315,240641,2,0,P|298:298|253:295,1,99.0000030212403
405,56,240986,2,0,L|447:8,1,49.5000015106202,8|0,0:0|0:0,0:0:0:0:
493,107,241159,1,0,0:0:0:0:
476,125,241245,1,0,0:0:0:0:
455,139,241331,2,0,L|392:138,1,49.5000015106202
314,63,241504,54,0,P|261:71|211:98,1,99.0000030212403,6|0,0:0|0:0,0:0:0:0:
310,208,241848,1,8,0:0:0:0:
110,38,242021,2,0,L|136:151,1,99.0000030212403,2|0,0:0|0:0,0:0:0:0:
220,314,242366,2,0,L|269:328,1,49.5000015106202,8|0,0:0|0:0,0:0:0:0:
149,344,242538,2,0,L|123:231,1,99.0000030212403,0|8,0:0|0:0,0:0:0:0:
478,144,242883,54,0,L|373:187,1,99.0000030212403,6|0,0:0|0:0,0:0:0:0:
361,34,243228,1,8,0:0:0:0:
366,305,243400,2,0,L|381:192,1,99.0000030212403,6|0,0:0|0:0,0:0:0:0:
225,28,243745,1,8,0:0:0:0:
235,50,243831,1,0,0:0:0:0:
246,71,243917,2,0,L|300:96,1,49.5000015106202
302,185,244090,2,0,P|293:208|274:234,1,49.5000015106202
186,302,244262,54,0,P|131:283|96:250,1,99.0000030212403,6|0,0:0|0:0,0:0:0:0:
302,185,244607,1,8,0:0:0:0:
0,283,244779,2,0,P|43:244|90:231,1,99.0000030212403,6|0,0:0|0:0,0:0:0:0:
246,71,245124,2,0,L|258:134,1,49.5000015106202,8|0,0:0|0:0,0:0:0:0:
201,173,245297,1,0,0:0:0:0:
57,68,245469,1,8,0:0:0:0:
359,51,245641,54,0,L|254:61,1,99.0000030212403,6|0,0:0|0:0,0:0:0:0:
415,173,245986,2,0,P|434:126|473:88,1,99.0000030212403,8|2,0:0|0:0,0:0:0:0:
302,185,246331,2,0,L|316:242,1,49.5000015106202
360,290,246503,1,8,0:0:0:0:
375,309,246590,1,0,0:0:0:0:
390,327,246676,1,0,0:0:0:0:
226,261,246848,1,0,0:0:0:0:
201,254,246935,1,0,0:0:0:0:
176,248,247021,54,0,L|80:278,1,99.0000030212403,6|0,0:0|0:0,0:0:0:0:
293,139,247366,1,8,0:0:0:0:
130,95,247538,1,2,0:0:0:0:
233,36,247710,1,0,0:0:0:0:
207,210,247883,1,8,0:0:0:0:
190,228,247969,1,0,0:0:0:0:
176,248,248055,1,0,0:0:0:0:
222,15,248228,1,8,0:0:0:0:
399,209,248400,54,0,L|381:105,1,99.0000030212403,6|0,0:0|0:1,0:1:0:0:
472,277,248745,1,8,0:0:0:0:
294,290,248917,2,0,L|342:279,1,49.5000015106202,2|0,0:0|0:0,0:0:0:0:
271,279,249090,1,0,0:0:0:0:
248,269,249176,1,0,0:0:0:0:
225,259,249262,1,8,0:0:0:0:
61,296,249435,2,0,L|73:358,1,49.5000015106202
138,259,249607,2,0,L|150:197,1,49.5000015106202
86,155,249779,54,0,L|109:45,1,99.0000030212403,6|0,0:0|0:0,0:0:0:0:
320,117,250124,1,8,0:0:0:0:
171,129,250297,1,2,0:0:0:0:
278,43,250469,1,0,0:0:0:0:
278,192,250641,1,8,0:0:0:0:
256,205,250728,1,0,0:0:0:0:
235,218,250814,1,0,0:0:0:0:
406,117,250986,1,8,0:0:0:0:
403,305,251159,54,0,L|494:357,1,99.0000030212403,6|0,0:0|0:0,0:0:0:0:
482,206,251503,1,8,0:0:0:0:
302,273,251676,2,0,B|372:197|372:197|333:105,1,198.000006042481,4|8,0:0|0:0,0:0:0:0:
323,87,252107,1,0,0:0:0:0:
312,64,252193,2,0,L|252:58,1,49.5000015106202
194,146,252366,2,0,L|243:141,1,49.5000015106202
109,79,252538,54,0,L|18:27,1,99.0000030212403,6|0,0:0|0:0,0:0:0:0:
30,178,252882,1,8,0:0:0:0:
210,111,253055,2,0,B|140:187|140:187|179:279,1,198.000006042481,4|8,0:0|0:0,0:0:0:0:
189,297,253486,1,0,0:0:0:0:
200,320,253572,2,0,L|260:326,1,49.5000015106202
318,238,253745,2,0,L|268:242,1,49.5000015106202
403,305,253917,54,0,P|459:297|500:268,1,99.0000030212403,6|0,0:0|0:0,0:0:0:0:
457,129,254262,1,8,0:0:0:0:
387,280,254435,2,0,L|359:382,1,99.0000030212403,2|0,0:0|0:0,0:0:0:0:
384,83,254779,2,0,L|423:40,1,49.5000015106202,8|0,0:0|0:0,0:0:0:0:
457,129,254952,1,0,0:0:0:0:
438,145,255038,1,0,0:0:0:0:
417,157,255124,1,0,0:0:0:0:
393,163,255210,1,0,0:0:0:0:
368,163,255297,54,0,L|266:140,1,99.0000030212403,6|0,0:0|0:0,0:0:0:0:
129,103,255641,1,8,0:0:0:0:
262,256,255814,2,0,P|266:206|293:152,1,99.0000030212403,2|0,0:0|0:0,0:0:0:0:
342,298,256159,1,8,0:0:0:0:
352,320,256245,1,0,0:0:0:0:
363,342,256331,1,0,0:0:0:0:
272,141,256503,1,8,0:0:0:0:
42,312,256676,37,6,0:0:0:0:
195,262,256848,1,0,0:0:0:0:
42,213,257021,1,10,0:0:0:0:
137,343,257193,1,6,0:0:0:0:
137,103,257366,53,2,0:0:0:0:
132,323,257538,1,8,0:0:0:0:
0,141,257710,1,2,0:0:0:0:
0,141,257883,1,0,0:0:0:0:
218,216,258055,54,0,L|320:204,1,99.0000030212403,4|0,0:0|0:0,0:0:0:0:
447,275,258400,1,8,0:0:0:0:
263,293,258572,2,0,L|365:281,1,99.0000030212403,4|0,0:0|0:0,0:0:0:0:
177,304,258917,1,8,0:0:0:0:
407,356,259090,2,0,L|309:368,1,99.0000030212403
382,28,259435,53,6,0:0:0:0:
425,190,259607,1,0,0:0:0:0:
485,87,259780,1,10,0:0:0:0:
323,130,259952,54,0,L|269:122,1,49.5000015106202,6|0,0:0|0:0,0:0:0:0:
206,152,260124,1,2,0:0:0:0:
181,154,260210,1,0,0:0:0:0:
157,146,260297,1,8,0:0:0:0:
246,27,260469,1,2,0:0:0:0:
98,11,260641,1,0,0:0:0:0:
115,280,260814,54,0,L|74:174,1,99.0000030212403,6|0,0:0|0:0,0:0:0:0:
334,248,261159,1,10,0:0:0:0:
206,323,261331,1,6,0:0:0:0:
206,174,261503,1,2,0:0:0:0:
431,247,261676,53,10,0:0:0:0:
288,334,261848,1,2,0:0:0:0:
286,163,262021,1,8,0:0:0:0:
512,328,262193,54,0,P|473:315|417:277,2,99.0000030212403,6|2|8,0:0|0:0|0:0,0:0:0:0:
462,92,262710,2,0,L|490:210,1,99.0000030212403,6|0,0:0|0:0,0:0:0:0:
322,70,263055,1,8,0:0:0:0:
340,53,263141,1,0,0:0:0:0:
351,30,263228,1,0,0:0:0:0:
214,94,263400,1,0,0:0:0:0:
342,178,263572,54,0,L|160:58,1,198.000006042481,4|8,0:0|0:0,0:0:0:0:
46,196,264090,2,0,P|106:170|233:214,1,198.000006042481,4|8,0:0|0:0,0:0:0:0:
243,227,264521,1,0,0:0:0:0:
255,248,264607,1,0,0:0:0:0:
106,79,264779,1,0,0:0:0:0:
268,268,264952,54,0,L|155:264,1,99.0000030212403,4|0,0:0|0:0,0:0:0:0:
406,241,265297,1,8,0:0:0:0:
365,384,265469,1,4,0:0:0:0:
394,58,265641,1,0,0:0:0:0:
405,80,265728,1,0,0:0:0:0:
415,102,265814,1,8,0:0:0:0:
304,29,265986,2,0,L|252:34,1,49.5000015106202
194,95,266159,2,0,L|142:76,1,49.5000015106202
84,21,266331,54,0,L|-7:60,1,99.0000030212403,4|0,0:0|0:0,0:0:0:0:
165,322,266676,1,8,0:0:0:0:
121,159,266848,1,4,0:0:0:0:
14,278,267021,1,0,0:0:0:0:
38,270,267107,1,0,0:0:0:0:
62,262,267193,1,8,0:0:0:0:
224,219,267366,1,0,0:0:0:0:
14,278,267538,1,8,0:0:0:0:
302,114,267710,53,6,0:0:0:0:
214,248,267882,1,0,0:0:0:0:
206,88,268055,1,10,0:0:0:0:
307,213,268227,1,6,0:0:0:0:
414,54,268401,53,2,0:0:0:0:
299,242,268573,1,8,0:0:0:0:
276,18,268745,1,2,0:0:0:0:
276,18,268918,1,0,0:0:0:0:
486,204,269090,54,0,L|376:191,2,99.0000030212403,4|0|8,0:0|0:0|0:0,0:0:0:0:
255,327,269607,2,0,L|365:340,2,99.0000030212403,4|0|8,0:0|0:0|0:0,0:0:0:0:
432,353,270124,1,0,0:0:0:0:
309,178,270297,1,0,0:0:0:0:
444,363,270469,53,6,0:0:0:0:
414,198,270641,1,0,0:0:0:0:
512,265,270814,1,10,0:0:0:0:
347,295,270986,54,0,L|276:285,1,49.5000015106202,6|0,0:0|0:0,0:0:0:0:
225,306,271159,1,2,0:0:0:0:
201,299,271245,1,0,0:0:0:0:
182,282,271331,1,8,0:0:0:0:
26,298,271503,2,0,L|41:248,1,49.5000015106202,2|0,0:0|0:0,0:0:0:0:
34,165,271676,2,0,L|79:140,1,49.5000015106202
116,64,271848,54,0,P|163:69|220:93,1,99.0000030212403,6|0,0:0|0:0,0:0:0:0:
338,164,272193,1,8,0:0:0:0:
192,196,272366,1,6,0:0:0:0:
376,89,272538,54,0,P|423:94|480:118,1,99.0000030212403,2|10,0:0|0:0,0:0:0:0:
320,281,272883,1,2,0:0:0:0:
294,95,273055,1,8,0:0:0:0:
123,311,273228,54,0,L|102:210,2,99.0000030212403,6|2|8,0:0|0:0|0:0,0:0:0:0:
139,125,273745,2,0,P|96:117|44:138,1,99.0000030212403,6|0,0:0|0:0,0:0:0:0:
261,192,274090,2,0,L|304:215,1,49.5000015106202,8|0,0:0|0:0,0:0:0:0:
255,168,274262,1,0,0:0:0:0:
249,144,274348,1,0,0:0:0:0:
243,119,274434,1,0,0:0:0:0:
237,94,274521,1,0,0:0:0:0:
231,69,274607,54,0,L|142:22,1,99.0000030212403,4|0,0:0|0:0,0:0:0:0:
439,118,274952,1,8,0:0:0:0:
355,41,275124,2,0,P|328:90|330:144,1,99.0000030212403,4|0,0:0|0:0,0:0:0:0:
283,4,275469,1,8,0:0:0:0:
354,248,275641,2,0,L|346:145,1,99.0000030212403
208,333,275986,53,2,0:0:0:0:
338,261,276159,1,2,0:0:0:0:
196,218,276331,1,2,0:0:0:0:
66,290,276504,1,2,0:0:0:0:
226,345,276676,53,2,0:0:0:0:
205,198,276848,1,2,0:0:0:0:
184,50,277021,1,2,0:0:0:0:
440,232,277193,53,2,0:0:0:0:
416,238,277280,1,2,0:0:0:0:
391,240,277366,1,2,0:0:0:0:
367,237,277452,1,2,0:0:0:0:
343,228,277538,1,2,0:0:0:0:
322,215,277624,1,2,0:0:0:0:
301,202,277711,1,2,0:0:0:0:
278,194,277797,1,2,0:0:0:0:
253,191,277883,1,2,0:0:0:0:
229,192,277969,1,2,0:0:0:0:
205,198,278055,2,2,L|180:217,6,24.7500007553101
205,198,278400,22,0,P|167:231|147:268,1,72
14,14,278745,1,4,0:0:0:0:
56,102,289779,54,0,P|105:114|146:103,1,90,2|8,0:0|0:0,0:0:0:0:
202,73,290297,2,0,L|243:174,1,90,2|8,0:0|0:0,0:0:0:0:
260,219,290814,1,0,0:0:0:0:
484,343,291159,54,0,L|446:238,1,99.0000030212403,2|8,0:0|0:0,0:0:0:0:
420,181,291676,2,0,P|373:197|338:239,1,99.0000030212403,2|8,0:0|0:0,0:0:0:0:
319,304,292193,1,0,0:0:0:0:
244,308,292366,1,0,0:0:0:0:
218,231,292538,54,0,B|218:204|235:181|235:181|226:109,1,107.999996704102,2|8,0:0|0:0,0:0:0:0:
298,74,293055,2,0,L|307:141,1,53.9999983520508,2|0,0:0|0:0,0:0:0:0:
225,50,293400,2,0,B|171:43|171:43|123:65,1,107.999996704102,8|0,0:0|0:0,0:0:0:0:
18,171,293917,54,0,B|59:180|59:180|89:171|89:171|139:182,1,116.999994644165
219,250,294434,2,0,P|163:288|113:290,1,116.999994644165
226,225,294952,2,0,P|241:201|266:185,1,58.4999973220826
457,326,295297,54,0,L|374:309,1,62.9999980773926,4|0,0:0|0:0,0:0:0:0:
371,222,295641,2,0,P|382:190|405:160,1,62.9999980773926,8|0,0:0|0:0,0:0:0:0:
486,66,295986,2,0,L|493:147,1,62.9999980773926
393,51,296331,2,0,P|354:62|327:62,1,62.9999980773926,8|0,0:0|0:0,0:0:0:0:
180,62,296676,54,0,P|148:60|111:48,1,72,4|0,0:0|0:0,0:0:0:0:
20,128,297021,2,0,L|27:58,1,72,8|0,0:0|0:0,0:0:0:0:
113,166,297366,2,0,P|131:192|141:231,1,72
116,313,297710,2,0,L|47:329,1,72,8|0,0:0|0:0,0:0:0:0:
440,250,298055,53,2,0:0:0:0:
307,285,298228,1,2,0:0:0:0:
355,202,298400,1,2,0:0:0:0:
392,335,298572,1,2,0:0:0:0:
352,191,298745,53,2,0:0:0:0:
307,25,298917,1,2,0:0:0:0:
412,85,299090,1,2,0:0:0:0:
246,130,299262,1,2,0:0:0:0:
225,131,299348,1,2,0:0:0:0:
205,130,299434,1,2,0:0:0:0:
185,125,299520,1,2,0:0:0:0:
167,118,299606,1,2,0:0:0:0:
149,108,299693,1,2,0:0:0:0:
132,97,299779,1,2,0:0:0:0:
114,88,299865,1,2,0:0:0:0:
95,81,299951,1,2,0:0:0:0:
75,78,300037,1,2,0:0:0:0:
55,77,300124,2,2,L|26:81,6,22.5
17,102,300469,53,8,0:0:0:0:
256,192,301848,12,2,303055,0:0:0:0:
256,192,303228,53,8,0:0:0:0:
473,137,303572,38,0,L|464:22,1,107.999996704102,6|0,0:0|0:0,0:0:0:0:
438,297,303917,1,8,0:0:0:0:
355,100,304090,2,0,P|407:122|460:123,1,107.999996704102,2|0,0:0|0:0,0:0:0:0:
271,41,304434,1,8,0:0:0:0:
218,26,304521,1,0,0:0:0:0:
170,51,304607,1,0,0:0:0:0:
162,104,304693,1,0,0:0:0:0:
144,154,304779,1,0,0:0:0:0:
96,179,304865,1,0,0:0:0:0:
43,164,304952,54,0,L|66:58,1,107.999996704102,6|0,0:0|0:0,0:0:0:0:
157,236,305297,1,8,0:0:0:0:
211,361,305469,2,0,P|154:372|101:358,1,107.999996704102,2|0,0:0|0:0,0:0:0:0:
360,217,305814,54,0,L|395:176,1,53.9999983520508,8|0,0:0|0:0,0:0:0:0:
281,247,305986,1,0,0:0:0:0:
422,335,306159,1,8,0:0:0:0:
481,93,306331,54,0,L|366:74,1,107.999996704102,6|0,0:0|0:0,0:0:0:0:
191,224,306676,1,8,0:0:0:0:
350,200,306848,1,2,0:0:0:0:
251,70,307021,1,0,0:0:0:0:
202,47,307107,1,0,0:0:0:0:
147,54,307193,1,8,0:0:0:0:
75,207,307365,2,0,L|56:257,1,53.9999983520508
39,133,307538,1,0,0:0:0:0:
56,337,307710,54,0,P|116:340|161:319,1,107.999996704102,6|0,0:0|0:0,0:0:0:0:
349,274,308055,1,8,0:0:0:0:
191,224,308228,1,2,0:0:0:0:
308,345,308400,1,0,0:0:0:0:
376,176,308572,54,0,L|358:126,1,53.9999983520508,8|0,0:0|0:0,0:0:0:0:
453,208,308745,1,0,0:0:0:0:
270,66,308917,1,8,0:0:0:0:
469,336,309090,54,0,L|444:226,1,107.999996704102,6|0,0:0|0:0,0:0:0:0:
396,31,309434,1,8,0:0:0:0:
353,187,309607,1,2,0:0:0:0:
510,145,309779,1,0,0:0:0:0:
270,66,309952,2,0,L|209:52,1,53.9999983520508,8|0,0:0|0:0,0:0:0:0:
149,97,310124,1,0,0:0:0:0:
96,106,310210,1,0,0:0:0:0:
45,86,310297,2,0,L|73:25,1,53.9999983520508
104,187,310469,54,0,L|58:289,1,107.999996704102,6|0,0:0|0:0,0:0:0:0:
263,87,310814,1,8,0:0:0:0:
200,235,310987,1,2,0:0:0:0:
360,213,311159,1,0,0:0:0:0:
188,144,311331,54,0,L|254:136,1,53.9999983520508,8|0,0:0|0:0,0:0:0:0:
348,125,311504,1,0,2:0:0:0:
287,272,311676,1,8,2:0:0:0:
477,75,311848,54,0,P|433:50|358:42,1,107.999996704102,6|0,0:0|0:0,0:0:0:0:
392,329,312193,1,8,0:0:0:0:
473,189,312365,1,6,0:0:0:0:
235,342,312538,1,0,0:0:0:0:
204,298,312624,1,0,0:0:0:0:
206,245,312710,2,0,L|251:200,1,53.9999983520508,8|0,0:0|0:0,0:0:0:0:
338,180,312883,2,0,P|330:147|317:125,1,53.9999983520508
243,33,313055,2,0,L|232:97,1,53.9999983520508
119,156,313228,54,0,P|91:96|61:68,1,107.999996704102,6|0,0:0|0:0,0:0:0:0:
61,280,313572,1,8,0:0:0:0:
221,252,313745,1,6,0:0:0:0:
128,372,313917,1,0,0:0:0:0:
135,318,314004,1,0,0:0:0:0:
141,265,314090,53,8,0:0:0:0:
396,317,314262,2,0,L|343:329,1,53.9999983520508
435,244,314434,1,8,0:0:0:0:
412,69,314607,54,0,P|466:69|526:93,1,107.999996704102,4|0,0:0|0:0,0:0:0:0:
274,33,314952,1,8,0:0:0:0:
374,188,315124,2,0,P|394:131|387:81,1,107.999996704102,2|0,0:0|0:0,0:0:0:0:
171,101,315469,1,8,0:0:0:0:
117,95,315555,1,0,0:0:0:0:
63,90,315641,2,0,L|8:99,1,53.9999983520508
61,179,315814,1,0,0:0:0:0:
83,228,315900,1,0,0:0:0:0:
73,280,315986,53,6,0:0:0:0:
215,202,316159,1,0,0:0:0:0:
211,363,316331,1,8,0:0:0:0:
164,132,316503,2,0,P|179:78|207:34,1,107.999996704102,2|0,0:0|0:0,0:0:0:0:
398,140,316848,54,0,L|345:150,1,53.9999983520508,8|0,0:0|0:0,0:0:0:0:
441,67,317021,1,0,0:0:0:0:
454,301,317193,1,8,0:0:0:0:
269,114,317365,54,0,L|376:135,1,107.999996704102,6|0,0:0|0:0,0:0:0:0:
195,27,317710,1,8,0:0:0:0:
196,282,317883,2,0,P|207:231|189:172,1,107.999996704102,2|0,0:0|0:0,0:0:0:0:
164,132,318141,1,0,0:0:0:0:
114,108,318228,1,8,0:0:0:0:
60,116,318314,1,0,0:0:0:0:
22,154,318400,2,0,L|33:219,1,53.9999983520508
106,294,318572,2,0,L|116:241,1,53.9999983520508
13,346,318745,54,0,P|73:346|125:314,1,107.999996704102,6|0,0:0|0:0,0:0:0:0:
229,209,319090,1,8,0:0:0:0:
374,346,319262,2,0,L|266:321,1,107.999996704102,2|0,0:0|0:0,0:0:0:0:
410,165,319607,53,8,0:0:0:0:
455,135,319693,1,0,0:0:0:0:
500,106,319779,1,0,0:0:0:0:
369,323,319952,1,8,0:0:0:0:
258,104,320124,54,0,P|242:155|261:221,1,107.999996704102,6|0,0:0|0:0,0:0:0:0:
465,265,320469,1,8,0:0:0:0:
379,75,320641,2,0,L|265:81,1,107.999996704102,6|0,0:0|0:0,0:0:0:0:
53,154,320986,2,0,L|34:81,1,53.9999983520508
155,146,321159,2,0,L|136:219,1,53.9999983520508
121,276,321331,1,0,0:0:0:0:
74,303,321417,1,0,0:0:0:0:
28,331,321503,54,0,P|12:280|31:214,1,107.999996704102,6|0,0:0|0:0,0:0:0:0:
235,170,321848,1,8,0:0:0:0:
149,360,322020,2,0,L|35:354,1,107.999996704102,6|0,0:0|0:0,0:0:0:0:
333,315,322365,54,0,L|391:320,1,53.9999983520508,8|0,0:0|0:0,0:0:0:0:
275,253,322538,1,0,0:0:0:0:
477,196,322710,1,8,0:0:0:0:
329,45,322883,54,0,L|301:153,1,107.999996704102,6|0,0:0|0:0,0:0:0:0:
442,38,323228,1,8,0:0:0:0:
223,51,323400,2,0,P|168:41|108:21,1,107.999996704102,2|0,0:0|0:0,0:0:0:0:
134,178,323745,2,0,L|109:115,1,53.9999983520508,8|0,0:0|0:0,0:0:0:0:
68,238,323917,1,0,0:0:0:0:
112,266,324003,1,0,0:0:0:0:
166,265,324089,1,0,0:0:0:0:
209,233,324175,1,0,0:0:0:0:
227,184,324262,54,0,L|175:60,1,107.999996704102,6|0,0:0|0:0,0:0:0:0:
297,349,324607,2,0,L|324:283,1,53.9999983520508,8|0,0:0|0:0,0:0:0:0:
347,223,324779,1,2,0:0:0:0:
464,80,324952,2,0,L|491:14,1,53.9999983520508
389,109,325124,53,8,0:0:0:0:
422,151,325210,1,0,0:0:0:0:
474,162,325296,1,0,0:0:0:0:
310,40,325469,2,0,L|233:46,1,53.9999983520508,8|0,0:0|0:0,0:0:0:0:
196,110,325641,54,0,L|83:121,1,107.999996704102,6|2,0:0|0:0,0:0:0:0:
316,274,325986,2,0,L|429:263,1,107.999996704102,10|2,0:0|0:0,0:0:0:0:
174,252,326331,2,0,L|185:365,1,107.999996704102,2|10,0:0|0:0,0:0:0:0:
338,132,326676,2,0,L|327:19,1,107.999996704102,2|0,0:0|0:0,0:0:0:0:
256,52,326934,53,2,0:0:0:0:
203,36,327021,1,2,0:0:0:0:
153,57,327107,1,2,0:0:0:0:
129,105,327193,1,2,0:0:0:0:
142,157,327279,1,2,0:0:0:0:
184,190,327365,53,10,0:0:0:0:
220,151,327451,1,2,0:0:0:0:
272,143,327537,1,2,0:0:0:0:
318,170,327623,1,2,0:0:0:0:
337,219,327710,54,2,L|330:261,6,26.9999991760254
337,219,328055,6,0,P|327:265|311:301,1,80.9999975280763,0|8,0:0|0:0,0:0:0:0:
475,35,328400,21,6,0:0:0:0:
350,136,328572,1,0,0:0:0:0:
511,128,328745,1,8,0:0:0:0:
376,41,328917,1,2,0:0:0:0:
435,192,329090,2,0,L|535:158,1,99.0000030212403,0|8,0:0|0:0,0:0:0:0:
409,298,329434,1,0,0:0:0:0:
384,299,329520,1,0,0:0:0:0:
360,294,329606,1,0,0:0:0:0:
337,284,329692,1,0,0:0:0:0:
317,269,329779,54,0,L|342:163,1,99.0000030212403,2|0,0:0|0:0,0:0:0:0:
409,298,330124,1,8,0:0:0:0:
232,214,330296,2,0,P|182:225|133:256,1,99.0000030212403,2|0,0:0|0:0,0:0:0:0:
250,102,330641,1,8,0:0:0:0:
202,340,330814,2,0,L|227:224,1,99.0000030212403
105,170,331159,54,0,P|118:217|117:267,1,99.0000030212403,6|0,0:0|0:0,0:0:0:0:
157,89,331503,2,0,L|44:77,1,99.0000030212403,8|2,0:0|0:0,0:0:0:0:
250,102,331848,1,0,0:0:0:0:
268,85,331934,1,0,0:0:0:0:
289,73,332020,1,8,0:0:0:0:
313,66,332106,1,0,0:0:0:0:
338,65,332193,2,0,L|395:72,1,49.5000015106202
436,126,332365,1,0,0:0:0:0:
451,145,332452,1,0,0:0:0:0:
466,164,332538,53,2,0:0:0:0:
431,308,332710,1,0,0:0:0:0:
322,206,332883,1,8,0:0:0:0:
481,182,333055,2,0,L|442:213,1,49.5000015106202,2|0,0:0|0:0,0:0:0:0:
466,164,333228,1,0,0:0:0:0:
451,145,333314,1,0,0:0:0:0:
436,126,333401,1,8,0:0:0:0:
336,298,333572,1,0,0:0:0:0:
437,45,333745,1,8,0:0:0:0:
303,218,333917,54,0,P|248:216|205:197,1,99.0000030212403,2|0,0:0|0:0,0:0:0:0:
324,105,334262,1,8,0:0:0:0:
159,273,334434,2,0,L|192:171,1,99.0000030212403,2|0,0:0|0:0,0:0:0:0:
248,328,334779,1,8,0:0:0:0:
113,176,334952,2,0,L|133:117,1,49.5000015106202
122,55,335124,1,0,0:0:0:0:
107,35,335210,1,0,0:0:0:0:
84,25,335296,53,2,0:0:0:0:
321,67,335469,2,0,L|222:51,1,99.0000030212403,0|8,0:0|0:0,0:0:0:0:
396,153,335814,2,0,P|420:109|462:76,1,99.0000030212403,2|0,0:0|0:0,0:0:0:0:
290,169,336159,1,8,0:0:0:0:
391,277,336331,1,0,0:0:0:0:
247,313,336503,1,0,0:0:0:0:
55,241,336676,54,0,L|82:342,1,99.0000030212403,2|0,0:0|0:0,0:0:0:0:
108,100,337021,1,8,0:0:0:0:
203,213,337193,1,2,0:0:0:0:
49,38,337365,1,0,0:0:0:0:
69,23,337451,1,0,0:0:0:0:
92,15,337537,1,8,0:0:0:0:
117,14,337623,1,0,0:0:0:0:
141,19,337710,2,0,L|191:68,1,49.5000015106202
242,113,337883,2,0,P|268:94|302:85,1,49.5000015106202
343,27,338055,54,0,L|448:50,1,99.0000030212403,2|0,0:0|0:0,0:0:0:0:
378,298,338400,1,8,0:0:0:0:
421,135,338572,1,2,0:0:0:0:
318,195,338745,1,0,0:0:0:0:
294,188,338831,1,0,0:0:0:0:
270,181,338917,1,8,0:0:0:0:
480,238,339090,1,0,0:0:0:0:
245,175,339262,1,8,0:0:0:0:
499,218,339434,54,0,L|470:315,1,99.0000030212403,6|0,0:0|0:0,0:0:0:0:
323,335,339779,1,8,0:0:0:0:
253,203,339952,2,0,P|301:184|353:188,1,99.0000030212403,2|0,0:0|0:0,0:0:0:0:
301,350,340296,1,8,0:0:0:0:
148,192,340469,1,0,0:0:0:0:
153,216,340555,1,0,0:0:0:0:
158,240,340641,1,0,0:0:0:0:
163,264,340727,1,0,0:0:0:0:
168,288,340813,53,2,0:0:0:0:
166,115,340986,2,0,L|63:98,1,99.0000030212403,0|8,0:0|0:0,0:0:0:0:
191,313,341331,2,0,B|286:342|286:342|374:271,1,198.000006042481,2|8,0:0|0:0,0:0:0:0:
66,353,341848,2,0,P|83:297|80:239,1,99.0000030212403
181,94,342193,54,0,L|162:208,1,99.0000030212403,2|0,0:0|0:0,0:0:0:0:
319,33,342538,1,8,0:0:0:0:
412,147,342710,1,2,0:0:0:0:
495,23,342883,2,0,L|541:5,1,49.5000015106202
472,32,343055,1,8,0:0:0:0:
447,37,343141,1,0,0:0:0:0:
422,36,343228,1,0,0:0:0:0:
309,132,343400,1,0,0:0:0:0:
471,311,343572,54,0,P|455:257|417:233,1,99.0000030212403,2|0,0:0|0:0,0:0:0:0:
229,330,343917,2,0,L|335:313,1,99.0000030212403,8|2,0:0|0:0,0:0:0:0:
85,258,344262,1,0,0:0:0:0:
89,282,344348,1,0,0:0:0:0:
93,306,344434,1,8,0:0:0:0:
133,129,344607,1,0,0:0:0:0:
97,330,344779,1,8,0:0:0:0:
141,97,344952,54,0,L|36:123,1,99.0000030212403
346,119,345296,1,8,0:0:0:0:
228,27,345469,1,2,0:0:0:0:
404,188,345641,2,0,P|433:144|433:100,1,99.0000030212403,0|8,0:0|0:0,0:0:0:0:
338,250,345986,2,0,L|350:304,1,49.5000015106202
256,363,346159,2,0,P|262:331|263:308,1,49.5000015106202
232,233,346331,54,0,L|121:215,1,99.0000030212403,2|0,0:0|0:0,0:0:0:0:
337,378,346676,1,8,0:0:0:0:
108,226,346848,2,0,P|113:181|140:131,1,99.0000030212403,2|0,0:0|0:0,0:0:0:0:
161,350,347193,2,0,L|43:365,2,99.0000030212403,8|0|0,0:0|0:0|0:0,0:0:0:0:
205,86,347710,53,2,0:0:0:0:
299,215,347883,1,0,0:0:0:0:
299,55,348055,1,8,0:0:0:0:
205,185,348228,1,2,0:0:0:0:
358,135,348400,2,0,L|415:111,1,49.5000015106202
464,158,348572,1,8,0:0:0:0:
488,153,348659,1,0,0:0:0:0:
506,136,348745,1,0,0:0:0:0:
406,26,348917,1,0,0:0:0:0:
414,320,349090,54,0,L|413:210,1,99.0000030212403,2|0,0:0|0:0,0:0:0:0:
492,371,349434,1,8,0:0:0:0:
180,303,349607,1,2,0:0:0:0:
201,290,349693,1,0,0:0:0:0:
222,278,349779,2,0,L|321:292,1,99.0000030212403,0|8,0:0|0:0,0:0:0:0:
110,168,350124,1,0,0:0:0:0:
101,356,350296,1,8,0:0:0:0:
122,143,350469,102,0,P|116:119|72:64,1,90,2|0,0:0|0:0,0:0:0:0:
237,36,350814,1,8,0:0:0:0:
218,142,350986,2,0,B|289:130|289:130|329:103|329:103|392:96,1,180,2|8,0:0|0:0,0:0:0:0:
489,135,351503,2,0,P|496:90|481:48,1,90
351,205,351848,54,0,L|449:222,1,90,2|0,0:0|0:0,0:0:0:0:
398,120,352193,1,8,0:0:0:0:
351,302,352365,2,0,B|310:302|275:269|275:269|236:232|187:234,1,180,2|8,0:0|0:0,0:0:0:0:
94,305,352883,2,0,P|48:283|18:243,1,90,0|8,0:0|0:0,0:0:0:0:
57,64,353227,54,0,L|68:179,1,90,2|0,0:0|0:0,0:0:0:0:
126,10,353572,1,8,0:0:0:0:
303,114,353745,2,0,P|238:140|140:96,1,180,2|8,0:0|0:0,0:0:0:0:
365,31,354262,1,0,0:0:0:0:
365,31,354348,1,0,0:0:0:0:
365,31,354434,1,0,0:0:0:0:
410,129,354607,54,0,P|399:166|362:209,1,90,2|0,0:0|0:0,0:0:0:0:
474,45,354952,1,8,0:0:0:0:
285,215,355124,2,0,L|374:230,1,90,2|0,0:0|0:0,0:0:0:0:
223,312,355469,1,8,0:0:0:0:
223,312,355555,1,0,0:0:0:0:
223,312,355641,2,0,L|134:297,1,90,0|8,0:0|0:0,0:0:0:0:
417,357,355986,53,2,0:0:0:0:
390,252,356159,1,0,0:0:0:0:
312,327,356331,1,8,0:0:0:0:
438,368,356503,2,0,B|431:322|431:322|474:290|480:242|452:201,1,180,2|8,0:0|0:0,0:0:0:0:
488,101,357021,2,0,P|455:70|399:48,1,90
298,151,357365,54,0,L|397:143,1,90,2|0,0:0|0:0,0:0:0:0:
326,54,357710,1,8,0:0:0:0:
201,196,357883,2,0,P|213:148|208:105,1,90,2|0,0:0|0:0,0:0:0:0:
282,252,358227,1,8,0:0:0:0:
124,53,358400,2,0,P|112:101|117:144,1,90,0|8,0:0|0:0,0:0:0:0:
44,289,358745,54,0,L|138:268,1,90,2|0,0:0|0:0,0:0:0:0:
246,384,359090,2,0,L|152:363,1,90,8|2,0:0|0:0,0:0:0:0:
234,288,359434,1,0,0:0:0:0:
295,199,359607,1,8,0:0:0:0:
295,199,359693,1,0,0:0:0:0:
295,199,359779,2,0,P|336:231|346:269,1,90
482,355,360124,54,0,B|465:298|465:298|488:240|488:240|470:168,1,180,2|8,0:0|0:0,0:0:0:0:
384,348,360641,1,2,0:0:0:0:
384,148,360814,1,0,0:0:0:0:
384,148,360900,1,0,0:0:0:0:
384,148,360986,2,0,L|406:235,2,90,8|0|8,0:0|0:0|0:0,0:0:0:0:
170,33,361503,54,0,L|259:50,1,90,2|0,0:0|0:0,0:0:0:0:
82,70,361848,1,8,0:0:0:0:
235,156,362021,2,0,P|228:107|246:70,1,90,2|0,0:0|0:0,0:0:0:0:
320,286,362365,1,8,0:0:0:0:
252,178,362538,2,0,L|341:195,1,90
181,243,362883,54,0,B|90:220|90:220|12:268,1,180,2|8,0:0|0:0,0:0:0:0:
234,347,363400,2,0,B|325:370|325:370|403:322,1,180,2|8,0:0|0:0,0:0:0:0:
324,179,363917,2,0,L|308:268,1,90,0|8,0:0|0:0,0:0:0:0:
456,131,364262,54,0,P|409:105|305:168,1,180,2|8,0:0|0:0,0:0:0:0:
159,67,364779,2,0,P|205:73|256:73,1,90,2|0,0:0|0:0,0:0:0:0:
160,163,365124,1,8,0:0:0:0:
160,163,365210,1,0,0:0:0:0:
160,163,365296,2,0,P|114:157|63:157,1,90
219,322,365641,54,0,P|215:265|305:185,1,180,2|8,0:0|0:0,0:0:0:0:
124,258,366159,2,0,L|26:291,1,90,2|0,0:0|0:0,0:0:0:0:
312,287,366503,1,8,0:0:0:0:
312,287,366590,1,0,0:0:0:0:
312,287,366676,2,0,L|410:254,1,90,0|8,0:0|0:0,0:0:0:0:
491,113,367021,54,0,B|452:125|408:105|408:105|359:81|314:99,1,180,2|8,0:0|0:0,0:0:0:0:
180,176,367538,2,0,B|218:163|262:183|262:183|311:207|356:189,1,180,2|8,0:0|0:0,0:0:0:0:
131,104,368055,2,0,P|99:140|94:186,1,90
221,95,368400,53,2,0:0:0:0:
109,279,368572,2,0,L|65:176,1,90,0|8,0:0|0:0,0:0:0:0:
291,306,368917,2,0,B|201:294|201:294|166:211,1,180,2|8,0:0|0:0,0:0:0:0:
275,224,369434,2,0,L|382:238,1,90,0|8,0:0|0:0,0:0:0:0:
482,97,369779,54,0,P|504:157|446:250,1,180,2|8,0:0|0:0,0:0:0:0:
408,350,370296,1,2,0:0:0:0:
387,114,370469,2,0,L|415:20,1,90,0|8,0:0|0:0,0:0:0:0:
306,195,370814,1,0,0:0:0:0:
306,195,370900,1,0,0:0:0:0:
306,195,370986,1,0,0:0:0:0:
205,153,371159,54,0,P|230:112|274:93,1,90,2|0,0:0|0:0,0:0:0:0:
249,258,371503,1,8,0:0:0:0:
115,215,371676,2,0,L|120:115,1,90,2|0,0:0|0:0,0:0:0:0:
195,324,372021,1,8,0:0:0:0:
195,324,372107,1,0,0:0:0:0:
195,324,372193,2,0,P|149:333|103:323,1,90,0|8,0:0|0:0,0:0:0:0:
256,192,372538,12,2,377883,0:0:0:0:
