osu file format v14

[General]
AudioFilename: audio.mp3
AudioLeadIn: 0
PreviewTime: 157613
Countdown: 0
SampleSet: Soft
StackLeniency: 0.7
Mode: 0
LetterboxInBreaks: 0
WidescreenStoryboard: 1

[Editor]
Bookmarks: 97700
DistanceSpacing: 0.8
BeatDivisor: 8
GridSize: 4
TimelineZoom: 1

[Metadata]
Title:ninelie
TitleUnicode:ninelie
Artist:Aimer with chelly (EGOIST)
ArtistUnicode:Aimer with chelly (EGOIST)
Creator:HabiHolic
Version:Insane
Source:甲鉄城のカバネリ
Tags:Sawano Hiroyuki Kōtetsujō no Kabaneri of the Iron Fortress Regou Ipas NewIpas Pho Rizia Kawaiwkyik Cellina guineaQ 10nya _t_e_n_n_y_a_ EvilElvis Karen ZZHBOY Haruto Xinely Regraz Norman Natsu Enon Monstrata W_h_i_t_e
BeatmapID:974160
BeatmapSetID:454352

[Difficulty]
HPDrainRate:6.8
CircleSize:4
OverallDifficulty:6.8
ApproachRate:8.5
SliderMultiplier:2.62
SliderTickRate:2

[Events]
//Background and Video events
0,0,"BG.png",0,0
//Break Periods
2,89877,91793
2,181970,183886
2,232202,234118
//Storyboard Layer 0 (Background)
//Storyboard Layer 1 (Fail)
//Storyboard Layer 2 (Pass)
//Storyboard Layer 3 (Foreground)
//Storyboard Sound Samples

[TimingPoints]
375,697.674418604651,4,2,0,50,1,0
45026,-133.333333333333,4,2,0,50,0,0
67351,-200,4,2,0,50,0,0
92468,-100,4,2,1,65,0,0
137120,-133.333333333333,4,2,0,50,0,0
148281,-200,4,2,0,50,0,0
158572,-133.333333333333,4,2,0,50,0,0
159095,-100,4,2,0,50,0,0
159444,-76.9230769230769,4,2,1,70,0,0
184561,-90.9090909090909,4,2,1,70,0,0
208281,-200,4,2,1,70,0,0
208805,-142.857142857143,4,2,1,70,0,0
209328,-100,4,2,1,70,0,0
209677,-83.3333333333333,4,2,1,70,0,0
234793,-100,4,2,1,70,0,0
245956,-133.333333333333,4,2,1,50,0,0
251537,-133.333333333333,4,2,0,50,0,0

[HitObjects]
76,100,11537,5,0,0:0:0:0:
76,100,11711,1,0,0:0:0:0:
136,160,11886,2,0,L|208:152,1,65.5,2|0,0:0|0:0,0:0:0:0:
324,84,12235,2,0,L|252:76,1,65.5
264,232,12584,2,0,L|336:224,1,65.5,0|2,0:0|0:0,0:0:0:0:
408,184,12933,6,0,P|412:152|404:120,1,65.5
329,224,13281,2,0,P|325:256|333:288,1,65.5,2|0,0:0|0:0,0:0:0:0:
465,344,13630,2,0,L|400:352,1,65.5
176,256,13979,2,0,L|241:263,1,65.5,2|0,0:0|0:0,0:0:0:0:
412,180,14328,6,0,L|420:252,2,65.5,0|0|2,0:0|0:0|0:0,0:0:0:0:
456,100,14851,1,0,0:0:0:0:
332,40,15026,1,0,0:0:0:0:
332,40,15200,1,0,0:0:0:0:
264,108,15374,2,0,L|196:100,1,65.5,2|0,0:0|0:0,0:0:0:0:
140,36,15723,5,0,0:0:0:0:
140,36,15898,1,0,0:0:0:0:
52,152,16072,2,0,L|60:220,1,65.5,2|0,0:0|0:0,0:0:0:0:
232,72,16421,1,0,0:0:0:0:
232,72,16596,1,0,0:0:0:0:
144,188,16770,2,0,L|152:256,1,65.5,0|2,0:0|0:0,0:0:0:0:
312,224,17119,6,0,P|280:224|240:216,1,65.5
32,328,17468,2,0,P|64:328|104:336,1,65.5,2|0,0:0|0:0,0:0:0:0:
256,368,17816,2,0,L|264:300,1,65.5
80,180,18165,2,0,L|72:245,1,65.5,0|2,0:0|0:0,0:0:0:0:
164,152,18514,6,0,P|152:120|128:100,1,65.5
156,240,18863,2,0,L|220:228,1,65.5,2|0,0:0|0:0,0:0:0:0:
344,160,19212,2,0,L|280:148,1,65.5
184,76,19561,2,0,L|196:152,1,65.5,0|2,0:0|0:0,0:0:0:0:
256,295,19909,6,0,P|318:286|366:328,1,131,0|2,0:0|0:0,0:0:0:0:
296,364,20433,1,0,0:0:0:0:
152,332,20607,2,0,L|144:264,1,65.5
63,154,20956,2,0,L|56:220,1,65.5,0|2,0:0|0:0,0:0:0:0:
144,120,21305,6,0,P|124:88|92:76,1,65.5
140,200,21654,2,0,L|208:192,1,65.5,2|0,0:0|0:0,0:0:0:0:
252,112,22002,1,0,0:0:0:0:
272,252,22177,1,0,0:0:0:0:
308,40,22351,1,0,0:0:0:0:
168,72,22526,1,2,0:0:0:0:
339,115,22700,6,0,P|400:132|456:92,1,131,0|2,0:0|0:0,0:0:0:0:
492,24,23223,1,0,0:0:0:0:
492,24,23398,2,0,L|508:156,1,131,0|2,0:0|0:0,0:0:0:0:
468,240,23921,1,0,0:0:0:0:
324,120,24095,6,0,P|292:112|256:124,1,65.5
184,180,24444,2,0,P|152:188|121:180,1,65.5,2|0,0:0|0:0,0:0:0:0:
40,132,24793,2,0,L|56:268,1,131,0|2,0:0|0:0,0:0:0:0:
12,336,25316,1,0,0:0:0:0:
128,312,25491,6,0,P|189:326|244:288,1,131,0|2,0:0|0:0,0:0:0:0:
264,196,26014,1,0,0:0:0:0:
161,113,26188,2,0,L|176:244,1,131,0|2,0:0|0:0,0:0:0:0:
296,344,26712,1,0,0:0:0:0:
360,280,26886,6,0,L|432:284,1,65.5
244,216,27235,2,0,L|178:219,1,65.5,2|0,0:0|0:0,0:0:0:0:
64,288,27584,2,0,P|44:228|60:160,1,131,0|2,0:0|0:0,0:0:0:0:
58,163,28281,6,0,L|196:176,1,131,0|2,0:0|0:0,0:0:0:0:
264,112,28805,1,0,0:0:0:0:
344,224,28979,2,0,L|328:296,1,65.5
400,156,29328,2,0,L|385:92,1,65.5,2|0,0:0|0:0,0:0:0:0:
248,36,29677,6,0,P|192:24|136:72,1,131,0|2,0:0|0:0,0:0:0:0:
208,104,30200,1,0,0:0:0:0:
324,71,30374,2,0,P|332:40|327:8,1,65.5
280,144,30723,2,0,P|275:176|283:207,1,65.5,2|0,0:0|0:0,0:0:0:0:
348,256,31072,6,0,L|212:240,1,131,0|2,0:0|0:0,0:0:0:0:
164,176,31595,2,0,P|180:232|160:304,1,131
84,155,32119,2,0,P|97:126|123:106,1,65.5,2|0,0:0|0:0,0:0:0:0:
200,64,32468,6,0,L|48:48,1,131,0|2,0:0|0:0,0:0:0:0:
12,208,32991,1,0,0:0:0:0:
96,248,33165,2,0,P|104:212|104:180,1,65.5
16,304,33514,2,0,P|16:336|24:368,1,65.5,2|0,0:0|0:0,0:0:0:0:
171,307,33863,6,0,P|235:317|285:278,1,131,0|2,0:0|0:0,0:0:0:0:
256,104,34386,1,0,0:0:0:0:
204,172,34561,2,0,L|215:236,1,65.5
144,104,34909,2,0,L|155:39,1,65.5,2|0,0:0|0:0,0:0:0:0:
120,196,35258,6,0,L|40:180,1,65.5
0,252,35607,1,2,0:0:0:0:
0,252,35781,1,0,0:0:0:0:
184,263,35956,2,0,P|212:206|195:145,1,131,0|2,0:0|0:0,0:0:0:0:
195,145,36479,1,0,0:0:0:0:
128,68,36654,6,0,L|60:60,1,65.5
288,128,37002,2,0,L|356:120,1,65.5,2|0,0:0|0:0,0:0:0:0:
476,184,37351,2,0,P|496:120|476:60,1,131,0|2,0:0|0:0,0:0:0:0:
476,61,37874,1,0,0:0:0:0:
348,176,38049,6,0,L|360:240,1,65.5
208,316,38398,2,0,L|220:252,1,65.5,2|0,0:0|0:0,0:0:0:0:
184,164,38747,1,0,0:0:0:0:
208,316,38921,1,0,0:0:0:0:
352,256,39095,1,2,0:0:0:0:
352,255,39444,6,0,P|414:246|463:287,1,131,0|2,0:0|0:0,0:0:0:0:
392,332,39968,1,0,0:0:0:0:
248,364,40142,2,0,B|228:296|272:312|248:228,1,131,0|2,0:0|0:0,0:0:0:0:
172,168,40665,1,0,0:0:0:0:
112,256,40840,6,0,P|144:272|176:272,1,65.5
376,180,41188,2,0,P|344:164|312:164,1,65.5,2|0,0:0|0:0,0:0:0:0:
435,252,41537,2,0,P|465:194|450:132,1,131,0|2,0:0|0:0,0:0:0:0:
380,80,42061,1,0,0:0:0:0:
300,252,42235,6,0,B|240:232|236:284|164:256,1,131,0|2,0:0|0:0,0:0:0:0:
64,336,42758,2,0,B|84:304|84:304|72:208,1,131
108,124,43281,2,0,L|180:132,1,65.5,2|0,0:0|0:0,0:0:0:0:
367,39,43630,6,0,P|305:27|252:63,1,131,0|2,0:0|0:0,0:0:0:0:
324,112,44154,1,0,0:0:0:0:
480,96,44328,2,0,L|492:24,1,65.5
368,136,44677,2,0,L|378:200,1,65.5,2|0,0:0|0:0,0:0:0:0:
304,312,45026,6,0,B|252:304|252:304|220:344|164:336|164:336|140:292|140:292|168:244|144:200,1,294.750011243821,0|2,0:0|0:0,0:0:0:0:
145,202,46421,2,0,P|56:190|55:100,1,196.50000749588,0|2,0:0|0:0,0:0:0:0:
272,44,47816,6,0,P|284:91|276:139,1,98.2500037479402,0|2,0:0|0:0,0:0:0:0:
243,204,48340,2,0,P|302:162|370:183,1,147.37500562191,0|2,0:0|0:0,0:0:0:0:
428,248,49037,1,0,0:0:0:0:
496,188,49212,2,0,L|508:88,1,98.2500037479402,0|2,0:0|0:0,0:0:0:0:
440,28,49735,1,0,0:0:0:0:
371,88,49909,2,0,P|347:92|323:88,1,49.1250018739701
240,132,50258,2,0,P|224:112|216:88,1,49.1250018739701,2|0,0:0|0:0,0:0:0:0:
184,16,50607,6,0,L|168:168,2,147.37500562191,0|0|2,0:0|0:0|0:0,0:0:0:0:
96,52,51828,1,0,0:0:0:0:
251,135,52002,2,0,P|298:149|342:129,1,98.2500037479402,0|2,0:0|0:0,0:0:0:0:
396,68,52526,1,0,0:0:0:0:
488,172,52700,2,0,L|480:228,1,49.1250018739701
384,272,53049,2,0,L|377:223,1,49.1250018739701,2|0,0:0|0:0,0:0:0:0:
288,160,53398,6,0,P|241:148|201:175,1,98.2500037479402,0|2,0:0|0:0,0:0:0:0:
260,232,53921,1,0,0:0:0:0:
396,184,54095,2,0,L|400:132,2,49.1250018739701,0|0|2,0:0|0:0|0:0,0:0:0:0:
452,256,54619,1,0,0:0:0:0:
332,348,54793,6,0,L|232:336,1,98.2500037479402,0|2,0:0|0:0,0:0:0:0:
168,264,55316,1,0,0:0:0:0:
264,192,55491,2,0,L|260:240,1,49.1250018739701
188,128,55840,2,0,L|192:80,1,49.1250018739701,2|0,0:0|0:0,0:0:0:0:
268,28,56188,1,2,0:0:0:0:
268,28,57584,5,2,0:0:0:0:
64,156,58281,1,0,0:0:0:0:
64,156,58979,6,0,L|84:264,1,98.2500037479402,0|2,0:0|0:0,0:0:0:0:
151,323,59502,2,0,P|262:336|277:226,1,245.62500936985
96,52,61072,6,0,L|108:152,1,98.2500037479402
184,216,61770,6,0,L|256:204,1,65.5000024986268
324,127,62235,2,0,P|401:114|457:170,1,163.750006246567,2|0,0:0|0:0,0:0:0:0:
352,364,63165,2,0,L|336:264,1,98.2500037479402
336,266,63688,1,0,0:0:0:0:
252,216,63863,2,0,L|200:224,1,49.1250018739701
132,296,64212,2,0,L|72:288,1,49.1250018739701,2|0,0:0|0:0,0:0:0:0:
16,223,64561,6,0,P|24:175|15:127,1,98.2500037479402,0|2,0:0|0:0,0:0:0:0:
76,64,65084,1,0,0:0:0:0:
160,160,65258,2,0,L|216:152,1,49.1250018739701
280,200,65607,1,2,0:0:0:0:
280,200,65956,6,0,L|292:48,2,147.37500562191,0|0|2,0:0|0:0|0:0,0:0:0:0:
183,320,67351,6,0,P|121:330|72:290,1,131,0|2,0:0|0:0,0:0:0:0:
124,120,68747,2,0,L|136:184,2,65.5,0|0|2,0:0|0:0|0:0,0:0:0:0:
180,48,69793,1,0,0:0:0:0:
304,164,70142,6,0,P|367:173|419:136,2,131,0|2|0,0:0|0:0|0:0,0:0:0:0:
212,48,71886,1,0,0:0:0:0:
212,48,72235,2,0,L|204:120,1,65.5,2|0,0:0|0:0,0:0:0:0:
264,284,72933,5,0,0:0:0:0:
264,284,73281,2,0,L|336:276,2,65.5,0|2|0,0:0|0:0|0:0,0:0:0:0:
196,344,74328,1,0,0:0:0:0:
196,344,74677,1,0,0:0:0:0:
152,152,75026,1,2,0:0:0:0:
120,296,75374,1,0,0:0:0:0:
119,296,75723,6,0,P|57:295|23:242,2,131,0|2|0,0:0|0:0|0:0,0:0:0:0:
192,232,77468,1,0,0:0:0:0:
192,232,77816,2,0,L|200:160,1,65.5,2|0,0:0|0:0,0:0:0:0:
280,104,78514,6,0,B|340:84|348:136|420:112,1,131,0|2,0:0|0:0,0:0:0:0:
488,32,79909,1,0,0:0:0:0:
407,115,80258,1,0,0:0:0:0:
480,216,80607,2,0,L|472:288,1,65.5,2|0,0:0|0:0,0:0:0:0:
403,336,81305,6,0,P|342:350|289:314,1,131,0|2,0:0|0:0,0:0:0:0:
364,204,82351,1,0,0:0:0:0:
364,204,82700,2,0,L|356:272,1,65.5
440,140,83398,2,0,L|432:74,1,65.5,2|0,0:0|0:0,0:0:0:0:
288,168,84095,6,0,P|225:176|178:134,2,131,0|2|0,0:0|0:0|0:0,0:0:0:0:
360,108,85840,1,0,0:0:0:0:
432,172,86188,2,0,L|428:240,1,65.5,0|2,0:0|0:0,0:0:0:0:
320,336,86886,6,0,L|184:320,1,131,0|2,0:0|0:0,0:0:0:0:
128,248,87933,1,0,0:0:0:0:
216,196,88281,2,0,L|224:236,1,32.75
292,144,88630,2,0,L|300:184,1,32.75
216,108,88979,2,0,L|176:100,1,32.75,2|0,0:0|0:0,0:0:0:0:
288,68,89328,2,0,L|328:60,1,32.75
440,140,89677,5,2,0:0:0:0:
60,56,92468,6,0,L|76:192,1,131,4|2,0:0|0:0,0:0:0:0:
20,256,92991,1,2,0:0:0:0:
148,336,93165,2,0,L|220:328,1,65.5,8|0,0:0|0:0,0:0:0:0:
320,196,93514,2,0,L|254:203,1,65.5,2|0,0:0|0:0,0:0:0:0:
144,104,93863,6,0,P|132:168|148:232,1,131,2|2,0:0|0:0,0:0:0:0:
272,344,94386,1,0,0:0:0:0:
348,284,94561,2,0,P|380:280|412:284,1,65.5,8|0,0:0|0:0,0:0:0:0:
496,160,94909,2,0,P|463:164|431:160,1,65.5
312,52,95258,6,0,L|328:192,1,131,2|0,0:0|0:0,0:0:0:0:
248,272,95781,1,2,0:0:0:0:
156,160,95956,2,0,L|224:152,2,65.5,8|0|2,0:0|0:0|0:0,0:0:0:0:
80,96,96479,1,2,0:0:0:0:
28,268,96654,6,0,L|168:256,1,131,0|2,0:0|0:0,0:0:0:0:
228,320,97177,1,2,0:0:0:0:
328,232,97351,2,0,L|320:164,1,65.5,8|0,0:0|0:0,0:0:0:0:
212,76,97700,2,0,L|204:141,1,65.5
288,312,98049,6,0,P|350:321|399:280,1,131,0|2,0:0|0:0,0:0:0:0:
420,192,98572,1,2,0:0:0:0:
244,228,98747,2,0,L|256:296,1,65.5,8|0,0:0|0:0,0:0:0:0:
188,160,99095,2,0,L|199:95,1,65.5
155,248,99444,6,0,P|92:251|42:211,1,131,0|2,0:0|0:0,0:0:0:0:
68,100,99968,1,2,0:0:0:0:
184,76,100142,2,0,L|176:148,2,65.5,8|0|0,0:0|0:0|0:0,0:0:0:0:
112,28,100665,1,0,0:0:0:0:
111,191,100840,6,0,P|166:224|227:204,1,131,0|2,0:0|0:0,0:0:0:0:
336,112,101363,1,2,0:0:0:0:
404,184,101537,2,0,L|396:256,1,65.5,8|0,0:0|0:0,0:0:0:0:
456,104,101886,2,0,L|448:38,1,65.5,2|0,0:0|0:0,0:0:0:0:
320,140,102235,6,0,L|252:132,1,65.5,2|0,0:0|0:0,0:0:0:0:
167,71,102584,2,0,P|179:135|163:198,1,131,2|8,0:0|0:0,0:0:0:0:
84,252,103107,1,0,0:0:0:0:
256,220,103281,1,0,0:0:0:0:
80,160,103456,1,0,0:0:0:0:
184,288,103630,6,0,P|239:319|301:305,1,131,4|2,0:0|0:0,0:0:0:0:
380,148,104154,1,0,0:0:0:0:
456,208,104328,2,0,L|448:280,2,65.5,8|0|2,0:0|0:0|0:0,0:0:0:0:
380,148,104851,1,0,0:0:0:0:
255,256,105026,6,0,P|192:259|145:216,1,131,0|2,0:0|0:0,0:0:0:0:
224,172,105549,1,2,0:0:0:0:
336,36,105723,2,0,B|360:68|360:68|352:164,1,131,8|0,0:0|0:0,0:0:0:0:
255,256,106247,1,0,0:0:0:0:
323,331,106421,6,0,P|386:340|433:298,1,131,2|0,0:0|0:0,0:0:0:0:
408,120,106944,1,2,0:0:0:0:
354,191,107119,2,0,L|364:256,1,65.5,8|0,0:0|0:0,0:0:0:0:
284,132,107468,2,0,L|293:67,1,65.5,2|0,0:0|0:0,0:0:0:0:
228,252,107816,6,0,L|92:240,1,131,0|2,0:0|0:0,0:0:0:0:
24,296,108340,1,0,0:0:0:0:
56,128,108514,2,0,L|128:136,1,65.5,8|0,0:0|0:0,0:0:0:0:
280,76,108863,2,0,L|208:84,1,65.5
359,136,109212,6,0,P|379:75|355:15,1,131,2|2,0:0|0:0,0:0:0:0:
276,172,109735,1,2,0:0:0:0:
360,272,109909,2,0,L|428:264,2,65.5,8|0|2,0:0|0:0|0:0,0:0:0:0:
252,200,110433,1,0,0:0:0:0:
296,352,110607,6,0,L|160:340,1,131,0|2,0:0|0:0,0:0:0:0:
96,272,111130,1,2,0:0:0:0:
216,168,111305,2,0,L|208:240,1,65.5,8|0,0:0|0:0,0:0:0:0:
132,108,111654,2,0,L|124:180,1,65.5
220,260,112002,6,0,P|280:279|335:248,1,131,2|0,0:0|0:0,0:0:0:0:
335,248,112526,1,0,0:0:0:0:
440,152,112700,2,0,L|452:216,2,65.5,8|0|2,0:0|0:0|0:0,0:0:0:0:
372,80,113223,1,2,0:0:0:0:
264,184,113398,6,0,L|128:176,1,131,0|2,0:0|0:0,0:0:0:0:
72,104,113921,1,2,0:0:0:0:
8,224,114095,2,0,P|4:256|12:292,1,65.5,8|2,0:0|0:0,0:0:0:0:
80,352,114444,2,0,L|152:348,1,65.5,8|8,0:0|0:0,0:0:0:0:
256,223,114793,6,0,P|319:214|370:252,1,131,4|2,0:0|0:0,0:0:0:0:
296,300,115316,1,2,0:0:0:0:
160,340,115491,2,0,L|144:204,1,131,8|0,0:0|0:0,0:0:0:0:
192,124,116014,1,0,0:0:0:0:
324,236,116188,6,0,L|256:240,1,65.5,0|2,0:0|0:0,0:0:0:0:
80,208,116537,2,0,L|148:212,1,65.5,2|0,0:0|0:0,0:0:0:0:
332,96,116886,2,0,L|196:104,1,131,8|0,0:0|0:0,0:0:0:0:
132,48,117409,1,0,0:0:0:0:
28,160,117584,6,0,L|36:232,1,65.5,2|0,0:0|0:0,0:0:0:0:
220,272,117933,2,0,L|212:206,1,65.5,0|2,0:0|0:0,0:0:0:0:
172,348,118281,2,0,P|234:362|287:328,1,131,8|0,0:0|0:0,0:0:0:0:
336,176,118805,1,2,0:0:0:0:
412,244,118979,6,0,L|424:312,1,65.5
336,176,119328,2,0,L|347:111,1,65.5,2|0,0:0|0:0,0:0:0:0:
236,259,119677,2,0,P|174:274|122:237,1,131,8|0,0:0|0:0,0:0:0:0:
192,188,120200,1,0,0:0:0:0:
292,28,120374,6,0,B|308:68|308:68|296:168,1,131,2|2,0:0|0:0,0:0:0:0:
236,260,120898,1,0,0:0:0:0:
312,332,121072,2,0,L|376:320,2,65.5,8|0|2,0:0|0:0|0:0,0:0:0:0:
236,260,121595,1,0,0:0:0:0:
324,144,121770,6,0,L|332:216,1,65.5,0|2,0:0|0:0,0:0:0:0:
212,284,122119,1,2,0:0:0:0:
212,284,122468,2,0,L|80:272,1,131,8|0,0:0|0:0,0:0:0:0:
16,192,122991,1,0,0:0:0:0:
124,112,123165,6,0,L|116:184,1,65.5,2|0,0:0|0:0,0:0:0:0:
16,192,123514,1,0,0:0:0:0:
224,272,123688,2,0,L|216:206,1,65.5,2|8,0:0|0:0,0:0:0:0:
112,268,124037,1,0,0:0:0:0:
180,348,124212,6,0,P|246:360|294:318,1,131,2|2,0:0|0:0,0:0:0:0:
276,136,124735,1,2,0:0:0:0:
312,296,124909,1,2,0:0:0:0:
336,64,125084,1,0,0:0:0:0:
480,228,125258,2,0,L|408:220,1,65.5,8|0,0:0|0:0,0:0:0:0:
404,236,125520,1,0,0:0:0:0:
404,236,125607,1,0,0:0:0:0:
232,160,125781,1,0,0:0:0:0:
248,332,125956,6,0,L|112:320,1,131,4|2,0:0|0:0,0:0:0:0:
52,240,126479,1,0,0:0:0:0:
152,156,126654,2,0,L|144:228,1,65.5,8|0,0:0|0:0,0:0:0:0:
52,240,127002,1,2,0:0:0:0:
52,240,127351,5,0,0:0:0:0:
248,200,127526,1,2,0:0:0:0:
100,164,127700,1,2,0:0:0:0:
100,164,128049,2,0,L|116:300,1,131,8|0,0:0|0:0,0:0:0:0:
192,360,128572,1,0,0:0:0:0:
319,243,128747,6,0,P|266:209|203:221,1,131,2|0,0:0|0:0,0:0:0:0:
252,296,129270,1,2,0:0:0:0:
404,368,129444,2,0,B|424:332|424:332|416:232,1,131,8|2,0:0|0:0,0:0:0:0:
360,160,129968,1,0,0:0:0:0:
231,252,130142,6,0,P|169:261|121:219,1,131,0|2,0:0|0:0,0:0:0:0:
196,176,130665,1,0,0:0:0:0:
336,64,130840,2,0,L|328:132,1,65.5,8|0,0:0|0:0,0:0:0:0:
348,292,131188,1,0,0:0:0:0:
348,292,131537,6,0,B|416:272|420:332|488:308,1,131,2|2,0:0|0:0,0:0:0:0:
464,228,132061,1,2,0:0:0:0:
292,352,132235,2,0,P|263:293|288:232,1,131,8|0,0:0|0:0,0:0:0:0:
376,120,132758,1,0,0:0:0:0:
376,120,132933,6,0,L|448:128,2,65.5,0|2|2,0:0|0:0|0:0,0:0:0:0:
204,32,133630,2,0,L|220:168,1,131,8|0,0:0|0:0,0:0:0:0:
176,248,134154,1,0,0:0:0:0:
52,128,134328,6,0,L|128:120,1,65.5,2|0,0:0|0:0,0:0:0:0:
176,248,134677,1,0,0:0:0:0:
264,200,134851,2,0,L|272:132,2,65.5,2|8|0,0:0|0:0|0:0,0:0:0:0:
259,295,135374,2,0,P|322:311|379:281,1,131,2|0,0:0|0:0,0:0:0:0:
420,136,135898,1,0,0:0:0:0:
472,264,136072,2,0,L|396:256,1,65.5,2|0,0:0|0:0,0:0:0:0:
292,136,136421,5,8,0:0:0:0:
204,176,136595,1,0,0:0:0:0:
164,88,136770,1,2,0:0:0:0:
252,44,136944,1,0,0:0:0:0:
292,136,137119,6,0,L|308:284,1,131,0|2,0:0|0:0,0:0:0:0:
248,344,137642,1,0,0:0:0:0:
160,244,137816,2,0,L|216:240,1,49.1250018739701
341,132,138165,2,0,L|291:135,1,49.1250018739701,2|0,0:0|0:0,0:0:0:0:
183,48,138514,6,0,P|175:96|186:143,1,98.2500037479402,0|2,0:0|0:0,0:0:0:0:
304,232,139037,1,0,0:0:0:0:
384,176,139212,2,0,L|436:180,2,49.1250018739701,0|0|2,0:0|0:0|0:0,0:0:0:0:
304,232,139735,1,0,0:0:0:0:
199,111,139909,6,0,P|152:105|113:133,1,98.2500037479402,0|2,0:0|0:0,0:0:0:0:
176,184,140433,1,0,0:0:0:0:
280,127,140607,2,0,P|284:104|278:80,1,49.1250018739701
204,204,140956,2,0,L|212:256,1,49.1250018739701,2|0,0:0|0:0,0:0:0:0:
288,332,141305,6,0,L|404:324,1,98.2500037479402,0|2,0:0|0:0,0:0:0:0:
440,256,141828,1,0,0:0:0:0:
340,184,142002,2,0,L|348:240,1,49.1250018739701
276,132,142351,2,0,L|282:83,1,49.1250018739701,2|0,0:0|0:0,0:0:0:0:
216,243,142700,6,0,P|169:255|128:230,1,98.2500037479402,0|2,0:0|0:0,0:0:0:0:
84,152,143223,1,0,0:0:0:0:
8,204,143398,2,0,L|20:264,2,49.1250018739701,0|0|2,0:0|0:0|0:0,0:0:0:0:
72,128,143921,1,0,0:0:0:0:
172,224,144095,6,0,L|284:216,1,98.2500037479402,0|2,0:0|0:0,0:0:0:0:
336,272,144619,1,0,0:0:0:0:
396,144,144793,2,0,L|404:196,1,49.1250018739701
480,92,145142,2,0,L|488:144,1,49.1250018739701,2|0,0:0|0:0,0:0:0:0:
311,184,145491,6,0,P|264:190|225:162,1,98.2500037479402,0|2,0:0|0:0,0:0:0:0:
284,108,146014,1,0,0:0:0:0:
400,36,146188,2,0,L|412:88,1,49.1250018739701
480,188,146537,2,0,L|492:136,1,49.1250018739701,2|0,0:0|0:0,0:0:0:0:
340,148,146886,5,0,0:0:0:0:
340,148,147061,1,0,0:0:0:0:
456,208,147235,2,0,L|464:256,1,49.1250018739701,2|0,0:0|0:0,0:0:0:0:
368,344,147584,2,0,L|376:296,1,49.1250018739701
272,220,147933,2,0,L|280:268,2,49.1250018739701,0|0|2,0:0|0:0|0:0,0:0:0:0:
96,76,149677,6,0,L|112:208,1,131,0|2,0:0|0:0,0:0:0:0:
256,328,151072,6,0,L|328:312,1,65.5
392,259,151654,2,0,P|470:256|512:332,1,163.75,2|2,0:0|0:0,0:0:0:0:
256,248,153165,6,0,L|240:148,1,98.25
312,80,153863,2,0,L|328:152,1,65.5
380,212,154444,2,0,P|457:198|488:136,1,152.833333333333,2|2,0:0|0:0,0:0:0:0:
300,40,155956,2,0,L|316:136,1,98.25,2|0,0:0|0:0,0:0:0:0:
280,208,156654,6,0,L|216:196,1,65.5,0|2,0:0|0:0,0:0:0:0:
144,232,157177,1,0,0:0:0:0:
184,112,157351,2,0,L|224:104,1,32.75
48,72,157700,5,2,0:0:0:0:
48,72,158049,6,0,L|124:64,1,65.5
288,152,158572,6,0,L|180:140,1,98.25
104,184,159095,6,0,L|116:256,1,65.5
56,300,159444,6,0,B|136:268|136:340|224:304,1,170.299992204285,4|2,0:0|0:0,0:0:0:0:
292,232,159968,1,0,0:0:0:0:
200,116,160142,2,0,L|188:204,1,85.1499961021425,8|0,0:0|0:0,0:0:0:0:
408,272,160491,2,0,L|396:187,1,85.1499961021425,2|0,0:0|0:0,0:0:0:0:
352,340,160840,6,0,P|431:357|489:300,1,170.299992204285,0|2,0:0|0:0,0:0:0:0:
316,248,161363,1,0,0:0:0:0:
236,316,161537,2,0,L|144:308,1,85.1499961021425,8|0,0:0|0:0,0:0:0:0:
44,356,161886,1,0,0:0:0:0:
44,356,162235,6,0,B|60:308|60:308|40:184,1,170.299992204285,2|0,0:0|0:0,0:0:0:0:
100,116,162758,1,2,0:0:0:0:
244,220,162933,2,0,P|204:224|156:216,1,85.1499961021425,8|0,0:0|0:0,0:0:0:0:
84,88,163281,1,0,0:0:0:0:
300,140,163456,6,0,P|335:214|307:292,1,170.299992204285,2|0,0:0|0:0,0:0:0:0:
216,324,163979,1,0,0:0:0:0:
244,84,164154,1,2,0:0:0:0:
124,188,164328,2,0,L|140:272,1,85.1499961021425,8|0,0:0|0:0,0:0:0:0:
308,160,164677,1,0,0:0:0:0:
308,160,165026,6,0,B|384:132|392:204|476:168,1,170.299992204285,2|0,0:0|0:0,0:0:0:0:
432,88,165549,1,2,0:0:0:0:
348,248,165723,2,0,P|265:247|216:181,1,170.299992204285,8|2,0:0|0:0,0:0:0:0:
244,80,166247,1,0,0:0:0:0:
91,36,166421,2,0,P|83:77|89:119,1,85.1499961021425
213,263,166770,2,0,P|221:222|215:180,1,85.1499961021425,2|0,0:0|0:0,0:0:0:0:
32,184,167119,1,8,0:0:0:0:
172,104,167293,1,0,0:0:0:0:
108,296,167468,2,0,L|116:208,1,85.1499961021425
128,39,167816,6,0,P|208:31|252:99,1,170.299992204285,2|0,0:0|0:0,0:0:0:0:
252,99,168340,1,2,0:0:0:0:
404,208,168514,2,0,L|424:20,1,170.299992204285,8|0,0:0|0:0,0:0:0:0:
304,168,169037,2,0,L|322:337,1,170.299992204285,2|0,0:0|0:0,0:0:0:0:
224,216,169561,1,2,0:0:0:0:
400,292,169735,1,0,0:0:0:0:
180,296,169909,2,0,P|148:264|136:220,1,85.1499961021425,8|0,0:0|0:0,0:0:0:0:
348,76,170258,2,0,L|336:216,1,127.724994153214
308,251,170607,6,0,P|389:239|446:298,1,170.299992204285,4|2,0:0|0:0,0:0:0:0:
232,324,171130,1,2,0:0:0:0:
128,200,171305,2,0,L|136:112,1,85.1499961021425,8|0,0:0|0:0,0:0:0:0:
316,36,171654,2,0,L|323:120,1,85.1499961021425,2|0,0:0|0:0,0:0:0:0:
180,279,172002,6,0,P|98:291|36:237,1,170.299992204285
48,136,172526,1,2,0:0:0:0:
268,152,172700,2,0,L|260:240,1,85.1499961021425,8|0,0:0|0:0,0:0:0:0:
200,72,173049,1,0,0:0:0:0:
200,72,173398,6,0,B|256:64|256:64|308:84|308:84|372:72,1,170.299992204285,2|0,0:0|0:0,0:0:0:0:
448,24,173921,1,2,0:0:0:0:
496,172,174095,2,0,P|504:216|500:260,1,85.1499961021425,8|0,0:0|0:0,0:0:0:0:
424,328,174444,2,0,L|336:320,1,85.1499961021425,2|0,0:0|0:0,0:0:0:0:
168,187,174793,2,0,P|233:137|313:157,1,170.299992204285,0|2,0:0|0:0,0:0:0:0:
252,232,175316,1,0,0:0:0:0:
104,320,175491,2,0,L|16:304,1,85.1499961021425,8|0,0:0|0:0,0:0:0:0:
196,360,175840,2,0,L|284:344,1,85.1499961021425,2|0,0:0|0:0,0:0:0:0:
368,199,176188,6,0,P|449:192|505:252,1,170.299992204285,4|2,0:0|0:0,0:0:0:0:
416,280,176712,1,2,0:0:0:0:
240,276,176886,2,0,L|252:100,1,170.299992204285,8|0,0:0|0:0,0:0:0:0:
192,32,177409,1,0,0:0:0:0:
80,168,177584,6,0,P|120:180|168:172,1,85.1499961021425,0|2,0:0|0:0,0:0:0:0:
412,244,177933,2,0,P|372:232|324:240,1,85.1499961021425,2|0,0:0|0:0,0:0:0:0:
456,320,178281,2,0,L|468:144,1,170.299992204285,8|0,0:0|0:0,0:0:0:0:
412,68,178805,1,0,0:0:0:0:
271,188,178979,6,0,P|191:199|136:138,1,170.299992204285,2|0,0:0|0:0,0:0:0:0:
224,116,179502,1,2,0:0:0:0:
360,40,179677,2,0,L|352:124,1,85.1499961021425,8|0,0:0|0:0,0:0:0:0:
284,208,180026,1,2,0:0:0:0:
252,36,180200,1,0,0:0:0:0:
256,228,180374,2,0,P|212:236|172:224,1,85.1499961021425
76,136,180723,6,0,P|92:218|76:302,1,170.299992204285,2|8,0:0|0:0,0:0:0:0:
172,360,181247,1,2,0:0:0:0:
208,128,181421,1,2,0:0:0:0:
256,304,181595,1,0,0:0:0:0:
216,92,181770,1,0,0:0:0:0:
36,88,184561,6,0,L|56:232,1,144.100004397583,4|2,0:0|0:0,0:0:0:0:
16,308,185084,1,2,0:0:0:0:
180,240,185258,2,0,L|256:244,1,72.0500021987916,8|0,0:0|0:0,0:0:0:0:
392,120,185607,2,0,L|320:116,1,72.0500021987916,2|0,0:0|0:0,0:0:0:0:
252,48,185956,5,0,0:0:0:0:
172,96,186130,1,0,0:0:0:0:
264,228,186305,1,2,0:0:0:0:
252,140,186479,1,2,0:0:0:0:
172,188,186654,6,0,L|28:172,1,144.100004397583,8|0,0:0|0:0,0:0:0:0:
56,280,187177,1,0,0:0:0:0:
256,264,187351,2,0,P|272:200|256:116,1,144.100004397583,2|0,0:0|0:0,0:0:0:0:
188,60,187874,1,2,0:0:0:0:
104,192,188049,2,0,L|184:188,1,72.0500021987916,8|0,0:0|0:0,0:0:0:0:
360,120,188398,2,0,L|288:116,1,72.0500021987916,0|2,0:0|0:0,0:0:0:0:
240,256,188747,5,0,0:0:0:0:
240,256,188921,1,0,0:0:0:0:
356,308,189095,2,0,L|360:232,1,72.0500021987916,2|0,0:0|0:0,0:0:0:0:
191,175,189444,2,0,P|123:161|69:205,1,144.100004397583,8|0,0:0|0:0,0:0:0:0:
144,248,189968,1,0,0:0:0:0:
304,320,190142,6,0,B|324:272|324:272|312:180,1,144.100004397583,2|2,0:0|0:0,0:0:0:0:
240,108,190665,1,2,0:0:0:0:
144,232,190840,2,0,L|216:228,1,72.0500021987916,8|0,0:0|0:0,0:0:0:0:
340,72,191188,2,0,L|268:68,1,72.0500021987916,2|0,0:0|0:0,0:0:0:0:
156,20,191537,6,0,L|172:168,1,144.100004397583
248,244,192061,1,2,0:0:0:0:
344,128,192235,2,0,L|264:120,2,72.0500021987916,8|0|0,0:0|0:0|0:0,0:0:0:0:
412,64,192758,1,2,0:0:0:0:
480,180,192933,6,0,P|496:248|480:328,1,144.100004397583,2|0,0:0|0:0,0:0:0:0:
408,364,193456,1,2,0:0:0:0:
320,248,193630,2,0,L|392:244,1,72.0500021987916,8|0,0:0|0:0,0:0:0:0:
256,320,193979,2,0,P|231:294|222:259,1,72.0500021987916,0|2,0:0|0:0,0:0:0:0:
144,148,194328,6,0,L|128:296,1,144.100004397583,0|2,0:0|0:0,0:0:0:0:
248,148,194851,2,0,L|236:72,1,72.0500021987916,2|8,0:0|0:0,0:0:0:0:
308,20,195200,1,0,0:0:0:0:
412,144,195374,2,0,L|332:136,1,72.0500021987916,0|2,0:0|0:0,0:0:0:0:
152,28,195723,6,0,P|168:96|144:168,1,144.100004397583,4|2,0:0|0:0,0:0:0:0:
76,220,196247,1,0,0:0:0:0:
76,220,196421,2,0,L|0:212,1,72.0500021987916,8|0,0:0|0:0,0:0:0:0:
184,296,196770,2,0,L|260:288,1,72.0500021987916,2|0,0:0|0:0,0:0:0:0:
320,216,197119,5,0,0:0:0:0:
400,268,197293,1,2,0:0:0:0:
400,108,197468,2,0,L|396:184,1,72.0500021987916,2|0,0:0|0:0,0:0:0:0:
299,248,197816,2,0,P|231:262|178:218,1,144.100004397583,8|0,0:0|0:0,0:0:0:0:
140,136,198340,1,0,0:0:0:0:
140,136,198514,6,0,L|120:280,1,144.100004397583,2|0,0:0|0:0,0:0:0:0:
184,360,199037,1,2,0:0:0:0:
284,248,199212,2,0,L|212:252,1,72.0500021987916,8|0,0:0|0:0,0:0:0:0:
116,96,199561,2,0,L|188:92,1,72.0500021987916,2|2,0:0|0:0,0:0:0:0:
360,32,199909,6,0,P|375:101|355:169,1,144.100004397583,0|2,0:0|0:0,0:0:0:0:
280,232,200433,1,0,0:0:0:0:
208,104,200607,2,0,L|288:100,1,72.0500021987916,8|0,0:0|0:0,0:0:0:0:
136,176,200956,1,0,0:0:0:0:
135,176,201305,6,0,P|68:188|21:137,1,144.100004397583,2|2,0:0|0:0,0:0:0:0:
92,116,201828,1,0,0:0:0:0:
220,28,202002,2,0,B|236:64|236:64|228:168,1,144.100004397583,8|2,0:0|0:0,0:0:0:0:
164,288,202526,1,0,0:0:0:0:
232,352,202700,2,0,L|304:344,1,72.0500021987916,0|2,0:0|0:0,0:0:0:0:
396,176,203049,2,0,L|324:184,1,72.0500021987916,2|0,0:0|0:0,0:0:0:0:
212,120,203398,2,0,L|232:268,1,144.100004397583,8|0,0:0|0:0,0:0:0:0:
172,336,203921,1,0,0:0:0:0:
72,244,204095,6,0,L|148:236,1,72.0500021987916,2|0,0:0|0:0,0:0:0:0:
360,208,204444,2,0,L|284:200,1,72.0500021987916,0|2,0:0|0:0,0:0:0:0:
416,276,204793,2,0,P|448:216|424:144,2,144.100004397583,8|2|2,0:0|0:0|0:0,0:0:0:0:
256,336,205840,1,2,0:0:0:0:
200,260,206014,1,0,0:0:0:0:
160,344,206188,2,0,L|88:336,1,72.0500021987916,8|0,0:0|0:0,0:0:0:0:
24,188,206537,2,0,L|96:196,1,72.0500021987916,8|8,0:0|0:0,0:0:0:0:
76,96,207933,5,0,0:0:0:0:
76,96,208281,6,0,L|88:168,1,65.5
24,240,208805,6,0,L|112:280,1,91.6999972015382
196,344,209328,6,0,L|216:276,1,65.5
288,176,209677,6,0,L|304:332,1,157.199995202637,4|0,0:0|0:0,0:0:0:0:
388,376,210200,1,2,0:0:0:0:
468,256,210374,2,0,L|376:248,1,78.5999976013184,8|0,0:0|0:0,0:0:0:0:
212,328,210723,1,2,0:0:0:0:
212,327,211072,6,0,P|137:340|81:288,1,157.199995202637,0|2,0:0|0:0,0:0:0:0:
120,104,211595,1,2,0:0:0:0:
168,180,211770,2,0,L|160:268,1,78.5999976013184,8|0,0:0|0:0,0:0:0:0:
328,164,212119,2,0,L|320:85,1,78.5999976013184
275,239,212468,6,0,P|351:252|408:202,1,157.199995202637,2|0,0:0|0:0,0:0:0:0:
220,124,212991,1,2,0:0:0:0:
140,192,213165,2,0,L|44:184,1,78.5999976013184,8|0,0:0|0:0,0:0:0:0:
108,100,213514,1,0,0:0:0:0:
12,264,213688,2,0,L|172:276,1,157.199995202637,2|0,0:0|0:0,0:0:0:0:
312,204,214212,6,0,L|228:212,1,78.5999976013184,2|0,0:0|0:0,0:0:0:0:
176,148,214561,1,8,0:0:0:0:
212,352,214735,1,0,0:0:0:0:
372,228,214909,1,0,0:0:0:0:
371,228,215258,6,0,P|447:222|495:281,1,157.199995202637,2|0,0:0|0:0,0:0:0:0:
300,288,215781,1,2,0:0:0:0:
300,288,215956,2,0,L|216:280,1,78.5999976013184,8|0,0:0|0:0,0:0:0:0:
124,124,216305,2,0,L|202:131,1,78.5999976013184,2|0,0:0|0:0,0:0:0:0:
332,40,216654,6,0,L|344:200,1,157.199995202637,0|2,0:0|0:0,0:0:0:0:
260,264,217177,1,0,0:0:0:0:
164,151,217351,2,0,P|199:136|238:139,1,78.5999976013184,8|0,0:0|0:0,0:0:0:0:
432,284,217700,2,0,P|396:299|357:296,1,78.5999976013184
312,224,218049,6,0,L|328:380,1,157.199995202637,2|0,0:0|0:0,0:0:0:0:
228,308,218572,1,2,0:0:0:0:
196,144,218747,2,0,L|284:136,1,78.5999976013184,8|0,0:0|0:0,0:0:0:0:
124,224,219095,1,2,0:0:0:0:
144,52,219270,2,0,L|304:40,1,157.199995202637
476,120,219793,6,0,P|432:124|392:112,1,78.5999976013184,2|0,0:0|0:0,0:0:0:0:
248,220,220142,2,0,L|332:208,1,78.5999976013184,8|0,0:0|0:0,0:0:0:0:
416,272,220491,1,2,0:0:0:0:
416,272,220840,6,0,L|428:108,1,157.199995202637,4|0,0:0|0:0,0:0:0:0:
364,40,221363,1,2,0:0:0:0:
260,172,221537,2,0,L|344:164,1,78.5999976013184,8|0,0:0|0:0,0:0:0:0:
184,96,221886,1,2,0:0:0:0:
184,96,222235,1,0,0:0:0:0:
204,240,222409,2,0,L|196:320,1,78.5999976013184,2|2,0:0|0:0,0:0:0:0:
108,272,222758,1,0,0:0:0:0:
304,252,222933,2,0,L|296:173,1,78.5999976013184,8|0,0:0|0:0,0:0:0:0:
340,96,223281,1,0,0:0:0:0:
340,96,223630,6,0,B|264:64|260:136|176:100,1,157.199995202637,2|0,0:0|0:0,0:0:0:0:
220,24,224154,1,2,0:0:0:0:
372,175,224328,2,0,P|419:116|405:41,1,157.199995202637,8|0,0:0|0:0,0:0:0:0:
272,160,224851,1,2,0:0:0:0:
272,160,225026,6,0,L|280:248,1,78.5999976013184
191,336,225374,2,0,P|117:350|60:300,1,157.199995202637,2|8,0:0|0:0,0:0:0:0:
120,116,225898,1,0,0:0:0:0:
156,192,226072,2,0,L|140:276,1,78.5999976013184
308,140,226421,6,0,L|293:62,1,78.5999976013184,4|0,0:0|0:0,0:0:0:0:
255,227,226770,2,0,P|331:240|389:191,2,157.199995202637,2|8|2,0:0|0:0|0:0,0:0:0:0:
168,104,227642,1,0,0:0:0:0:
96,172,227816,6,0,L|108:252,1,78.5999976013184,0|2,0:0|0:0,0:0:0:0:
236,340,228165,2,0,B|308:316|316:376|396:348,1,157.199995202637,2|8,0:0|0:0,0:0:0:0:
456,260,228688,1,0,0:0:0:0:
352,184,228863,2,0,L|360:272,1,78.5999976013184
280,132,229212,6,0,B|352:108|360:168|440:140,1,157.199995202637,0|2,0:0|0:0,0:0:0:0:
208,212,229735,1,2,0:0:0:0:
152,96,229909,2,0,L|164:12,2,78.5999976013184,8|0|2,0:0|0:0|0:0,0:0:0:0:
208,212,230433,1,0,0:0:0:0:
140,279,230607,6,0,P|65:293|13:238,1,157.199995202637,0|2,0:0|0:0,0:0:0:0:
96,212,231130,1,2,0:0:0:0:
216,120,231305,2,0,L|232:200,1,78.5999976013184,8|0,0:0|0:0,0:0:0:0:
424,296,231654,2,0,L|440:208,1,78.5999976013184,8|8,0:0|0:0,0:0:0:0:
404,132,232002,5,0,0:0:0:0:
176,83,234793,6,0,P|238:75|286:117,1,131,4|2,0:0|0:0,0:0:0:0:
212,160,235316,1,2,0:0:0:0:
52,128,235491,2,0,L|40:64,2,65.5,8|0|2,0:0|0:0|0:0,0:0:0:0:
12,208,236014,1,0,0:0:0:0:
96,320,236188,6,0,L|240:312,1,131,0|2,0:0|0:0,0:0:0:0:
296,240,236712,1,0,0:0:0:0:
196,144,236886,2,0,L|200:216,1,65.5,8|0,0:0|0:0,0:0:0:0:
320,352,237235,1,0,0:0:0:0:
320,352,237584,6,0,L|456:336,1,131,2|0,0:0|0:0,0:0:0:0:
496,244,238107,1,2,0:0:0:0:
392,180,238281,2,0,L|400:252,1,65.5,8|0,0:0|0:0,0:0:0:0:
304,116,238630,2,0,L|311:50,1,65.5,2|0,0:0|0:0,0:0:0:0:
288,228,238979,6,0,B|220:216|232:272|160:260,1,131,0|2,0:0|0:0,0:0:0:0:
176,176,239502,1,2,0:0:0:0:
328,304,239677,2,0,L|340:160,1,131,8|0,0:0|0:0,0:0:0:0:
288,92,240200,1,0,0:0:0:0:
135,184,240374,6,0,P|73:193|25:151,1,131,0|2,0:0|0:0,0:0:0:0:
96,116,240898,1,2,0:0:0:0:
228,28,241072,2,0,B|248:64|248:64|240:164,1,131,8|0,0:0|0:0,0:0:0:0:
140,284,241770,6,0,L|72:276,1,65.5,2|0,0:0|0:0,0:0:0:0:
19,328,242119,2,0,P|37:265|18:204,1,131,2|8,0:0|0:0,0:0:0:0:
80,124,242642,1,0,0:0:0:0:
208,208,242816,2,0,L|136:204,1,65.5
268,280,243165,6,0,P|329:297|386:267,1,131,2|0,0:0|0:0,0:0:0:0:
364,68,243688,1,2,0:0:0:0:
312,144,243863,2,0,L|320:216,2,65.5,8|0|2,0:0|0:0|0:0,0:0:0:0:
364,68,244386,1,0,0:0:0:0:
212,120,244561,6,0,L|224:252,1,131,0|2,0:0|0:0,0:0:0:0:
168,328,245084,1,0,0:0:0:0:
56,208,245258,2,0,L|128:204,1,65.5,8|0,0:0|0:0,0:0:0:0:
276,80,245607,2,0,L|210:83,1,65.5
104,20,245956,6,0,L|116:124,1,98.2500037479402,4|2,0:0|0:0,0:0:0:0:
115,117,246479,1,0,0:0:0:0:
232,212,246654,2,0,L|236:160,1,49.1250018739701,8|0,0:0|0:0,0:0:0:0:
304,88,247002,1,0,0:0:0:0:
304,88,247351,6,0,L|412:96,1,98.2500037479402,2|0,0:0|0:0,0:0:0:0:
484,44,247874,1,2,0:0:0:0:
460,216,248049,2,0,L|468:168,1,49.1250018739701,8|0,0:0|0:0,0:0:0:0:
372,256,248398,1,0,0:0:0:0:
372,256,248747,6,0,P|328:264|288:232,1,98.2500037479402,0|2,0:0|0:0,0:0:0:0:
228,160,249270,1,2,0:0:0:0:
228,160,249444,2,0,L|176:168,1,49.1250018739701,8|0,0:0|0:0,0:0:0:0:
80,80,249793,2,0,L|128:88,1,49.1250018739701
180,256,250142,6,0,L|64:236,1,98.2500037479402,2|0,0:0|0:0,0:0:0:0:
28,312,250665,1,2,0:0:0:0:
239,316,250840,2,0,P|263:273|258:225,1,98.2500037479402,8|0,0:0|0:0,0:0:0:0:
200,164,251363,1,0,0:0:0:0:
324,76,251537,6,0,L|336:128,1,49.1250018739701,2|0,0:0|0:0,0:0:0:0:
216,68,251886,2,0,L|227:20,1,49.1250018739701
188,168,252235,2,0,L|88:156,1,98.2500037479402,2|0,0:0|0:0,0:0:0:0:
20,212,252758,1,0,0:0:0:0:
200,255,252933,6,0,P|245:238|270:197,1,98.2500037479402,2|0,0:0|0:0,0:0:0:0:
264,80,253456,1,0,0:0:0:0:
408,148,253630,2,0,L|356:144,1,49.1250018739701,2|0,0:0|0:0,0:0:0:0:
288,56,253979,1,0,0:0:0:0:
320,256,254154,1,0,0:0:0:0:
168,188,254328,6,0,L|276:180,2,98.2500037479402,0|2|0,0:0|0:0|0:0,0:0:0:0:
88,244,255200,1,0,0:0:0:0:
88,96,255374,2,0,L|96:160,1,49.1250018739701,2|0,0:0|0:0,0:0:0:0:
72,288,255723,6,0,L|180:280,1,98.2500037479402,0|2,0:0|0:0,0:0:0:0:
248,336,256247,1,0,0:0:0:0:
328,236,256421,2,0,L|320:188,1,49.1250018739701
228,108,256770,2,0,L|236:60,1,49.1250018739701,2|0,0:0|0:0,0:0:0:0:
