osu file format v14

[General]
AudioFilename: audio.mp3
AudioLeadIn: 0
PreviewTime: -1
Countdown: 0
SampleSet: Normal
StackLeniency: 0.7
Mode: 0
LetterboxInBreaks: 0
WidescreenStoryboard: 0

[Editor]
DistanceSpacing: 2.5
BeatDivisor: 8
GridSize: 4
TimelineZoom: 1.8

[Metadata]
Title:ninelie
TitleUnicode:ninelie
Artist:Aimer with Chelly
ArtistUnicode:Aimer with Chelly
Creator:Ruruchin
Version:Another
Source:甲鉄城のカバネリ
Tags:Sawano Hiroyuki, Aimer, Chelly, Egoist
BeatmapID:1017862
BeatmapSetID:476540

[Difficulty]
HPDrainRate:6.4
CircleSize:5
OverallDifficulty:8.3
ApproachRate:9.4
SliderMultiplier:2.2
SliderTickRate:1

[Events]
//Background and Video events
0,0,"BGs.jpg",0,0
//Break Periods
//Storyboard Layer 0 (Background)
//Storyboard Layer 1 (Fail)
//Storyboard Layer 2 (Pass)
//Storyboard Layer 3 (Foreground)
//Storyboard Sound Samples

[TimingPoints]
398,697.674418604651,4,1,0,100,1,0
15921,-133.333333333333,4,1,0,100,0,0
22723,-111.111111111111,4,1,0,100,0,0
29002,-100,4,1,0,100,0,0
29874,-111.111111111111,4,1,0,100,0,0
38770,-142.857142857143,4,1,0,100,0,0
38770,-125,4,1,0,100,0,0
40165,-125,4,1,0,100,0,0

[HitObjects]
68,280,17142,1,0,0:0:0:0:
68,280,17316,1,0,0:0:0:0:
112,348,17491,1,0,0:0:0:0:
248,280,17665,1,0,0:0:0:0:
160,280,17840,1,0,0:0:0:0:
296,336,18014,1,0,0:0:0:0:
204,356,18188,1,0,0:0:0:0:
296,336,18363,2,0,P|324:328|344:312,1,41.2500015735627
456,216,18712,5,0,0:0:0:0:
420,292,18886,1,0,0:0:0:0:
352,224,19060,2,0,P|344:204|348:168,1,41.2500015735627
280,96,19409,1,0,0:0:0:0:
280,96,19584,1,0,0:0:0:0:
228,164,19758,2,0,P|212:176|180:188,1,41.2500015735627
236,300,20107,5,0,0:0:0:0:
160,264,20281,1,0,0:0:0:0:
280,236,20456,1,0,0:0:0:0:
356,268,20630,1,0,0:0:0:0:
440,252,20805,2,0,P|460:248|488:224,1,41.2500015735627
476,320,21153,2,0,P|464:328|432:336,1,41.2500015735627
344,252,21502,5,0,0:0:0:0:
280,304,21677,1,0,0:0:0:0:
280,204,21851,1,0,0:0:0:0:
364,176,22026,1,0,0:0:0:0:
424,232,22200,2,0,P|436:216|448:184,1,41.2500015735627
424,116,22549,1,0,0:0:0:0:
352,28,22723,6,0,L|328:128,1,98.9999969787599
232,184,23246,1,0,0:0:0:0:
308,268,23421,2,0,P|340:272|368:264,1,49.4999984893799
448,204,23770,2,0,P|420:196|396:176,1,49.4999984893799
328,100,24118,1,0,0:0:0:0:
280,204,24293,1,0,0:0:0:0:
188,136,24467,2,0,B|160:128|160:128|136:140,1,49.4999984893799
60,216,24816,2,0,P|40:256|36:276,1,49.4999984893799
116,344,25165,1,0,0:0:0:0:
212,284,25339,1,0,0:0:0:0:
100,276,25514,5,0,0:0:0:0:
184,352,25688,2,0,P|224:364|240:360,1,49.4999984893799
336,320,26037,1,0,0:0:0:0:
396,224,26211,2,0,B|384:192|384:192|392:160|392:160|388:112,1,98.9999969787599
284,176,26735,1,0,0:0:0:0:
356,88,26909,1,0,0:0:0:0:
244,108,27084,2,0,L|132:116,1,98.9999969787599
68,192,27607,2,0,L|128:200,1,49.4999984893799
212,176,27956,1,0,0:0:0:0:
272,252,28130,1,0,0:0:0:0:
188,344,28304,6,0,L|204:244,1,98.9999969787599
280,148,28828,2,0,P|312:124|320:100,1,49.4999984893799
408,12,29177,1,0,0:0:0:0:
484,124,29351,2,0,P|496:152|496:192,1,55
436,300,29700,1,0,0:0:0:0:
356,204,29874,1,0,0:0:0:0:
292,312,30049,2,0,P|248:300|236:284,1,49.4999984893799
172,200,30397,2,0,P|200:192|228:196,1,49.4999984893799
