osu file format v14

[General]
AudioFilename: audio.mp3
AudioLeadIn: 0
PreviewTime: 96740
Countdown: 0
SampleSet: Soft
StackLeniency: 0.7
Mode: 0
LetterboxInBreaks: 0
WidescreenStoryboard: 0

[Editor]
Bookmarks: 266514,280228
DistanceSpacing: 1
BeatDivisor: 4
GridSize: 4
TimelineZoom: 2.3

[Metadata]
Title:words
TitleUnicode:words
Artist:Aimer
ArtistUnicode:Aimer
Creator:Monstrata
Version:Rhetoric
Source:
Tags:エメ after dark
BeatmapID:1020665
BeatmapSetID:477813

[Difficulty]
HPDrainRate:5
CircleSize:4
OverallDifficulty:7.5
ApproachRate:8
SliderMultiplier:3.4
SliderTickRate:2

[Events]
//Background and Video events
0,0,"s9u6.jpg",0,0
//Break Periods
2,266562,279526
//Storyboard Layer 0 (Background)
//Storyboard Layer 1 (Fail)
//Storyboard Layer 2 (Pass)
//Storyboard Layer 3 (Foreground)
//Storyboard Sound Samples

[TimingPoints]
858,857.142857142857,4,2,1,25,1,0
858,-200,4,2,1,25,0,0
2582,857.142857142857,4,2,1,25,1,0
2582,-200,4,2,1,25,0,0
11143,857.142857142857,4,2,1,25,1,0
11143,-200,4,2,1,25,0,0
13285,-200,4,2,1,10,0,0
14571,-200,4,2,1,35,0,0
16295,857.142857142857,4,2,1,35,1,0
16295,-200,4,2,1,35,0,0
22712,857.142857142857,4,2,1,35,1,0
22712,-200,4,2,1,35,0,0
23140,857.142857142857,4,2,1,35,1,0
23140,-200,4,2,1,35,0,0
28282,857.142857142857,4,2,2,45,1,0
40067,-100,4,2,1,20,0,0
40282,-100,4,2,1,15,0,0
40710,-114.285714285714,4,2,2,15,0,0
41996,-133.333333333333,4,2,2,45,0,0
47032,-133.333333333333,4,2,2,5,0,0
47139,-133.333333333333,4,2,2,45,0,0
53139,-133.333333333333,4,2,2,25,0,0
53567,-133.333333333333,4,2,2,45,0,0
53782,-133.333333333333,4,2,2,25,0,0
53996,-133.333333333333,4,2,2,45,0,0
62139,-133.333333333333,4,2,2,25,0,0
62567,-133.333333333333,4,2,2,45,0,0
67710,-133.333333333333,4,2,2,25,0,0
67924,-133.333333333333,4,2,2,45,0,0
68567,-153.846153846153,4,2,2,15,0,0
69424,-100,4,2,2,60,0,0
69639,-100,4,2,2,45,0,0
74246,-100,4,2,2,5,0,0
74353,-100,4,2,2,45,0,0
82710,-100,4,2,2,25,0,0
83139,-100,4,2,2,45,0,0
91710,-100,4,2,2,50,0,0
92567,-100,4,2,2,55,0,0
95889,-100,4,2,2,5,0,0
95996,-133.333333333333,4,2,2,60,0,0
96848,857.142857142857,4,2,2,60,1,1
110133,-100,4,2,2,35,0,1
110562,-100,4,2,2,60,0,1
113562,-100,4,2,2,35,0,1
113990,-100,4,2,2,60,0,1
115919,-100,4,2,2,40,0,1
116133,-100,4,2,2,60,0,1
120419,-100,4,2,2,35,0,1
120848,-100,4,2,2,60,0,0
122133,-100,4,2,2,35,0,0
122240,-100,4,2,2,55,0,0
122562,-100,4,2,2,50,0,0
123419,-100,4,2,2,60,0,0
123633,-100,4,2,2,45,0,0
124276,-100,4,2,2,35,0,0
124919,-100,4,2,2,25,0,0
125133,-100,4,2,2,60,0,0
125348,-133.333333333333,4,2,2,60,0,0
125776,-133.333333333333,4,2,2,30,0,0
125990,-133.333333333333,4,2,2,20,0,0
126419,-133.333333333333,4,2,2,25,0,0
126848,-133.333333333333,4,2,2,30,0,0
127276,-133.333333333333,4,2,2,35,0,0
127705,-133.333333333333,4,2,2,40,0,0
132526,-133.333333333333,4,2,2,5,0,0
132633,-133.333333333333,4,2,2,25,0,0
133276,-133.333333333333,4,2,2,40,0,0
138848,-133.333333333333,4,2,2,25,0,0
139062,-133.333333333333,4,2,2,40,0,0
139490,-133.333333333333,4,2,2,25,0,0
139705,-133.333333333333,4,2,2,40,0,0
140562,-133.333333333333,4,2,2,25,0,0
140669,-133.333333333333,4,2,2,40,0,0
155133,-100,4,2,2,60,0,0
156419,-100,4,2,2,35,0,0
156848,-100,4,2,2,60,0,0
159955,-100,4,2,2,5,0,0
160062,-100,4,2,2,60,0,0
165205,-100,4,2,2,45,0,0
165419,-100,4,2,2,60,0,0
170990,-100,4,2,2,35,0,0
171205,-100,4,2,2,60,0,0
175169,-100,4,2,2,35,0,0
175276,-100,4,2,2,60,0,0
181598,-100,4,2,2,5,0,0
181705,-166.666666666667,4,2,2,60,0,0
182562,-100,4,2,2,60,0,1
185776,-100,4,2,2,35,0,1
185990,-100,4,2,2,60,0,1
192419,-100,4,2,2,35,0,1
192848,-100,4,2,2,60,0,1
195848,-100,4,2,2,35,0,1
196276,-100,4,2,2,60,0,1
199598,-100,4,2,2,35,0,1
199705,-100,4,2,2,60,0,1
206133,-100,4,2,2,75,0,1
206562,-100,4,2,2,60,0,0
216205,-100,4,2,2,35,0,0
216419,-100,4,2,2,60,0,0
217383,-100,4,2,2,35,0,0
217705,-100,4,2,2,60,0,0
226919,-100,4,2,2,35,0,0
227133,-100,4,2,2,60,0,0
228633,-100,4,2,2,40,0,0
228848,-100,4,2,2,60,0,0
230348,-100,4,2,2,45,0,0
230562,-100,4,2,2,60,0,0
235490,-100,4,2,2,35,0,0
235705,-100,4,2,2,60,0,0
250705,-100,4,2,2,35,0,0
251133,-100,4,2,2,60,0,0
263990,-166.666666666667,4,2,2,60,0,0
280276,-200,4,2,1,25,0,0
281980,857.142857142857,4,2,1,25,1,0
281980,-200,4,2,1,25,0,0
285418,857.142857142857,4,2,1,25,1,0
285418,-200,4,2,1,25,0,0
287132,-133.333333333333,4,2,2,35,0,0
287989,-133.333333333333,4,2,2,40,0,0
288846,-133.333333333333,4,2,2,45,0,0
289703,-133.333333333333,4,2,2,50,0,0
290560,-114.285714285714,4,2,2,55,0,0
291418,-100,4,2,2,60,0,0
292275,-100,4,2,2,65,0,0
293132,-100,4,2,2,70,0,0
293989,-100,4,2,2,60,0,1
296989,-100,4,2,2,35,0,1
297418,-100,4,2,2,60,0,1
302346,-100,4,2,2,35,0,1
302560,-100,4,2,2,60,0,1
307275,-100,4,2,2,45,0,1
307703,-100,4,2,2,60,0,1
310703,-100,4,2,2,35,0,1
311132,-100,4,2,2,60,0,1
314132,-100,4,2,2,35,0,1
314560,-100,4,2,2,60,0,1
321418,-200,4,2,2,25,0,0

[Colours]
Combo1 : 255,87,87
Combo2 : 255,102,179
Combo3 : 102,121,255
Combo4 : 184,88,241

[HitObjects]
190,67,858,6,0,P|306:96|312:215,1,255,2|0,0:0|0:0,0:0:0:0:
349,320,2582,2,0,B|285:338|235:295|235:295|180:245|108:271,1,255,2|0,0:0|0:0,0:0:0:0:
155,365,4296,6,0,B|203:285|203:285|161:110,1,255,2|0,0:0|0:0,0:0:0:0:
92,60,6010,2,0,P|79:178|189:226,1,255,2|0,0:0|0:0,0:0:0:0:
263,156,7724,6,0,P|329:125|416:168,1,170,2|0,0:0|0:0,0:0:0:0:
334,314,9010,2,0,L|334:229,1,85,0|2,0:0|0:0,0:0:0:0:
414,315,9867,2,0,P|373:327|333:313,1,85,2|0,0:0|0:0,0:0:0:0:
256,247,10724,1,2,0:0:0:0:
97,315,11143,6,0,P|138:327|178:313,1,85,2|0,0:0|0:0,0:0:0:0:
256,247,12000,2,0,P|242:183|312:97,1,170,2|2,0:0|0:0,0:0:0:0:
342,192,13285,2,0,P|382:203|422:190,2,85,2|2|0,0:0|0:0|0:0,0:0:0:0:
447,101,14571,6,0,L|441:360,1,255,2|0,0:0|0:0,0:0:0:0:
352,305,16295,2,0,P|254:350|117:286,1,255,2|0,0:0|0:0,0:0:0:0:
163,201,18009,6,0,P|240:278|321:190,1,255,2|0,0:0|0:0,0:0:0:0:
237,131,19723,2,0,B|245:254|245:254|278:328|348:318,1,255,2|0,0:0|0:0,0:0:0:0:
341,217,21437,6,0,L|169:228,1,170,2|0,0:0|0:0,0:0:0:0:
44,128,22712,2,0,L|130:134,1,85,0|2,0:0|0:0,0:0:0:0:
133,54,23568,2,0,P|118:94|128:134,1,85,2|0,0:0|0:0,0:0:0:0:
171,228,24425,1,2,0:0:0:0:
256,192,24854,12,0,28068,0:0:0:0:
189,128,28282,6,0,L|203:244,1,85,14|8,0:0|0:0,0:0:0:0:
132,264,28710,2,0,P|166:289|208:295,1,85,0|0,3:0|0:0,0:0:0:0:
261,162,29139,2,0,P|198:214|208:295,1,170,8|0,0:1|0:0,0:0:0:0:
277,246,29782,1,0,0:0:0:0:
345,151,29996,6,0,L|229:165,1,85,10|8,0:0|0:0,0:0:0:0:
397,217,30424,2,0,P|423:183|429:141,1,85
377,48,30853,2,0,L|397:220,1,170,8|0,0:1|0:0,0:0:0:0:
115,216,31710,5,10,0:0:0:0:
146,136,31924,2,0,P|180:162|198:200,1,85,8|0,0:0|0:0,0:0:0:0:
224,346,32353,1,2,0:0:0:0:
139,357,32567,2,0,P|144:315|168:280,1,85,8|0,0:1|0:0,0:0:0:0:
309,335,32996,2,0,L|432:319,1,85,0|0,3:0|0:0,0:0:0:0:
386,162,33424,6,0,B|363:226|363:226|393:324,1,170,2|0,0:0|0:0,0:0:0:0:
450,228,34067,1,0,0:0:0:0:
323,97,34282,2,0,B|263:255,1,170,10|8,0:1|0:0,0:0:0:0:
263,256,35139,6,0,L|165:250,2,85,14|8|0,0:0|0:0|3:0,0:0:0:0:
347,261,35782,1,0,3:0:0:0:
352,117,35996,2,0,P|322:145|310:186,1,85,10|0,0:1|0:0,0:0:0:0:
432,262,36424,2,0,P|422:221|394:191,1,85
226,180,36853,6,0,P|181:240|71:210,1,170,10|0,0:0|0:0,0:0:0:0:
143,165,37496,1,0,3:0:0:0:
310,185,37710,2,0,L|336:296,1,85,10|0,0:1|0:0,0:0:0:0:
472,234,38139,2,0,L|390:209,1,85,2|0,0:0|0:0,0:0:0:0:
267,326,38567,6,0,P|333:352|414:270,1,170,10|0,0:0|0:0,0:0:0:0:
310,185,39210,1,0,3:0:0:0:
310,185,39424,2,0,L|336:296,1,85,10|8,0:1|0:0,0:0:0:0:
200,185,39853,1,8,0:1:0:0:
201,185,40067,2,0,L|182:268,1,85,2|2,0:0|0:0,0:0:0:0:
201,185,40710,6,0,P|271:165|306:101,2,148.750001418591,2|0|2,0:0|0:0|0:0,0:0:0:0:
255,35,41996,6,0,P|331:22|387:111,1,191.250007295609,10|0,0:0|3:0,0:0:0:0:
300,344,43282,2,0,L|384:333,1,63.7500024318696,2|8,0:0|0:0,0:0:0:0:
104,294,43924,1,8,0:0:0:0:
188,283,44139,2,0,L|260:273,1,63.7500024318696,2|0,0:0|0:0,0:0:0:0:
232,159,44567,2,0,P|219:220|251:274,1,127.500004863739,2|0,0:3|0:0,0:0:0:0:
425,196,45424,6,0,B|363:184|363:184|304:207,1,127.500004863739,10|0,0:0|0:0,0:0:0:0:
94,235,46282,2,0,B|156:247|156:247|233:178|323:214,1,223.125008511544,2|0,0:0|0:0,0:0:0:0:
303,207,47139,2,0,P|287:268|296:293,1,63.7500024318696,2|0,0:0|0:0,0:0:0:0:
303,351,47567,6,0,P|355:316|370:256,2,127.500004863739,0|2|0,0:0|0:3|0:0,0:0:0:0:
363,73,48853,6,0,B|390:122|390:122|370:261,1,191.250007295609,10|0,0:0|3:0,0:0:0:0:
132,192,50139,2,0,B|141:255,1,63.7500024318696,2|0,0:0|0:0,0:0:0:0:
241,122,50567,6,0,B|223:249,1,127.500004863739,2|0,0:0|0:0,0:0:0:0:
213,331,51210,1,0,0:0:0:0:
296,338,51424,2,0,P|278:278|216:248,1,127.500004863739,2|0,0:0|0:0,0:0:0:0:
213,331,52067,1,0,0:0:0:0:
380,346,52282,6,0,P|423:300|423:238,1,127.500004863739,10|0,0:0|0:0,0:0:0:0:
362,122,52924,2,0,L|355:186,1,63.7500024318696,2|2,0:0|0:0,0:0:0:0:
266,222,53353,1,8,0:0:0:0:
285,79,53567,2,0,L|277:142,1,63.7500024318696,2|2,0:0|0:0,0:0:0:0:
356,33,53996,5,8,0:0:0:0:
207,35,54210,2,0,L|199:98,2,63.7500024318696,0|2|0,0:0|0:0|0:0,0:0:0:0:
285,79,54853,2,0,P|254:168|152:174,1,191.250007295609,2|0,0:3|0:0,0:0:0:0:
285,79,55710,6,0,P|336:106|418:74,1,127.500004863739,10|0,0:0|0:0,0:0:0:0:
349,23,56353,1,0,3:0:0:0:
349,23,56996,1,2,0:0:0:0:
163,23,57424,6,0,B|178:64|178:64|149:164,1,127.500004863739,10|0,0:0|0:0,0:0:0:0:
130,226,58067,1,0,0:0:0:0:
239,118,58282,2,0,B|280:103|280:103|380:132,1,127.500004863739,2|0,0:0|0:0,0:0:0:0:
442,151,58924,1,0,0:0:0:0:
418,69,59139,6,0,L|402:198,1,127.500004863739,10|0,0:0|0:0,0:0:0:0:
474,285,59782,2,0,P|456:225|402:195,1,127.500004863739,2|0,3:2|0:0,0:0:0:0:
328,271,60424,2,0,L|391:278,1,63.7500024318696,2|0,3:2|0:0,0:0:0:0:
272,205,60853,6,0,P|252:229|242:260,2,63.7500024318696,2|0|0,0:0|0:0|0:0,0:0:0:0:
328,271,61496,1,2,0:0:0:0:
190,328,61710,2,0,L|126:320,1,63.7500024318696,2|0,0:3|0:0,0:0:0:0:
86,245,62139,2,0,L|149:237,1,63.7500024318696,8|8,3:2|3:2,0:0:0:0:
92,122,62567,6,0,B|74:160|74:160|86:245,1,127.500004863739,10|0,0:0|0:0,0:0:0:0:
126,320,63210,1,0,0:0:0:0:
208,251,63424,2,0,B|170:232|170:232|85:244,1,127.500004863739,2|0,0:0|0:0,0:0:0:0:
117,156,64067,1,0,0:0:0:0:
241,179,64282,6,0,B|278:197|278:197|363:185,1,127.500004863739,2|2,0:0|0:0,0:0:0:0:
294,113,64924,1,0,0:0:0:0:
198,241,65139,2,0,B|324:223,1,127.500004863739,2|0,0:3|0:0,0:0:0:0:
324,223,65996,6,0,P|368:294|359:335,1,127.500004863739,10|0,0:0|0:0,0:0:0:0:
283,298,66639,1,0,3:0:0:0:
280,151,66853,2,0,P|363:148|394:176,1,127.500004863739,2|0,0:0|0:0,0:0:0:0:
324,223,67496,1,0,3:0:0:0:
196,154,67710,2,0,P|235:80|275:67,1,127.500004863739,2|0,0:0|0:0,0:0:0:0:
272,67,68567,6,0,B|232:156|312:156|264:256,1,193.374991147995,2|0,0:3|0:0,0:0:0:0:
265,253,69424,6,0,P|303:236|403:322,1,170,14|0,0:0|0:0,0:0:0:0:
318,320,70067,1,2,0:0:0:0:
287,152,70282,2,0,L|271:68,1,85,8|8,0:0|0:0,0:0:0:0:
190,39,70710,2,0,P|186:80|217:137,1,85,8|0,0:1|0:0,0:0:0:0:
352,97,71139,6,0,P|356:61|328:5,1,85,8|8,0:0|0:0,0:0:0:0:
287,152,71567,2,0,L|302:235,1,85,2|0,0:0|0:0,0:0:0:0:
449,257,71996,2,0,B|383:205|383:205|302:235,1,170,10|0,0:0|3:0,0:0:0:0:
303,236,72853,6,0,P|292:294|172:320,1,170,10|0,0:0|0:0,0:0:0:0:
221,250,73496,1,0,3:0:0:0:
302,131,73710,2,0,L|304:361,1,212.5,10|0,0:0|0:0,0:0:0:0:
303,343,74353,2,0,P|351:314|406:326,1,85,2|8,0:0|0:0,0:0:0:0:
203,219,74996,6,0,P|228:251|273:267,1,85,2|0,0:0|0:0,0:0:0:0:
327,118,75424,2,0,P|294:144|278:183,1,85,8|8,0:0|0:0,0:0:0:0:
303,343,75853,2,0,P|335:317|351:272,1,85,8|0,0:0|0:0,0:0:0:0:
332,33,76282,6,0,L|327:118,1,85,2|0,0:0|0:0,0:0:0:0:
321,202,76710,1,0,0:0:0:0:
468,213,76924,2,0,L|397:165,1,85,2|8,0:3|0:0,0:0:0:0:
327,118,77353,1,0,0:0:0:0:
245,238,77567,2,0,P|291:282|339:282,1,85,10|0,0:0|0:0,0:0:0:0:
397,165,77996,6,0,L|321:202,1,85,10|0,0:0|0:0,0:0:0:0:
233,322,78424,2,0,L|309:285,1,85,8|0,0:0|0:0,0:0:0:0:
482,172,78853,2,0,P|449:97|313:177,1,255,8|0,0:0|0:0,0:0:0:0:
194,172,79710,6,0,P|224:142|170:15,1,170,10|0,0:0|0:0,0:0:0:0:
154,99,80353,1,2,0:0:0:0:
151,244,80567,2,0,B|191:255|191:255|233:245,1,85,2|8,0:3|0:0,0:0:0:0:
376,186,80996,2,0,B|335:174|335:174|294:185,1,85,8|0,0:0|0:0,0:0:0:0:
257,325,81424,6,0,P|292:303|314:267,1,85,10|0,0:0|0:0,0:0:0:0:
269,104,81853,2,0,P|233:126|211:162,1,85
396,285,82282,2,0,P|394:242|373:205,1,85,10|0,0:0|0:0,0:0:0:0:
211,162,82710,1,8,0:0:0:0:
234,244,82924,1,8,0:0:0:0:
270,101,83139,6,0,P|167:89|131:136,1,170,10|0,0:0|0:0,0:0:0:0:
55,172,83782,2,0,P|158:160|194:207,1,170,2|0,0:0|0:0,0:0:0:0:
97,317,84424,2,0,L|113:234,1,85,2|0,0:0|0:0,0:0:0:0:
180,332,84853,6,0,L|264:348,1,85,2|0,0:0|0:0,0:0:0:0:
346,363,85282,2,0,P|343:321|320:285,1,85
150,251,85710,1,10,0:0:0:0:
235,267,85924,1,0,0:0:0:0:
255,120,86139,2,0,P|221:146|205:185,1,85,8|0,0:0|0:0,0:0:0:0:
374,214,86567,6,0,L|291:200,1,85,10|0,0:0|0:0,0:0:0:0:
403,293,86996,1,0,0:0:0:0:
458,229,87210,1,0,0:0:0:0:
320,276,87424,2,0,P|320:318|344:357,1,85,10|0,0:0|0:0,0:0:0:0:
192,276,87853,2,0,P|192:318|168:357,1,85,8|0,0:0|0:0,0:0:0:0:
30,310,88282,6,0,P|67:290|109:293,1,85,10|8,0:0|0:0,0:0:0:0:
162,129,88710,1,0,0:0:0:0:
136,211,88924,1,10,0:0:0:0:
304,173,89139,2,0,P|286:134|250:109,1,85,8|0,0:0|0:0,0:0:0:0:
238,276,89567,2,0,L|261:383,1,85,10|0,0:0|0:0,0:0:0:0:
396,324,89996,6,0,P|360:303|318:301,1,85,2|0,0:0|0:0,0:0:0:0:
180,334,90424,2,0,P|216:313|238:277,1,85,0|2,0:0|0:0,0:0:0:0:
281,140,90853,2,0,P|280:182|300:219,1,85,2|0,0:0|0:0,0:0:0:0:
446,164,91282,2,0,L|362:160,1,85,10|0,0:0|0:0,0:0:0:0:
153,281,91710,6,0,L|237:276,1,85,10|8,0:0|0:0,0:0:0:0:
382,79,92139,2,0,P|339:78|302:98,1,85,2|0,0:0|0:0,0:0:0:0:
108,182,92567,2,0,P|145:201|187:201,1,85,2|0,0:0|0:0,0:0:0:0:
446,164,92996,2,0,L|361:159,1,85,2|0,0:0|0:0,0:0:0:0:
87,269,93424,6,0,P|88:311|109:347,1,85,10|0,0:0|0:0,0:0:0:0:
387,232,93853,2,0,P|374:272|344:301,1,85,10|0,0:0|0:0,0:0:0:0:
75,195,94282,2,0,P|105:223|146:234,1,85,10|0,0:0|0:0,0:0:0:0:
416,163,94710,2,0,P|378:182|336:182,1,85,2|0,0:0|0:0,0:0:0:0:
32,124,95139,6,0,P|91:139|15:50,1,297.5,2|0,0:3|0:0,0:0:0:0:
36,23,95996,6,0,P|91:117|71:224,1,223.125008511544,4|0,0:0|0:0,0:0:0:0:
37,306,96848,5,14,0:0:0:0:
154,220,97062,1,8,0:0:0:0:
289,278,97276,1,8,0:0:0:0:
187,142,97490,1,0,0:0:0:0:
120,297,97705,2,0,P|137:339|172:367,1,85,8|0,0:1|0:0,0:0:0:0:
238,210,98133,2,0,L|134:222,1,85
304,54,98562,5,8,0:0:0:0:
406,189,98776,1,0,0:0:0:0:
205,288,98990,1,8,0:0:0:0:
271,132,99205,1,0,0:0:0:0:
373,267,99419,2,0,P|426:271|474:240,1,85,8|0,0:1|0:0,0:0:0:0:
439,111,99848,2,0,P|386:107|338:138,1,85,2|0,0:0|0:0,0:0:0:0:
358,120,100169,1,0,0:0:0:0:
358,120,100276,5,2,0:0:0:0:
304,54,100490,1,8,0:0:0:0:
238,210,100705,1,8,0:0:0:0:
271,132,100919,1,0,0:0:0:0:
373,267,101133,2,0,P|426:271|474:240,1,85,8|0,0:1|0:0,0:0:0:0:
454,258,101455,1,0,0:0:0:0:
454,258,101562,1,2,0:0:0:0:
322,200,101776,1,0,0:0:0:0:
256,356,101990,6,0,L|143:370,1,85,10|0,0:0|0:0,0:0:0:0:
289,278,102419,1,8,0:0:0:0:
340,345,102633,1,0,0:0:0:0:
322,200,102848,1,8,0:1:0:0:
205,288,103062,1,0,3:0:0:0:
205,288,103169,1,0,3:0:0:0:
205,288,103276,2,0,L|140:296,3,42.5,10|0|0|0,0:0|0:0|0:0|0:0,0:0:0:0:
121,297,103705,6,0,P|145:263|153:222,1,85,14|8,0:0|0:0,0:0:0:0:
50,83,104133,1,0,0:0:0:0:
69,229,104348,1,0,0:0:0:0:
135,73,104562,1,8,0:1:0:0:
16,161,104776,2,0,L|-5:210,2,42.5,0|0|2,0:0|0:0|0:0,0:0:0:0:
84,5,105205,1,0,0:0:0:0:
84,5,105312,1,0,0:0:0:0:
84,5,105419,6,0,P|128:-11|200:11,1,85,10|8,0:0|0:0,0:0:0:0:
100,150,105848,2,0,L|135:73,1,85,10|0,0:0|0:0,0:0:0:0:
187,142,106169,1,2,0:0:0:0:
187,142,106276,2,0,L|271:132,1,85,10|0,0:1|0:0,0:0:0:0:
305,54,106705,2,0,P|261:48|219:65,1,85,8|0,0:0|0:0,0:0:0:0:
204,288,107133,6,0,P|248:294|290:277,1,85,10|0,0:0|0:0,0:0:0:0:
187,142,107562,1,0,0:0:0:0:
120,297,107776,1,0,0:0:0:0:
136,74,107990,2,0,P|194:57|247:81,1,85,8|0,0:1|0:0,0:0:0:0:
154,220,108419,1,2,0:0:0:0:
50,83,108633,1,0,0:0:0:0:
120,297,108848,5,10,0:0:0:0:
271,132,109062,1,2,0:0:0:0:
69,229,109276,1,8,0:0:0:0:
256,356,109490,1,2,0:0:0:0:
187,142,109705,1,8,0:1:0:0:
37,308,109919,1,2,0:0:0:0:
238,210,110133,1,2,0:0:0:0:
266,196,110240,1,2,0:0:0:0:
298,194,110348,1,2,0:0:0:0:
328,203,110455,1,2,0:0:0:0:
353,223,110562,5,14,0:0:0:0:
205,288,110776,1,8,0:0:0:0:
271,132,110990,1,0,0:0:0:0:
289,278,111205,1,8,0:0:0:0:
187,142,111419,2,0,P|190:100|213:65,1,85,8|0,0:1|0:0,0:0:0:0:
322,200,111848,1,8,0:0:0:0:
304,54,112062,1,0,0:0:0:0:
205,288,112276,5,10,0:0:0:0:
187,142,112490,1,8,0:0:0:0:
255,355,112705,2,0,P|297:363|336:348,1,85
154,220,113133,1,8,0:1:0:0:
171,366,113348,1,0,0:0:0:0:
289,278,113562,1,2,0:0:0:0:
310,254,113669,1,2,0:0:0:0:
321,224,113776,1,2,0:0:0:0:
320,193,113883,1,2,0:0:0:0:
308,164,113990,5,14,0:0:0:0:
154,220,114205,1,2,0:0:0:0:
255,355,114419,2,0,P|297:363|336:348,1,85,8|0,0:0|0:0,0:0:0:0:
453,260,114848,2,0,P|412:252|373:267,1,85,8|0,0:1|0:0,0:0:0:0:
373,267,115169,1,0,0:0:0:0:
373,267,115276,1,2,0:0:0:0:
487,184,115490,1,0,0:0:0:0:
420,337,115705,5,8,0:0:0:0:
327,197,115919,1,2,0:0:0:0:
256,356,116133,2,0,L|171:345,1,85,10|0,0:0|0:0,0:0:0:0:
102,131,116562,2,0,L|186:141,1,85,8|0,0:1|0:0,0:0:0:0:
228,146,116883,1,0,0:0:0:0:
228,146,116990,1,2,0:0:0:0:
129,340,117205,1,0,0:0:0:0:
129,340,117312,1,0,0:0:0:0:
129,340,117419,5,14,0:0:0:0:
102,131,117633,1,8,0:0:0:0:
247,285,117848,1,2,0:0:0:0:
41,238,118062,1,8,0:0:0:0:
235,155,118276,1,10,0:1:0:0:
149,230,118490,1,0,0:0:0:0:
149,230,118598,1,2,0:0:0:0:
149,230,118705,1,2,0:0:0:0:
213,43,118919,1,0,0:0:0:0:
342,191,119133,5,10,0:0:0:0:
309,23,119348,1,8,0:0:0:0:
246,211,119562,2,0,P|280:267|313:286,2,85,8|0|8,0:0|0:0|0:1,0:0:0:0:
277,117,120205,1,2,0:0:0:0:
437,171,120419,1,2,0:0:0:0:
457,161,120526,1,2,0:0:0:0:
473,148,120633,1,2,0:0:0:0:
486,131,120740,1,2,0:0:0:0:
494,111,120848,5,10,0:0:0:0:
333,70,121062,1,8,0:0:0:0:
394,172,121276,1,0,0:0:0:0:
435,10,121490,1,2,0:3:0:0:
313,151,121705,1,10,0:1:0:0:
414,91,121919,1,2,0:0:0:0:
454,273,122133,5,2,0:3:0:0:
394,172,122348,1,0,0:0:0:0:
373,252,122562,1,10,0:0:0:0:
474,192,122776,1,8,0:0:0:0:
458,288,122990,5,10,0:0:0:0:
398,187,123205,1,0,0:0:0:0:
377,267,123419,1,10,0:1:0:0:
478,207,123633,1,8,0:0:0:0:
461,302,123848,5,10,0:0:0:0:
401,201,124062,1,0,0:0:0:0:
380,281,124276,1,10,0:0:0:0:
481,221,124490,1,8,0:0:0:0:
464,316,124705,5,2,0:0:0:0:
404,215,124919,1,2,0:0:0:0:
383,295,125133,1,10,0:1:0:0:
484,235,125348,2,0,P|472:167|399:131,1,127.500004863739,10|8,0:0|0:0,0:0:0:0:
342,199,125990,6,0,L|404:215,1,63.7500024318696,8|8,0:0|0:0,0:0:0:0:
489,119,126419,2,0,L|427:134,1,63.7500024318696,10|0,0:0|0:0,0:0:0:0:
359,276,126848,2,0,L|420:291,1,63.7500024318696,2|0,0:0|0:0,0:0:0:0:
505,195,127276,2,0,L|443:210,1,63.7500024318696,2|0,0:0|0:0,0:0:0:0:
375,352,127705,6,0,P|423:366|495:304,2,127.500004863739,2|0|0,0:3|0:0|0:0,0:0:0:0:
137,352,128990,2,0,P|89:366|17:304,1,127.500004863739,2|0,0:0|0:0,0:0:0:0:
26,327,129848,2,0,B|47:287|47:287|30:187,2,127.500004863739,2|2|0,0:0|0:0|0:0,0:0:0:0:
127,141,131133,6,0,B|106:181|106:181|119:262,1,127.500004863739,10|0,0:0|0:0,0:0:0:0:
191,196,131776,1,0,0:0:0:0:
93,105,131990,2,0,L|122:279,1,159.375006079674,2|0,0:0|0:0,0:0:0:0:
119,262,132633,2,0,P|89:254|38:274,1,63.7500024318696,2|0,0:0|0:0,0:0:0:0:
252,140,133276,6,0,P|273:118|267:19,2,127.500004863739,2|2|0,0:0|0:0|0:0,0:0:0:0:
218,141,134562,6,0,L|365:140,1,127.500004863739,2|0,0:3|0:0,0:0:0:0:
375,60,135205,2,0,P|421:101|418:186,1,127.500004863739,10|0,0:0|0:0,0:0:0:0:
346,281,135848,2,0,P|350:250|367:223,1,63.7500024318696,2|0,0:0|0:0,0:0:0:0:
407,334,136276,6,0,P|347:313|286:328,1,127.500004863739,10|8,0:0|0:0,0:0:0:0:
212,371,136919,1,0,0:0:0:0:
91,291,137133,2,0,P|150:270|211:285,1,127.500004863739,10|0,0:0|0:0,0:0:0:0:
286,328,137776,1,0,0:0:0:0:
395,209,137990,6,0,B|362:239|362:239|279:243,1,127.500004863739,10|0,0:0|0:0,0:0:0:0:
324,101,138633,2,0,B|327:164,1,63.7500024318696,2|2,0:0|0:0,0:0:0:0:
242,165,139062,1,8,0:0:0:0:
311,79,139276,2,0,B|314:142,1,63.7500024318696,2|2,0:0|0:0,0:0:0:0:
229,143,139705,1,8,0:0:0:0:
298,57,139919,2,0,B|301:120,1,63.7500024318696,0|10,0:0|0:0,0:0:0:0:
301,120,140562,2,0,P|364:92|418:108,1,127.500004863739,2|0,0:0|0:0,0:0:0:0:
211,264,141419,6,0,P|148:292|93:275,1,127.500004863739,2|0,0:3|0:0,0:0:0:0:
140,146,142062,2,0,P|138:178|146:209,1,63.7500024318696,2|0,0:0|0:0,0:0:0:0:
222,172,142490,1,0,0:0:0:0:
143,63,142705,2,0,P|140:94|148:125,1,63.7500024318696,2|0,3:2|0:0,0:0:0:0:
281,112,143133,6,0,P|254:94|223:87,2,63.7500024318696,2|0|8,0:0|0:0|0:0,0:0:0:0:
303,193,143776,1,0,0:0:0:0:
212,293,143990,2,0,P|200:231|221:172,1,127.500004863739,10|0,0:0|0:0,0:0:0:0:
138,150,144633,1,0,0:0:0:0:
44,265,144848,6,0,L|167:229,1,127.500004863739,10|0,0:0|0:0,0:0:0:0:
181,312,145490,2,0,P|197:251|244:209,1,127.500004863739,2|0,3:2|0:0,0:0:0:0:
322,243,146133,2,0,P|354:246|385:239,1,63.7500024318696,2|0,0:0|0:0,0:0:0:0:
348,162,146562,6,0,L|358:296,1,127.500004863739,2|8,0:0|0:0,0:0:0:0:
292,349,147205,2,0,B|262:303|213:308|213:308|156:315,1,127.500004863739,2|0,0:0|0:0,0:0:0:0:
131,352,147848,2,0,P|158:336|180:313,1,63.7500024318696,2|2,3:2|3:2,0:0:0:0:
119,231,148276,6,0,P|108:293|131:352,1,127.500004863739,2|0,0:3|0:0,0:0:0:0:
237,265,148919,2,0,B|203:231|154:244|154:244|118:230,1,127.500004863739,10|0,0:0|0:0,0:0:0:0:
104,145,149562,2,0,L|164:168,1,63.7500024318696,10|0,0:0|0:0,0:0:0:0:
193,55,149990,6,0,P|157:106|164:168,1,127.500004863739,2|8,0:0|0:0,0:0:0:0:
318,55,150848,2,0,P|354:106|347:168,1,127.500004863739,2|0,0:0|0:0,0:0:0:0:
275,127,151490,1,0,0:0:0:0:
348,252,151705,6,0,P|405:227|431:170,1,127.500004863739,10|0,0:0|0:0,0:0:0:0:
347,168,152348,1,0,0:0:0:0:
262,253,152562,2,0,P|204:228|178:171,1,127.500004863739,10|0,0:0|0:0,0:0:0:0:
263,169,153205,1,0,0:0:0:0:
305,321,153419,1,10,0:0:0:0:
311,336,153848,6,0,P|308:273|340:219,2,127.500004863739,8|2|0,0:0|0:0|0:0,0:0:0:0:
317,351,155133,6,0,P|344:312|401:295,2,85,2|8|0,0:3|0:0|0:0,0:0:0:0:
400,164,155776,2,0,P|373:203|316:220,1,85,2|8,0:0|0:1,0:0:0:0:
321,135,156205,1,2,0:0:0:0:
464,110,156419,2,0,P|484:152|470:210,1,85,2|0,0:0|0:0,0:0:0:0:
400,164,156848,5,10,0:0:0:0:
385,81,157062,1,8,0:0:0:0:
415,247,157276,1,2,3:2:0:0:
415,247,157705,2,0,P|348:197|265:206,1,170,10|0,0:1|0:0,0:0:0:0:
200,260,158348,1,0,0:0:0:0:
270,365,158562,6,0,B|297:310|297:310|265:205,1,170,10|0,0:0|0:0,0:0:0:0:
238,125,159205,1,0,3:0:0:0:
351,79,159419,2,0,B|324:134|324:134|370:285,1,212.5,10|0,0:1|0:0,0:0:0:0:
368,279,160062,2,0,P|407:260|454:264,1,85,0|2,0:0|0:0,0:0:0:0:
424,344,160490,5,8,0:0:0:0:
338,359,160705,2,0,P|330:316|295:280,1,85,10|0,0:0|0:0,0:0:0:0:
208,285,161133,2,0,P|181:317|173:359,1,85,10|0,0:1|0:0,0:0:0:0:
91,363,161562,2,0,P|70:364|49:362,2,42.5,8|8|0,0:0|0:0|0:0,0:0:0:0:
255,355,161990,6,0,B|264:285|264:285|247:262|247:262|253:191,1,170,10|0,0:0|0:0,0:0:0:0:
328,236,162633,1,2,0:0:0:0:
183,311,162848,2,0,L|61:297,1,85,10|0,0:1|0:0,0:0:0:0:
151,235,163276,2,0,P|176:269|183:311,1,85,2|0,0:0|0:0,0:0:0:0:
45,366,163705,6,0,P|20:331|13:290,1,85,10|0,0:0|0:0,0:0:0:0:
107,216,164133,2,0,L|98:301,1,85,2|0,0:0|0:0,0:0:0:0:
254,273,164562,2,0,P|170:213|98:218,1,170,10|0,0:1|0:0,0:0:0:0:
26,212,165205,1,2,0:0:0:0:
26,212,165312,1,2,0:0:0:0:
26,212,165419,6,0,P|45:174|43:130,1,85,10|8,0:0|0:0,0:0:0:0:
16,55,165848,1,0,0:0:0:0:
123,129,166062,2,0,P|161:147|205:145,1,85,2|8,0:0|0:1,0:0:0:0:
282,117,166490,1,8,0:0:0:0:
141,49,166705,2,0,P|122:86|123:129,1,85,10|0,0:0|0:0,0:0:0:0:
222,258,167133,6,0,P|198:223|161:204,1,85,10|0,0:0|0:0,0:0:0:0:
60,294,167562,2,0,L|145:287,1,85
307,251,167990,2,0,L|222:258,1,85,10|0,0:1|0:0,0:0:0:0:
138,376,168419,2,0,P|179:368|213:343,1,85,2|0,0:0|0:0,0:0:0:0:
298,342,168740,1,0,0:0:0:0:
298,342,168848,6,0,P|332:367|374:376,1,85,10|0,0:0|0:0,0:0:0:0:
452,294,169276,2,0,L|367:287,1,85,0|2,0:0|0:0,0:0:0:0:
310,222,169705,2,0,P|347:203|389:202,1,85,8|0,0:1|0:0,0:0:0:0:
506,148,170133,2,0,P|463:146|427:126,1,85,10|0,0:0|0:0,0:0:0:0:
366,44,170562,6,0,B|401:90|401:90|389:202,1,170,10|2,0:0|0:0,0:0:0:0:
244,154,171205,2,0,P|289:142|319:116,1,85,2|8,0:0|0:1,0:0:0:0:
248,69,171633,1,8,0:0:0:0:
169,194,171848,2,0,P|194:222|248:240,1,85,10|0,0:0|0:0,0:0:0:0:
172,108,172276,6,0,B|118:91|118:91|2:124,1,170,10|0,0:0|0:0,0:0:0:0:
31,36,172919,1,0,0:0:0:0:
118,172,173133,2,0,B|172:189|172:189|288:156,1,170,10|0,0:1|0:0,0:0:0:0:
362,133,173776,1,0,0:0:0:0:
236,17,173990,5,10,0:0:0:0:
217,99,174205,2,0,L|204:156,2,42.5,8|8|0,0:0|0:0|0:0,0:0:0:0:
298,75,174633,1,8,0:0:0:0:
154,40,174848,2,0,P|111:40|74:60,1,85,10|0,0:1|0:0,0:0:0:0:
74,60,175169,1,2,0:0:0:0:
74,60,175276,1,2,0:0:0:0:
133,124,175490,1,0,0:0:0:0:
22,222,175705,6,0,L|48:142,1,85,10|0,0:0|0:0,0:0:0:0:
191,187,176133,2,0,P|154:207|112:208,1,85
218,100,176562,2,0,L|279:160,1,85,10|0,0:1|0:0,0:0:0:0:
385,53,176990,2,0,P|343:54|306:74,1,85
258,242,177419,6,0,P|300:241|337:221,1,85,10|0,0:0|0:0,0:0:0:0:
440,119,177848,2,0,L|420:201,1,85
135,120,178276,2,0,L|217:100,1,85,10|0,0:1|0:0,0:0:0:0:
377,304,178705,2,0,L|295:284,1,85
135,120,179133,6,0,P|147:160|134:202,1,85,10|0,0:0|0:0,0:0:0:0:
91,352,179562,2,0,P|78:312|90:272,1,85,10|0,0:0|0:0,0:0:0:0:
277,95,179990,2,0,P|268:136|235:166,1,85,10|0,0:1|0:0,0:0:0:0:
206,361,180419,2,0,P|214:320|245:292,1,85,10|0,0:0|0:0,0:0:0:0:
419,70,180848,6,0,P|324:101|156:-1,1,297.5,2|0,0:3|0:0,0:0:0:0:
161,9,181705,6,0,B|190:104|113:85|152:188,1,178.499994552612,4|0,0:0|0:0,0:0:0:0:
180,260,182562,5,14,0:0:0:0:
228,149,182776,1,8,0:0:0:0:
292,307,182990,1,8,0:0:0:0:
340,196,183205,1,0,0:0:0:0:
180,260,183419,1,10,0:1:0:0:
308,116,183633,1,0,0:0:0:0:
292,306,183848,2,0,P|250:313|211:297,1,85,2|0,0:0|0:0,0:0:0:0:
196,69,184276,5,10,0:0:0:0:
308,116,184490,1,0,0:0:0:0:
149,180,184705,2,0,L|35:227,1,85,8|0,0:0|0:0,0:0:0:0:
260,228,185133,1,10,0:1:0:0:
228,149,185348,1,0,0:0:0:0:
181,260,185562,1,2,0:0:0:0:
161,267,185669,1,0,0:0:0:0:
141,275,185776,1,2,0:0:0:0:
121,283,185883,1,2,0:0:0:0:
102,291,185990,5,10,0:0:0:0:
149,180,186205,1,8,0:0:0:0:
38,132,186419,1,8,0:0:0:0:
86,20,186633,1,0,0:0:0:0:
71,213,186848,2,0,L|149:179,1,85,10|0,0:1|0:0,0:0:0:0:
228,149,187276,1,2,0:0:0:0:
181,260,187490,5,0,0:0:0:0:
181,260,187598,1,0,0:0:0:0:
181,260,187705,1,10,0:0:0:0:
149,180,187919,1,8,0:0:0:0:
308,116,188133,1,10,0:0:0:0:
276,36,188348,1,0,0:0:0:0:
260,228,188562,1,10,0:1:0:0:
420,164,188776,2,0,L|479:140,2,42.5,0|0|8,3:0|3:0|0:0,0:0:0:0:
308,116,189205,1,0,0:0:0:0:
308,116,189312,1,0,0:0:0:0:
308,116,189419,6,0,L|350:224,1,85,14|0,0:0|0:0,0:0:0:0:
290,307,189848,2,0,L|248:199,1,85
420,164,190276,2,0,P|425:213|406:253,1,85,10|0,0:1|0:0,0:0:0:0:
178,259,190705,2,0,P|173:210|192:170,1,85
340,196,191133,5,10,0:0:0:0:
308,116,191348,1,0,0:0:0:0:
260,228,191562,1,8,0:0:0:0:
372,276,191776,2,0,L|446:307,2,42.5,0|0|10,0:0|0:0|0:1,0:0:0:0:
340,196,192205,1,2,0:0:0:0:
292,308,192419,1,2,0:0:0:0:
258,314,192526,1,2,0:0:0:0:
224,307,192633,1,2,0:0:0:0:
196,287,192740,1,2,0:0:0:0:
178,259,192848,5,10,0:0:0:0:
228,149,193062,1,8,0:0:0:0:
292,308,193276,2,0,L|403:355,1,85,0|8,0:0|0:0,0:0:0:0:
386,149,193705,2,0,L|308:116,1,85,10|0,0:1|0:0,0:0:0:0:
178,259,194133,1,8,0:0:0:0:
228,149,194348,1,0,0:0:0:0:
211,339,194562,5,8,0:0:0:0:
260,228,194776,1,2,0:0:0:0:
372,276,194990,1,8,0:0:0:0:
308,116,195205,1,2,0:0:0:0:
292,308,195419,1,8,0:1:0:0:
340,196,195633,1,2,0:0:0:0:
228,149,195848,1,2,0:0:0:0:
236,168,195955,1,2,0:0:0:0:
244,188,196062,1,2,0:0:0:0:
252,207,196169,1,2,0:0:0:0:
260,227,196276,5,14,0:0:0:0:
308,116,196490,1,8,0:0:0:0:
149,180,196705,1,0,0:0:0:0:
196,69,196919,1,0,0:0:0:0:
340,196,197133,1,10,0:1:0:0:
276,36,197348,1,0,3:0:0:0:
259,226,197562,2,0,P|285:260|322:280,1,85,8|0,0:0|0:0,0:0:0:0:
387,84,197990,5,10,0:0:0:0:
340,196,198205,1,8,0:0:0:0:
499,131,198419,2,0,L|462:40,1,85,8|0,0:0|0:0,0:0:0:0:
308,116,198848,1,10,0:1:0:0:
419,163,199062,1,0,0:0:0:0:
355,4,199276,2,0,L|264:41,1,85,2|0,0:0|0:0,0:0:0:0:
276,36,199598,1,2,0:0:0:0:
276,36,199705,5,10,0:0:0:0:
387,84,199919,1,8,0:0:0:0:
228,149,200133,2,0,L|137:186,1,85
340,196,200562,2,0,L|418:228,1,85,10|0,0:1|0:0,0:0:0:0:
260,228,200990,1,2,0:0:0:0:
308,116,201205,1,0,0:0:0:0:
292,308,201419,5,10,0:0:0:0:
180,260,201633,1,0,0:0:0:0:
132,372,201848,2,0,L|210:339,1,85,8|0,0:0|0:0,0:0:0:0:
228,149,202276,2,0,L|137:186,1,85,10|0,0:1|0:0,0:0:0:0:
147,194,202598,1,2,0:0:0:0:
145,208,202705,2,0,L|54:245,1,85,10|0,0:0|0:0,0:0:0:0:
64,253,203026,1,0,0:0:0:0:
62,267,203133,5,14,0:0:0:0:
77,155,203348,1,0,0:0:0:0:
174,282,203562,1,10,0:0:0:0:
189,170,203776,1,0,0:0:0:0:
60,302,203990,5,10,0:1:0:0:
41,153,204205,1,0,0:0:0:0:
209,283,204419,1,2,0:0:0:0:
190,134,204633,1,2,0:0:0:0:
117,266,204848,5,6,0:0:0:0:
253,201,205062,1,8,0:0:0:0:
104,172,205276,1,10,0:0:0:0:
209,283,205490,1,0,0:0:0:0:
190,134,205705,2,0,L|202:69,3,42.5,4|0|0|0,0:0|0:0|0:0|0:0,0:0:0:0:
105,39,206133,2,0,L|114:81,3,42.5,4|0|0|0,0:0|0:0|0:0|0:0,0:0:0:0:
264,36,206562,6,0,P|354:20|408:102,1,170,6|0,0:0|0:0,0:0:0:0:
308,184,207205,1,2,0:0:0:0:
323,100,207419,1,8,0:1:0:0:
388,154,207633,1,0,0:0:0:0:
288,267,207848,2,0,P|251:248|228:214,1,85,2|0,0:0|0:0,0:0:0:0:
243,130,208276,5,8,0:0:0:0:
308,184,208490,1,10,0:1:0:0:
163,159,208705,1,8,0:0:0:0:
163,159,208812,1,10,0:1:0:0:
163,159,208919,1,0,0:0:0:0:
258,46,209133,1,10,0:1:0:0:
227,212,209348,1,8,0:1:0:0:
224,232,209455,1,10,0:1:0:0:
221,253,209562,1,2,0:0:0:0:
431,359,209990,5,10,0:0:0:0:
368,301,210205,1,8,0:0:0:0:
449,275,210419,1,0,0:0:0:0:
349,384,210633,1,2,0:0:0:0:
349,384,210740,1,0,0:0:0:0:
349,384,210848,1,10,0:1:0:0:
304,242,211062,1,0,0:0:0:0:
205,350,211276,2,0,L|315:319,1,85,2|0,0:0|0:0,0:0:0:0:
225,266,211705,5,0,0:0:0:0:
124,374,211919,1,10,0:1:0:0:
80,232,212133,2,0,L|34:187,2,42.5,8|10|0,0:0|0:1|0:0,0:0:0:0:
147,289,212562,2,0,P|182:267|225:266,1,85,10|0,0:1|0:0,0:0:0:0:
340,260,212990,2,0,P|303:240|282:204,1,85,2|0,0:0|0:0,0:0:0:0:
360,96,213419,6,0,B|337:139|337:139|341:289,1,170,14|0,0:0|0:0,0:0:0:0:
345,345,214062,1,2,0:0:0:0:
211,309,214276,1,10,0:1:0:0:
265,375,214490,1,0,0:0:0:0:
258,237,214705,2,0,B|254:115,1,85,10|0,0:0|0:0,0:0:0:0:
167,69,215133,5,2,0:0:0:0:
85,157,215348,2,0,B|170:154,2,85,10|8|0,0:1|0:1|0:0,0:0:0:0:
4,246,215990,1,10,0:1:0:0:
1,160,216205,1,2,0:0:0:0:
1,160,216312,1,2,0:0:0:0:
1,160,216419,2,0,P|11:114|58:79,1,85,8|0,0:0|0:0,0:0:0:0:
129,229,216848,5,8,0:1:0:0:
85,157,217062,1,8,0:1:0:0:
89,302,217276,2,0,L|115:345,3,42.5,8|2|0|2,0:0|0:0|0:0|0:0,0:0:0:0:
129,229,217705,2,0,P|170:217|211:225,1,85,10|0,0:1|0:0,0:0:0:0:
256,296,218133,2,0,P|215:309|174:301,1,85,2|0,0:0|0:0,0:0:0:0:
298,223,218562,5,2,0:0:0:0:
299,369,218776,2,0,P|340:357|381:365,2,85,8|8|0,0:1|0:0|0:0,0:0:0:0:
392,280,219419,2,0,L|377:384,1,85,10|0,0:1|0:0,0:0:0:0:
467,230,219848,2,0,L|479:314,1,85,2|0,0:0|0:0,0:0:0:0:
455,146,220276,6,0,P|406:170|387:216,1,85,14|0,0:0|0:0,0:0:0:0:
467,230,220705,1,0,0:0:0:0:
442,62,220919,2,0,P|364:97|312:164,1,170,6|2,0:0|0:0,0:0:0:0:
244,117,221562,2,0,P|284:130|312:161,1,85,2|0,0:0|0:0,0:0:0:0:
233,287,221990,6,0,L|239:203,1,85,10|8,0:0|0:1,0:0:0:0:
167,157,222419,1,10,0:1:0:0:
37,224,222633,2,0,L|121:229,1,85,8|8,0:0|0:1,0:0:0:0:
94,110,223062,1,8,0:0:0:0:
94,110,223169,1,8,0:0:0:0:
94,110,223276,2,0,L|9:115,1,85,2|0,0:0|0:0,0:0:0:0:
166,157,223705,6,0,P|236:112|317:130,1,170,10|2,0:0|0:0,0:0:0:0:
395,95,224348,1,0,0:0:0:0:
395,95,224455,1,2,0:0:0:0:
395,95,224562,2,0,B|403:138|403:138|390:177,1,85,10|2,0:1|0:0,0:0:0:0:
315,218,224990,2,0,P|360:258|403:262,1,85,2|0,0:0|0:0,0:0:0:0:
473,191,225419,6,0,L|373:173,1,85,10|8,0:0|0:1,0:0:0:0:
232,145,225848,2,0,L|316:131,1,85,8|2,0:0|0:0,0:0:0:0:
285,56,226276,2,0,L|255:223,1,170,10|0,0:1|0:0,0:0:0:0:
268,307,226919,1,2,0:0:0:0:
268,307,227026,1,2,0:0:0:0:
268,307,227133,6,0,P|307:290|331:255,1,85,14|8,0:0|0:0,0:0:0:0:
385,121,227562,1,8,0:0:0:0:
385,121,227776,2,0,P|380:163|398:202,1,85,2|10,0:0|0:1,0:0:0:0:
465,150,228205,2,0,P|469:108|452:69,1,85,0|2,0:0|0:0,0:0:0:0:
305,91,228633,1,2,0:0:0:0:
305,91,228740,1,2,0:0:0:0:
305,91,228848,6,0,L|385:121,1,85,10|8,0:0|0:1,0:0:0:0:
234,147,229276,2,0,L|303:195,1,85
150,182,229705,2,0,L|204:247,1,85,10|2,0:1|0:0,0:0:0:0:
217,263,230026,1,10,0:1:0:0:
231,279,230133,1,8,0:1:0:0:
59,194,230348,1,2,0:0:0:0:
59,194,230455,1,2,0:0:0:0:
59,194,230562,6,0,L|94:271,1,85,10|8,0:0|0:1,0:0:0:0:
129,348,230990,1,0,0:0:0:0:
262,286,231205,1,8,0:0:0:0:
262,286,231312,1,0,0:0:0:0:
262,286,231419,2,0,P|222:294|177:278,1,85,10|2,0:1|0:0,0:0:0:0:
227,209,231848,1,0,0:0:0:0:
347,295,232062,6,0,P|333:333|298:364,1,85,2|8,0:0|0:0,0:0:0:0:
262,286,232490,1,2,0:0:0:0:
398,226,232705,1,8,0:1:0:0:
398,226,232812,1,2,0:0:0:0:
398,226,232919,2,0,P|424:256|433:303,1,85,2|10,0:0|0:1,0:0:0:0:
347,295,233348,1,2,0:0:0:0:
312,216,233562,1,8,0:0:0:0:
312,216,233990,6,0,B|229:190|229:259|134:226,1,170,6|0,0:0|0:0,0:0:0:0:
180,151,234633,1,2,0:0:0:0:
279,295,234848,2,0,B|321:302|321:302|385:280,1,85,10|0,0:1|0:0,0:0:0:0:
394,209,235276,2,0,B|352:202|352:202|288:224,1,85,2|2,0:0|0:0,0:0:0:0:
311,215,235598,1,2,0:0:0:0:
311,215,235705,5,10,0:0:0:0:
361,288,235919,1,8,0:1:0:0:
482,203,236133,1,10,0:0:0:0:
394,209,236348,1,0,0:0:0:0:
407,356,236562,1,10,0:1:0:0:
445,277,236776,1,8,0:1:0:0:
273,294,236990,2,0,L|294:352,3,42.5,2|0|0|0,0:0|0:0|0:0|0:0,0:0:0:0:
273,294,237419,6,0,P|183:321|122:245,1,170,14|0,0:0|0:0,0:0:0:0:
136,191,238062,1,0,3:0:0:0:
219,159,238276,2,0,P|223:200|208:240,1,85,10|0,0:1|0:0,0:0:0:0:
52,222,238705,2,0,P|47:180|63:141,1,85
147,21,239133,6,0,L|141:106,1,85,2|0,0:0|0:0,0:0:0:0:
136,191,239562,1,2,0:0:0:0:
56,100,239776,2,0,L|140:105,1,85,0|10,3:0|0:1,0:0:0:0:
225,111,240205,1,0,0:0:0:0:
271,40,240419,2,0,P|218:27|175:44,1,85,2|0,0:0|0:0,0:0:0:0:
179,182,240848,6,0,P|232:195|309:101,1,170,10|0,0:0|0:0,0:0:0:0:
225,111,241490,1,0,3:0:0:0:
133,253,241705,2,0,L|317:295,1,170,10|0,0:1|0:0,0:0:0:0:
299,291,242562,5,2,0:0:0:0:
283,207,242776,1,8,0:0:0:0:
347,151,242990,1,8,0:0:0:0:
395,11,243419,5,2,0:0:0:0:
331,67,243633,1,8,0:0:0:0:
346,151,243848,2,0,P|383:134|410:96,1,85,10|0,0:0|0:0,0:0:0:0:
408,99,244276,6,0,B|434:225|434:225|467:168,2,170,10|8|10,0:0|0:0|0:1,0:0:0:0:
336,165,245348,1,0,0:0:0:0:
416,310,245562,2,0,P|455:311|502:281,1,85,2|0,0:0|0:0,0:0:0:0:
353,249,245990,6,0,L|239:264,1,85,10|8,0:0|0:0,0:0:0:0:
171,127,246419,2,0,P|203:154|219:194,1,85,10|0,0:0|0:0,0:0:0:0:
232,338,246848,2,0,P|200:311|184:272,1,85,10|0,0:1|0:0,0:0:0:0:
308,181,247276,2,0,L|392:192,1,85
506,100,247705,5,10,0:0:0:0:
506,100,247919,2,0,L|422:112,2,85,8|0|0,0:0|0:0|0:0,0:0:0:0:
410,28,248562,2,0,L|421:112,1,85,10|0,0:1|0:0,0:0:0:0:
326,214,248990,1,0,0:0:0:0:
337,129,249205,1,0,0:0:0:0:
392,267,249419,5,10,0:0:0:0:
392,267,249633,2,0,L|476:255,2,85,8|8|0,0:0|0:0|0:0,0:0:0:0:
332,327,250276,2,0,P|299:300|258:297,1,85,10|0,0:1|0:0,0:0:0:0:
216,307,250598,1,0,0:0:0:0:
216,307,250705,2,0,L|170:293,3,42.5,2|0|2|2,0:0|0:0|0:0|0:0,0:0:0:0:
153,373,251133,6,0,P|173:338|174:289,1,85,10|8,0:0|0:0,0:0:0:0:
112,234,251562,2,0,P|91:270|90:313,1,85,8|0,0:0|0:0,0:0:0:0:
193,208,251990,2,0,P|213:173|214:124,1,85,10|0,0:1|0:0,0:0:0:0:
152,69,252419,2,0,P|131:105|129:147,1,85
382,147,252848,6,0,P|380:105|360:69,1,85,10|0,0:0|0:0,0:0:0:0:
296,129,253276,2,0,P|298:171|319:208,1,85,8|0,0:0|0:0,0:0:0:0:
422,313,253705,2,0,P|420:270|399:234,1,85,10|0,0:1|0:0,0:0:0:0:
336,294,254133,2,0,P|338:336|359:373,1,85
382,147,254562,6,0,L|282:162,1,85,10|0,0:0|0:0,0:0:0:0:
179,250,254990,1,0,0:0:0:0:
212,171,255205,1,8,0:0:0:0:
146,329,255419,2,0,B|106:347|106:347|65:338,1,85,10|0,0:1|0:0,0:0:0:0:
46,192,255848,2,0,B|86:174|86:174|126:182,1,85
314,307,256276,5,2,0:0:0:0:
212,171,256490,1,2,0:0:0:0:
146,329,256705,1,8,0:1:0:0:
263,239,256919,1,2,0:0:0:0:
126,182,257133,1,2,0:0:0:0:
243,91,257348,1,8,0:1:0:0:
179,250,257562,2,0,P|199:297|244:322,1,85,2|0,0:1|0:0,0:0:0:0:
343,231,257990,6,0,P|302:224|263:239,1,85,2|0,0:0|0:0,0:0:0:0:
277,382,258419,2,0,P|304:350|311:308,1,85
297,166,258848,2,0,P|269:197|262:239,1,85,10|0,0:1|0:0,0:0:0:0:
389,297,259276,2,0,P|416:265|423:223,1,85
372,63,259705,6,0,L|382:148,1,85,10|0,0:0|0:0,0:0:0:0:
262,238,260133,2,0,L|271:153,1,85
136,64,260562,2,0,L|127:149,1,85,10|0,0:1|0:0,0:0:0:0:
186,271,260990,2,0,P|156:241|116:231,1,85
29,325,261419,6,0,L|114:316,1,85,10|0,0:0|0:0,0:0:0:0:
214,157,261848,2,0,L|129:147,1,85,10|0,0:0|0:0,0:0:0:0:
211,336,262276,2,0,L|295:326,1,85,10|0,0:1|0:0,0:0:0:0:
395,167,262705,2,0,L|310:157,1,85,10|0,0:0|0:0,0:0:0:0:
140,295,263133,6,0,P|169:324|210:335,1,85,10|0,0:1|0:0,0:0:0:0:
266,79,263562,2,0,P|236:49|195:38,1,85,10|0,0:1|0:0,0:0:0:0:
39,218,263990,6,0,B|133:291|225:214|225:214|322:137|408:217,1,407.999987548829,2|0,0:3|0:0,0:0:0:0:
227,114,280276,6,0,P|298:195|238:321,1,255,2|0,0:0|0:0,0:0:0:0:
149,280,281980,2,0,P|119:231|84:341,1,255,2|0,0:0|0:0,0:0:0:0:
244,317,283694,6,0,B|371:276|371:360|494:315,1,255,2|0,0:0|0:0,0:0:0:0:
431,234,285418,2,0,B|412:194|435:152|435:152|352:189|352:120|252:166,1,255,2|0,0:0|0:0,0:0:0:0:
91,131,287132,6,0,P|110:192|105:255,1,127.500004863739,2|0,0:0|0:0,0:0:0:0:
214,363,287989,2,0,P|195:302|200:239,1,127.500004863739,2|0,0:0|0:0,0:0:0:0:
309,135,288846,2,0,P|248:153|185:148,1,127.500004863739,2|0,0:0|0:0,0:0:0:0:
0,360,289703,2,0,P|60:341|123:346,1,127.500004863739,2|0,0:0|0:0,0:0:0:0:
322,61,290560,6,0,L|308:134,1,74.3750007092953,2|0,0:0|0:0,0:0:0:0:
396,247,290989,2,0,L|383:174,1,74.3750007092953
231,95,291418,2,0,L|209:216,1,85,2|0,0:0|0:0,0:0:0:0:
305,301,291846,2,0,L|289:217,1,85
139,128,292275,6,0,L|128:188,3,42.5,2|0|0|0,0:0|0:0|0:0|0:0,0:0:0:0:
56,183,292703,2,0,L|67:243,3,42.5,2|0|0|0,0:0|0:0|0:0|0:0,0:0:0:0:
145,249,293132,2,0,L|134:309,3,42.5,6|0|0|0,0:0|0:0|0:0|0:0,0:0:0:0:
62,304,293560,2,0,L|73:364,3,42.5,4|0|0|0,0:0|0:0|0:0|0:0,0:0:0:0:
153,377,293989,5,14,0:0:0:0:
267,280,294203,2,0,P|302:304|319:343,1,85,8|0,0:0|0:0,0:0:0:0:
236,360,294632,1,8,0:0:0:0:
299,201,294846,2,0,L|414:183,1,85,10|0,0:1|0:0,0:0:0:0:
183,266,295275,2,0,L|99:253,1,85
239,145,295703,5,10,0:0:0:0:
299,201,295918,1,8,0:0:0:0:
183,266,296132,1,8,0:0:0:0:
166,185,296346,1,0,0:0:0:0:
265,276,296560,1,10,0:1:0:0:
239,145,296775,1,0,0:0:0:0:
215,342,296989,1,2,0:0:0:0:
233,352,297096,1,0,0:0:0:0:
253,358,297203,1,2,0:0:0:0:
274,358,297310,1,2,0:0:0:0:
294,352,297418,6,0,P|328:327|345:288,1,85,10|0,0:0|0:0,0:0:0:0:
248,192,297846,2,0,L|265:276,1,85,8|0,0:0|0:0,0:0:0:0:
163,374,298275,2,0,L|180:290,1,85,10|0,0:1|0:0,0:0:0:0:
81,183,298703,1,0,0:0:0:0:
97,266,298918,1,2,0:0:0:0:
231,108,299132,6,0,P|273:110|320:148,1,85,10|0,0:0|0:0,0:0:0:0:
180,291,299560,1,2,0:0:0:0:
248,192,299775,1,2,0:0:0:0:
280,358,299989,1,10,0:1:0:0:
348,259,300203,1,0,0:0:0:0:
348,259,300310,1,2,0:0:0:0:
348,259,300418,2,0,L|244:279,1,85,10|0,0:0|0:0,0:0:0:0:
79,223,300846,5,14,0:0:0:0:
147,124,301060,1,8,0:0:0:0:
180,291,301275,2,0,P|227:263|247:205,1,85,8|0,0:0|0:0,0:0:0:0:
257,77,301703,2,0,P|255:119|273:158,1,85,10|0,0:1|0:0,0:0:0:0:
501,156,302132,1,0,0:0:0:0:
339,104,302346,1,2,0:0:0:0:
339,104,302453,1,2,0:0:0:0:
339,104,302560,6,0,P|361:67|397:47,1,85,10|0,0:0|0:0,0:0:0:0:
439,215,302989,2,0,P|395:214|360:193,1,85,8|0,0:0|0:0,0:0:0:0:
257,77,303418,1,10,0:1:0:0:
420,130,303632,1,0,0:0:0:0:
192,134,303846,2,0,P|149:146|121:175,1,85,2|0,0:0|0:0,0:0:0:0:
103,213,304168,1,0,0:0:0:0:
103,213,304275,6,0,B|120:245|120:245|120:319,1,85,10|8,0:0|0:0,0:0:0:0:
36,361,304703,2,0,L|36:276,1,85
204,225,305132,2,0,L|204:310,1,85,10|0,0:1|0:0,0:0:0:0:
372,361,305560,2,0,L|372:276,1,85
267,149,305989,6,0,P|285:188|323:216,1,85,10|0,0:0|0:0,0:0:0:0:
462,40,306418,1,10,0:0:0:0:
212,84,306632,1,2,0:0:0:0:
372,276,306846,1,10,0:1:0:0:
295,67,307060,1,2,0:0:0:0:
152,238,307275,1,2,0:0:0:0:
156,279,307382,1,2,0:0:0:0:
181,313,307489,1,2,0:0:0:0:
219,332,307596,1,2,0:0:0:0:
261,329,307703,5,14,0:0:0:0:
209,169,307918,1,8,0:0:0:0:
106,341,308132,2,0,B|76:350|76:350|23:340,1,85,8|0,0:0|0:0,0:0:0:0:
41,153,308560,2,0,B|71:144|71:144|124:154,1,85,10|0,0:1|0:0,0:0:0:0:
292,170,308989,2,0,B|262:179|262:179|209:169,1,85
341,5,309418,5,10,0:0:0:0:
376,150,309632,1,0,0:0:0:0:
480,48,309846,2,0,P|438:48|401:68,1,85,8|0,0:0|0:0,0:0:0:0:
350,231,310275,1,10,0:1:0:0:
459,131,310489,1,0,0:0:0:0:
293,169,310703,1,0,0:0:0:0:
293,169,310810,1,0,0:0:0:0:
293,169,310918,1,2,0:0:0:0:
293,169,311025,1,2,0:0:0:0:
293,169,311132,5,10,0:0:0:0:
191,60,311346,1,8,0:0:0:0:
230,227,311560,2,0,B|264:254|264:254|340:254,1,85,10|0,0:0|0:0,0:0:0:0:
273,85,311989,1,10,0:1:0:0:
149,203,312203,1,0,3:0:0:0:
254,1,312418,2,0,P|314:10|349:47,1,85
305,254,312846,5,10,0:0:0:0:
273,85,313060,1,8,0:0:0:0:
222,279,313275,2,0,P|259:326|309:338,1,85
324,169,313703,2,0,P|264:178|229:215,1,85,10|0,0:1|0:0,0:0:0:0:
368,312,314132,1,2,0:0:0:0:
380,294,314239,1,2,0:0:0:0:
387,274,314346,1,2,0:0:0:0:
390,253,314453,1,2,0:0:0:0:
387,232,314560,5,14,0:0:0:0:
281,335,314775,1,0,0:0:0:0:
449,356,314989,2,0,P|491:354|527:333,1,85,8|0,0:0|0:0,0:0:0:0:
467,273,315310,1,2,0:0:0:0:
467,273,315418,2,0,L|445:379,1,85,10|2,0:1|0:0,0:0:0:0:
370,149,315846,2,0,L|392:255,1,85,2|0,0:0|0:0,0:0:0:0:
388,66,316275,5,10,0:0:0:0:
286,166,316489,1,0,0:0:0:0:
453,131,316703,2,0,P|479:83|475:33,1,85,8|0,0:0|0:0,0:0:0:0:
269,83,317132,1,10,0:1:0:0:
303,249,317346,1,0,0:0:0:0:
369,148,317560,1,2,0:0:0:0:
348,153,317668,1,0,0:0:0:0:
327,157,317775,1,0,0:0:0:0:
306,161,317882,1,0,0:0:0:0:
286,166,317989,6,0,P|293:120|253:57,1,85,10|0,0:0|0:0,0:0:0:0:
132,94,318418,1,2,0:0:0:0:
351,38,318632,1,2,0:0:0:0:
139,178,318846,2,0,P|97:170|64:144,1,85,10|0,0:1|0:0,0:0:0:0:
202,46,319275,2,0,P|216:85|210:127,1,85,2|0,0:0|0:0,0:0:0:0:
78,310,319703,5,10,0:0:0:0:
132,94,319918,1,2,0:0:0:0:
292,248,320132,2,0,L|401:263,1,85,2|0,0:0|0:0,0:0:0:0:
430,21,320560,2,0,L|321:36,1,85,14|0,0:1|0:0,0:0:0:0:
240,182,320989,1,0,0:0:0:0:
240,182,321096,1,0,0:0:0:0:
240,182,321203,1,0,0:0:0:0:
240,182,321310,1,0,0:0:0:0:
240,182,321418,6,0,B|208:266|266:264|232:350,1,170,2|0,0:3|0:0,0:0:0:0:
153,302,322703,1,2,0:0:0:0:
321,228,323132,2,0,P|362:220|403:229,1,85,2|0,0:3|0:0,0:0:0:0:
190,155,323989,2,0,P|149:163|108:154,1,85,2|0,0:0|0:0,0:0:0:0:
359,82,324846,5,2,0:3:0:0:
