osu file format v14

[General]
AudioFilename: audio.mp3
AudioLeadIn: 0
PreviewTime: 151100
Countdown: 0
SampleSet: Normal
StackLeniency: 0.4
Mode: 0
LetterboxInBreaks: 0
WidescreenStoryboard: 0

[Editor]
DistanceSpacing: 1
BeatDivisor: 4
GridSize: 4
TimelineZoom: 1.7

[Metadata]
Title:twoface
TitleUnicode:twoface
Artist:Aimer
ArtistUnicode:Aimer
Creator:Delis
Version:U+1F972
Source:
Tags:shirohamymommy japanese rock
BeatmapID:2798816
BeatmapSetID:1351981

[Difficulty]
HPDrainRate:7
CircleSize:4
OverallDifficulty:9
ApproachRate:9.4
SliderMultiplier:1.9
SliderTickRate:1

[Events]
//Background and Video events
0,0,"BG.jpg",0,0
//Break Periods
//Storyboard Layer 0 (Background)
//Storyboard Layer 1 (Fail)
//Storyboard Layer 2 (Pass)
//Storyboard Layer 3 (Foreground)
//Storyboard Layer 4 (Overlay)
//Storyboard Sound Samples

[TimingPoints]
200,327.868852459016,4,1,2,50,1,0
200,-166.666666666667,4,1,2,50,0,0
6429,-71.4285714285714,4,1,1,60,0,0
6511,-71.4285714285714,4,1,1,5,0,0
6593,327.868852459016,4,1,1,60,1,0
7412,-100,4,1,2,60,0,0
7576,-100,4,1,1,60,0,0
10363,-100,4,1,2,60,0,0
10691,-100,4,1,1,60,0,0
13724,-100,4,1,2,60,0,0
13888,-100,4,1,1,60,0,0
15609,-250,4,1,1,60,0,0
15773,-250,4,1,1,5,0,0
15937,-250,4,1,1,60,0,0
16265,-100,4,1,2,60,0,0
16429,-100,4,1,1,60,0,0
20363,-100,4,1,2,60,0,0
20527,-100,4,1,1,60,0,0
21183,-100,4,1,2,60,0,0
21347,-100,4,1,1,60,0,0
23150,-100,4,1,2,60,0,0
23314,-100,4,1,1,60,0,0
24133,-100,4,1,2,60,0,0
24297,-100,4,1,1,60,0,0
26756,-66.6666666666667,4,1,1,60,0,0
27084,-125,4,1,1,60,0,0
27576,-55.5555555555556,4,1,1,60,0,0
27658,-55.5555555555556,4,1,1,10,0,0
27740,-55.5555555555556,4,1,1,60,0,0
27822,-55.5555555555556,4,1,1,10,0,0
27904,-55.5555555555556,4,1,1,60,0,0
27986,-55.5555555555556,4,1,1,10,0,0
28068,-55.5555555555556,4,1,1,60,0,0
28150,-55.5555555555556,4,1,1,10,0,0
28232,-76.9230769230769,4,1,1,60,0,0
28314,-76.9230769230769,4,1,1,10,0,0
28396,-76.9230769230769,4,1,1,60,0,0
28478,-76.9230769230769,4,1,1,10,0,0
28560,-76.9230769230769,4,1,1,60,0,0
28642,-76.9230769230769,4,1,1,10,0,0
28724,-250.000000000001,4,1,1,60,0,0
28970,-76.9230769230769,4,1,1,10,0,0
29052,-83.3333333333333,4,1,1,60,0,0
29133,-83.3333333333333,4,1,1,10,0,0
29215,-83.3333333333333,4,1,1,60,0,0
29297,-83.3333333333333,4,1,1,10,0,0
29379,-166.666666666667,4,1,1,60,0,0
29625,-83.3333333333333,4,1,1,10,0,0
29707,-55.5555555555556,4,1,1,60,0,0
29789,-55.5555555555556,4,1,1,10,0,0
29871,-55.5555555555556,4,1,1,60,0,0
29953,-55.5555555555556,4,1,1,10,0,0
30035,-55.5555555555556,4,1,1,60,0,0
30281,-55.5555555555556,4,1,1,10,0,0
30363,-55.5555555555556,4,1,1,60,0,0
30445,-55.5555555555556,4,1,1,10,0,0
30527,-55.5555555555556,4,1,1,60,0,0
30609,-55.5555555555556,4,1,1,10,0,0
30691,-55.5555555555556,4,1,1,60,0,0
30937,-55.5555555555556,4,1,1,10,0,0
31019,-83.3333333333333,4,1,1,60,0,0
31347,-47.6190476190476,4,1,1,60,0,0
31756,-47.6190476190476,4,1,1,10,0,0
31838,-47.6190476190476,4,1,1,60,0,0
31920,-47.6190476190476,4,1,1,10,0,0
32002,-47.6190476190476,4,1,1,60,0,0
32412,-47.6190476190476,4,1,1,10,0,0
32494,-47.6190476190476,4,1,1,60,0,0
32576,-47.6190476190476,4,1,1,10,0,0
32658,-47.6190476190476,4,1,1,60,0,0
32822,-142.857142857143,4,1,1,60,0,0
33970,-100,4,1,1,60,0,0
34297,-66.6666666666667,4,1,1,60,0,0
34625,-83.3333333333334,4,1,1,60,0,0
34953,-57.1428571428571,4,1,1,60,0,0
36265,-133.333333333333,4,1,1,60,0,0
36511,-133.333333333333,4,1,1,10,0,0
36592,-100,4,1,1,60,0,0
36838,-100,4,1,1,10,0,0
36920,-50,4,1,1,60,0,0
37002,-100,4,1,1,10,0,0
37084,-50,4,1,1,60,0,0
37166,-100,4,1,1,10,0,0
37248,-62.5,4,1,1,60,0,0
38396,-100,4,1,1,60,0,0
38888,-100,4,1,2,60,0,0
39052,-100,4,1,1,60,0,0
39789,-100,4,1,2,60,0,0
39953,-100,4,1,1,60,0,0
41838,-100,4,1,2,60,0,0
42166,-100,4,1,1,60,0,0
45773,-100,4,1,2,60,0,0
45937,-100,4,1,1,60,0,0
46838,-100,4,1,2,60,0,0
47002,-100,4,1,1,60,0,0
47740,-100,4,1,2,60,0,0
47904,-100,4,1,1,60,0,0
51674,-100,4,1,2,60,0,0
52002,-100,4,1,1,60,0,0
52658,-100,4,1,2,60,0,0
52822,-100,4,1,1,60,0,0
53806,-142.857142857143,4,1,1,60,0,0
54133,-100,4,1,1,60,0,0
55609,-100,4,1,2,60,0,0
55855,-100,4,1,1,60,0,0
57576,327.868852459016,4,1,1,60,1,0
57576,-83.3333333333333,4,1,1,60,0,0
57904,-100,4,1,1,60,0,0
58232,-71.4285714285714,4,1,1,60,0,0
58560,-125,4,1,1,60,0,0
58888,-62.5,4,1,1,60,0,0
59215,-166.666666666667,4,1,1,60,0,0
59543,-55.5555555555556,4,1,1,60,0,0
59871,-250,4,1,1,60,0,0
60854,-58.8235294117647,4,1,1,70,0,0
61018,327.868852459016,4,1,1,70,1,0
61181,-58.8235294117647,4,1,1,70,0,0
62821,-83.3333333333333,4,1,1,70,0,0
63477,-58.8235294117647,4,1,1,70,0,0
63969,-83.3333333333333,4,1,1,70,0,0
71345,-58.8235294117647,4,1,1,70,0,0
71837,-83.3333333333333,4,1,1,70,0,0
72575,-83.3333333333333,4,1,2,70,0,0
72739,-83.3333333333333,4,1,1,70,0,0
73231,-83.3333333333333,4,1,2,70,0,0
73395,-83.3333333333333,4,1,1,70,0,0
73968,-58.8235294117647,4,1,1,70,0,0
75936,-83.3333333333333,4,1,1,70,0,0
76591,-58.8235294117647,4,1,1,70,0,0
77083,-83.3333333333333,4,1,1,70,0,0
78722,-83.3333333333333,4,1,2,70,0,0
78886,-83.3333333333333,4,1,1,70,0,0
81509,-500,4,1,2,70,0,0
81837,-500,4,1,2,20,0,0
82001,-100,4,1,1,60,0,0
83804,-200,4,1,2,60,0,0
84132,-200,4,1,1,60,0,0
84624,-100,4,1,1,60,0,0
86673,-100,4,1,1,20,0,0
86755,-100,4,1,1,60,0,0
87247,-133.333333333333,4,2,2,50,0,0
92001,-133.333333333333,4,2,1,50,0,0
92329,-133.333333333333,4,2,2,50,0,0
92493,-133.333333333333,4,2,1,50,0,0
92739,-133.333333333333,4,2,2,50,0,0
92903,-133.333333333333,4,2,1,50,0,0
93640,-100,4,1,1,60,0,0
97247,-200,4,1,1,60,0,0
97575,-200,4,1,2,60,0,0
97739,-333.333333333333,4,1,1,60,0,0
98067,-100,4,1,1,60,0,0
98559,-100,4,1,2,60,0,0
98723,-333.333333333333,4,1,1,60,0,0
100526,-200,4,1,1,60,0,0
101509,-100,4,1,1,60,0,0
101673,-100,4,1,2,60,0,0
101837,-100,4,1,1,60,0,0
105444,-100,4,1,2,60,0,0
105608,-100,4,1,1,60,0,0
106755,327.868852459016,4,1,1,60,1,0
106755,-100,4,1,1,60,0,0
107083,-100,4,1,1,60,0,0
107411,-100,4,1,1,60,0,0
107575,-100,4,1,1,60,0,0
107739,-100,4,1,1,60,0,0
108067,-100,4,1,1,60,0,0
108394,-100,4,1,1,60,0,0
108722,-100,4,1,1,60,0,0
109050,-100,4,1,1,60,0,0
109377,-55.5555555555556,4,1,1,60,0,0
110033,-58.8235294117647,4,1,1,70,0,0
110197,327.868852459016,4,1,1,70,1,0
110360,-83.3333333333333,4,1,1,70,0,0
112656,-58.8235294117647,4,1,1,70,0,0
113475,-100,4,1,1,70,0,0
113803,-100,4,1,1,70,0,0
114951,-83.3333333333333,4,1,1,70,0,0
115278,-83.3333333333333,4,1,2,70,0,0
115524,-83.3333333333333,4,1,1,70,0,0
117246,-83.3333333333333,4,1,1,70,0,0
117574,-83.3333333333333,4,1,1,70,0,0
117901,-83.3333333333333,4,1,1,70,0,0
118229,-83.3333333333333,4,1,1,70,0,0
118557,-100,4,1,1,70,0,0
118885,-100,4,1,1,70,0,0
119213,-100,4,1,1,70,0,0
119541,-100,4,1,1,70,0,0
120196,-250,4,1,1,70,0,0
120524,-58.8235294117647,4,1,1,70,0,0
120688,-100,4,1,1,70,0,0
120852,-58.8235294117647,4,1,1,70,0,0
122000,-83.3333333333333,4,1,1,70,0,0
122492,-100,4,1,1,70,0,0
123147,-58.8235294117647,4,1,1,70,0,0
123475,-58.8235294117647,4,1,1,70,0,0
123640,-58.8235294117647,4,1,1,70,0,0
123967,-58.8235294117647,4,1,1,70,0,0
124049,-58.8235294117647,4,1,1,5,0,0
124131,-58.8235294117647,4,1,1,70,0,0
124213,-58.8235294117647,4,1,1,5,0,0
124295,-58.8235294117647,4,1,1,70,0,0
124377,-58.8235294117647,4,1,1,5,0,0
124459,-58.8235294117647,4,1,1,70,0,0
124623,-83.3333333333333,4,1,1,70,0,0
125770,-58.8235294117647,4,1,1,70,0,0
126426,-83.3333333333333,4,1,1,70,0,0
130688,-142.857142857143,4,1,1,70,0,0
130934,-142.857142857143,4,1,1,10,0,0
131016,-62.5,4,1,1,70,0,0
131508,-52.6315789473684,4,1,1,60,0,0
132000,-47.6190476190476,4,1,1,60,0,0
132492,-100,4,1,1,60,0,0
133639,-71.4285714285714,4,1,1,60,0,0
136262,-62.5,4,1,1,60,0,0
136344,-62.5,4,1,1,5,0,0
136426,-62.5,4,1,1,60,0,0
138721,-83.3333333333333,4,1,1,60,0,0
138885,-66.6666666666667,4,1,1,60,0,0
140442,-66.6666666666667,4,1,1,5,0,0
140524,-66.6666666666667,4,1,1,60,0,0
143803,-55.5555555555556,4,1,1,60,0,0
144131,-66.6666666666667,4,1,1,60,0,0
145442,-58.8235294117647,4,1,1,60,0,0
146754,-66.6666666666667,4,1,1,60,0,0
148147,-66.6666666666667,4,1,2,60,0,0
148393,-66.6666666666667,4,1,1,60,0,0
148721,-66.6666666666667,4,1,2,60,0,0
148885,-66.6666666666667,4,1,1,60,0,0
149377,-55.5555555555556,4,1,1,60,0,0
151672,-125,4,1,1,60,0,0
151836,-125,4,1,1,20,0,0
152000,-133.333333333333,4,2,2,60,0,0
157246,-83.3333333333333,4,1,1,60,0,0
161344,-62.5,4,1,1,60,0,0
162492,-58.8235294117647,4,1,1,70,0,0
162984,-58.8235294117647,4,1,1,70,0,0
163722,-58.8235294117647,4,1,2,70,0,0
163886,-58.8235294117647,4,1,1,70,0,0
164378,-58.8235294117647,4,1,2,70,0,0
164542,-58.8235294117647,4,1,1,70,0,0
165115,-58.8235294117647,4,1,1,70,0,0
167083,-58.8235294117647,4,1,1,70,0,0
167738,-58.8235294117647,4,1,1,70,0,0
168230,-58.8235294117647,4,1,1,70,0,0
169869,-58.8235294117647,4,1,2,70,0,0
170033,-58.8235294117647,4,1,1,70,0,0
178065,-58.8235294117647,4,2,1,5,0,0

[Colours]
Combo1 : 213,206,132
Combo2 : 122,158,211
Combo3 : 182,118,220
Combo4 : 179,209,169
Combo5 : 196,193,185
Combo6 : 242,91,96
Combo7 : 183,103,91

[HitObjects]
148,300,200,6,0,B|128:280|128:280|140:252,2,56.9999982604981,0|0|0,0:0|0:0|0:0,0:0:0:0:
272,116,1183,6,0,B|276:88|276:88|248:108,2,56.9999982604981,0|0|0,0:0|0:0|0:0,0:0:0:0:
408,272,2167,70,0,P|436:296|472:300,2,56.9999982604981
80,80,3150,6,0,L|148:64,2,56.9999982604981
204,200,4134,37,0,0:0:0:0:
316,176,4298,1,0,0:0:0:0:
204,200,4462,1,0,0:0:0:0:
204,200,5118,85,0,0:0:0:0:
316,176,5281,1,2,0:3:0:0:
204,200,5445,1,0,0:0:0:0:
280,68,5609,5,2,0:3:0:0:
360,288,5937,1,2,0:3:0:0:
128,216,6265,1,2,0:3:0:0:
192,104,6429,86,0,B|216:132|216:132|204:164,1,66.4999979705811,2|0,0:0|2:0,0:0:0:0:
205,159,6593,6,0,P|280:116|392:136,1,190,4|8,0:0|0:0,0:0:0:0:
452,184,7084,1,0,0:0:0:0:
324,188,7248,37,0,0:0:0:0:
460,104,7412,2,0,B|480:88|480:88|460:72,1,47.5,2|0,0:2|2:0,0:0:0:0:
440,52,7576,1,8,0:0:0:0:
376,272,7740,1,6,0:2:0:0:
336,56,8068,5,2,0:2:0:0:
412,192,8232,1,8,0:0:0:0:
248,180,8396,1,0,0:0:0:0:
104,72,8560,5,0,0:0:0:0:
176,216,8724,1,2,0:0:0:0:
64,332,8888,2,0,B|44:288|44:288|64:244,1,95,8|0,0:0|0:0,0:0:0:0:
76,224,9133,1,0,0:0:0:0:
88,204,9215,1,2,0:2:0:0:
236,312,9379,6,0,P|288:308|336:288,1,95,0|8,0:0|0:0,0:0:0:0:
152,248,9707,2,0,P|240:200|344:212,1,190,0|2,0:0|0:2,0:0:0:0:
480,304,10199,1,8,0:0:0:0:
384,328,10363,6,0,B|380:304|388:280|388:280|372:300|340:312,2,95,2|0|2,0:2|0:0|0:2,0:0:0:0:
440,72,10855,1,8,0:0:0:0:
460,152,11019,1,0,0:0:0:0:
344,40,11183,37,2,0:2:0:0:
276,260,11347,2,0,B|260:240|260:240|240:248,1,47.5,2|0,0:0|2:0,0:0:0:0:
216,260,11511,1,8,0:0:0:0:
344,224,11674,1,2,3:0:0:0:
128,316,11838,5,2,0:0:0:0:
128,316,12002,1,2,0:0:0:0:
44,256,12166,1,8,0:0:0:0:
44,256,12330,2,0,P|84:224|136:220,1,95,0|0,0:0|0:0,0:0:0:0:
176,152,12658,1,2,0:2:0:0:
320,304,12822,1,8,0:0:0:0:
392,192,12986,6,0,L|352:88,1,95,2|0,0:2|0:0,0:0:0:0:
384,228,13314,2,0,L|344:124,1,95,2|8,0:2|0:0,0:0:0:0:
420,304,13642,1,0,0:0:0:0:
488,236,13806,1,2,0:2:0:0:
324,296,13970,5,2,0:0:0:0:
500,316,14133,1,8,0:0:0:0:
432,132,14297,1,0,0:0:0:0:
432,132,14379,1,0,0:0:0:0:
432,132,14461,2,0,P|352:140|304:128,1,95,2|2,0:0|0:0,0:0:0:0:
48,84,14789,6,0,P|128:68|196:80,1,142.5,8|0,0:0|0:0,0:0:0:0:
240,96,15117,1,8,1:2:0:0:
280,172,15281,1,2,0:2:0:0:
224,240,15445,1,0,0:0:0:0:
392,64,15609,38,0,L|448:40,1,57,8|0,0:2|2:0,0:0:0:0:
464,32,15937,1,2,0:2:0:0:
376,152,16101,1,8,0:0:0:0:
464,148,16265,6,0,B|472:172|472:172|456:192,1,47.5,2|0,0:2|2:0,0:0:0:0:
444,212,16429,1,0,0:0:0:0:
456,288,16592,1,2,0:0:0:0:
232,80,16756,5,8,0:0:0:0:
292,136,16920,1,2,3:0:0:0:
316,176,17002,1,2,3:0:0:0:
288,216,17084,1,4,0:0:0:0:
212,276,17248,5,0,0:0:0:0:
380,256,17412,1,8,0:0:0:0:
200,176,17576,1,0,0:0:0:0:
364,148,17740,1,0,0:0:0:0:
288,216,17904,1,2,0:2:0:0:
204,88,18068,5,8,0:0:0:0:
269,43,18232,2,0,B|294:64|294:64|274:196|274:196|290:220,1,190,2|2,0:2|0:2,0:0:0:0:
120,268,18724,1,8,0:0:0:0:
224,164,18888,1,0,0:0:0:0:
220,360,19052,38,0,L|204:284,1,47.5,0|0,0:0|2:0,0:0:0:0:
204,288,19215,1,2,0:0:0:0:
160,112,19379,1,8,0:0:0:0:
96,276,19543,5,0,0:0:0:0:
24,228,19707,2,0,P|72:200|112:168,1,95,2|2,0:0|0:0,0:0:0:0:
204,288,20035,1,8,0:0:0:0:
248,120,20199,1,0,0:0:0:0:
320,348,20363,6,0,P|308:320|312:280,1,47.5,2|0,0:2|2:0,0:0:0:0:
312,276,20527,1,2,0:2:0:0:
460,340,20691,5,8,0:0:0:0:
440,116,20855,1,2,0:2:0:0:
484,200,21019,5,0,0:0:0:0:
440,116,21183,1,2,0:2:0:0:
392,196,21347,1,8,0:0:0:0:
336,124,21511,1,0,0:0:0:0:
104,88,21674,37,0,0:0:0:0:
176,64,21838,2,0,B|188:88|188:88|176:120,1,47.5,2|0,0:0|2:0,0:0:0:0:
136,164,22002,1,8,0:0:0:0:
268,64,22166,5,2,3:0:0:0:
212,268,22330,1,2,0:0:0:0:
212,268,22658,2,0,P|284:236|368:240,1,142.5,8|0,0:0|2:0,0:0:0:0:
346,235,22986,2,0,L|452:208,1,95,0|2,0:0|0:2,0:0:0:0:
272,340,23314,1,8,0:0:0:0:
392,112,23478,5,2,0:2:0:0:
80,216,23806,1,2,0:2:0:0:
156,264,23970,1,8,0:0:0:0:
280,104,24133,6,0,B|264:124|264:124|232:116,1,47.5,2|0,0:0|2:0,0:0:0:0:
224,112,24297,1,0,0:0:0:0:
328,168,24461,5,2,0:0:0:0:
240,232,24625,1,8,0:0:0:0:
384,248,24789,1,0,0:0:0:0:
392,104,24953,37,2,0:0:0:0:
384,248,25117,1,2,0:0:0:0:
240,232,25281,1,8,0:0:0:0:
172,288,25445,5,0,0:0:0:0:
172,288,25527,1,0,0:0:0:0:
172,288,25609,2,0,B|128:260|128:260|76:276,1,95,4|2,0:2|0:2,0:0:0:0:
228,352,25937,1,4,0:3:0:0:
88,176,26101,6,0,L|288:132,1,190,0|2,0:0|0:2,0:0:0:0:
348,116,26592,1,0,0:0:0:0:
116,88,26756,6,0,L|272:52,1,142.500005435944,2|0,0:0|0:0,0:0:0:0:
196,260,27084,6,2,B|344:224,1,152,0|0,0:0|0:0,0:0:0:0:
360,220,27494,1,2,0:0:0:0:
376,216,27576,38,0,B|392:192|392:192|376:128,1,85.4999973907472,6|0,0:0|2:0,0:0:0:0:
452,120,27740,2,0,B|446:91|446:91|389:57,1,85.4999973907472,0|0,0:0|2:0,0:0:0:0:
308,88,27904,2,0,B|292:112|292:112|308:176,1,85.4999973907472,10|0,0:0|2:0,0:0:0:0:
232,184,28068,2,0,B|237:212|237:212|294:246,1,85.4999973907472,0|0,0:0|2:0,0:0:0:0:
360,288,28232,6,0,L|428:272,1,61.7499971733095,2|0,0:0|2:0,0:0:0:0:
452,204,28396,2,0,L|520:224,1,61.7499971733095,2|0,0:0|2:0,0:0:0:0:
480,344,28560,2,0,L|412:360,1,61.7499971733095,10|0,0:0|2:0,0:0:0:0:
284,344,28724,38,2,P|260:316|236:308,1,57,2|0,0:0|2:0,0:0:0:0:
240,288,29052,38,0,P|212:312|204:336,1,57,0|0,0:0|2:0,0:0:0:0:
280,216,29215,2,0,P|260:176|236:156,1,56.9999982604981,8|0,0:0|2:0,0:0:0:0:
80,116,29379,54,2,L|104:216,1,85.4999973907472,2|0,0:0|2:0,0:0:0:0:
76,212,29707,54,0,L|56:116,1,85.4999973907472,2|0,0:0|2:0,0:0:0:0:
176,144,29871,2,0,L|156:244,1,85.4999973907472,8|0,0:0|2:0,0:0:0:0:
260,56,30035,5,0,0:0:0:0:
268,48,30117,1,0,0:0:0:0:
276,40,30199,2,0,B|340:68|340:68|348:52,1,85.4999973907472,2|0,0:0|2:0,0:0:0:0:
448,108,30363,2,0,B|384:136|384:136|392:152,1,85.4999973907472,2|0,0:0|2:0,0:0:0:0:
248,160,30527,2,0,B|312:188|312:188|304:204,1,85.4999973907472,10|0,0:0|2:0,0:0:0:0:
484,220,30691,53,0,0:0:0:0:
484,220,30773,1,0,0:0:0:0:
484,220,30855,2,0,B|448:252|448:252|408:240,1,85.4999973907472,2|0,0:0|2:0,0:0:0:0:
312,328,31019,6,0,L|196:304,1,113.999996520996,2|8,0:0|0:0,0:0:0:0:
40,156,31347,70,2,B|128:100|240:132|240:132|280:112|320:72,1,299.249990867615,2|0,0:0|2:0,0:0:0:0:
313,78,31674,22,0,P|356:112|376:176,1,99.7499969558717,2|0,0:2|2:0,0:0:0:0:
268,276,31838,2,0,P|225:242|205:178,1,99.7499969558717,8|0,0:0|2:0,0:0:0:0:
488,212,32002,85,0,0:0:0:0:
488,212,32084,2,0,B|440:252|384:264|384:264|360:232|316:212,1,199.499993911743,2|0,0:0|2:0,0:0:0:0:
320,213,32330,22,0,P|280:176|256:132,1,99.7499969558717,2|0,0:2|2:0,0:0:0:0:
56,112,32494,2,0,P|96:149|120:193,1,99.7499969558717,8|0,0:0|2:0,0:0:0:0:
184,40,32658,2,0,B|190:64|208:82|208:82|188:68|161:69,1,99.7499969558717,0|0,0:0|0:0,0:0:0:0:
360,84,32822,22,2,P|408:64|468:64,1,99.7499969558717,2|0,0:0|2:0,0:0:0:0:
472,136,33150,2,2,P|424:156|364:156,1,99.7499969558717,10|0,0:0|2:0,0:0:0:0:
328,224,33478,53,2,0:0:0:0:
252,208,33642,1,2,0:0:0:0:
176,192,33806,1,8,0:0:0:0:
32,68,33970,6,0,L|180:36,1,142.5,2|0,0:0|2:0,0:0:0:0:
188,112,34297,2,0,L|39:143,1,142.500005435944,2|8,0:0|0:0,0:0:0:0:
48,141,34625,6,0,P|151:158|207:218,1,170.999994781494,2|0,0:0|2:0,0:0:0:0:
160,268,34953,2,0,P|56:252|0:190,1,166.250001585484,2|8,0:0|2:0,0:0:0:0:
260,336,35281,5,0,0:0:0:0:
260,336,35363,1,0,0:0:0:0:
260,336,35445,1,2,0:0:0:0:
432,212,35609,1,2,0:0:0:0:
380,328,35773,1,8,0:0:0:0:
264,136,35937,53,0,0:0:0:0:
308,112,36019,1,0,0:0:0:0:
360,112,36101,1,2,0:0:0:0:
164,260,36265,6,0,P|124:228|64:236,1,106.875004076958,4|0,0:3|0:0,0:0:0:0:
78,260,36592,6,0,L|29:120,1,142.5,10|0,0:0|2:0,0:0:0:0:
76,140,36920,6,0,L|108:44,1,95,2|0,0:2|2:0,0:0:0:0:
252,112,37084,2,0,B|220:148|220:148|160:136,1,95,2|0,0:2|2:0,0:0:0:0:
324,60,37248,54,0,P|400:184|384:308,1,228,2|8,0:0|0:0,0:0:0:0:
376,284,37576,70,0,P|368:220|400:128,1,152,2|8,0:2|0:0,0:0:0:0:
376,316,37822,6,0,P|296:284|248:224,1,152,0|8,0:0|0:0,0:0:0:0:
240,160,38068,5,4,0:0:0:0:
240,160,38232,1,0,0:0:0:0:
196,340,38396,2,0,P|128:296|56:296,1,142.5,8|0,0:0|0:0,0:0:0:0:
24,312,38724,1,0,0:0:0:0:
136,164,38888,6,0,L|124:104,1,47.5,2|0,0:2|2:0,0:0:0:0:
120,88,39052,1,8,0:0:0:0:
152,244,39215,1,2,0:2:0:0:
444,120,39543,5,2,0:2:0:0:
392,52,39707,1,8,0:0:0:0:
288,208,39871,1,2,0:2:0:0:
480,192,40035,1,0,0:0:0:0:
364,140,40199,5,2,0:2:0:0:
296,304,40363,1,8,0:0:0:0:
480,288,40527,2,0,P|428:300|384:328,1,95,0|2,0:0|0:2,0:0:0:0:
272,192,40855,2,0,P|200:172|144:176,1,95,0|8,0:0|0:0,0:0:0:0:
44,224,41183,5,0,0:0:0:0:
44,224,41265,1,0,0:0:0:0:
44,224,41347,1,0,0:0:0:0:
208,268,41511,1,2,0:2:0:0:
120,92,41674,1,8,0:0:0:0:
128,348,41838,38,0,B|100:328|104:288|104:288|132:304,2,95,2|2|2,0:2|0:2|0:2,0:0:0:0:
288,196,42330,1,8,0:0:0:0:
276,288,42494,1,0,0:0:0:0:
264,80,42658,5,2,0:2:0:0:
420,144,42822,1,2,0:0:0:0:
208,336,42986,5,8,0:0:0:0:
180,156,43150,1,2,3:3:0:0:
376,228,43314,1,2,0:1:0:0:
376,228,43642,2,0,L|160:256,1,190,8|0,0:0|0:0,0:0:0:0:
120,312,44133,1,2,0:2:0:0:
80,224,44297,1,8,0:0:0:0:
280,100,44461,6,0,P|336:116|380:144,1,95,0|0,0:0|0:0,0:0:0:0:
192,56,44789,1,2,0:2:0:0:
284,196,44953,1,8,0:0:0:0:
124,116,45117,1,0,0:0:0:0:
124,116,45199,1,0,0:0:0:0:
124,116,45281,1,0,0:0:0:0:
216,152,45445,5,2,0:2:0:0:
56,264,45609,1,8,0:0:0:0:
240,316,45773,2,0,B|268:320|268:320|288:304,1,47.5,2|0,0:0|2:0,0:0:0:0:
308,288,45937,37,2,0:2:0:0:
308,288,46101,1,0,0:0:0:0:
148,272,46265,1,8,0:0:0:0:
396,340,46429,5,0,0:0:0:0:
396,340,46511,1,8,0:2:0:0:
396,340,46592,2,0,P|412:280|400:232,1,95,8|2,0:2|0:2,0:0:0:0:
376,160,46920,1,2,0:2:0:0:
128,280,47084,5,8,0:0:0:0:
128,280,47412,1,2,0:2:0:0:
164,200,47576,2,0,P|220:196|272:172,1,95,8|2,0:0|0:2,0:0:0:0:
255,181,47904,1,0,0:0:0:0:
216,276,48068,1,2,0:2:0:0:
255,181,48232,1,8,0:0:0:0:
76,156,48396,1,2,0:0:0:0:
340,264,48560,5,4,0:0:0:0:
340,264,48724,1,2,0:2:0:0:
352,176,48888,2,0,P|376:120|400:80,1,95,8|0,0:0|0:0,0:0:0:0:
252,260,49215,5,0,0:0:0:0:
252,260,49379,1,2,0:2:0:0:
352,176,49543,2,0,P|408:156|476:152,1,95,8|2,0:0|0:2,0:0:0:0:
168,144,49871,37,0,0:0:0:0:
168,144,50035,1,2,0:2:0:0:
352,176,50199,2,0,P|432:220|460:248,1,95,8|0,0:0|0:0,0:0:0:0:
200,64,50527,5,0,0:0:0:0:
352,176,50691,1,2,0:0:0:0:
152,260,50855,1,8,0:0:0:0:
276,360,51019,5,0,0:0:0:0:
276,360,51101,1,0,0:0:0:0:
276,360,51183,2,0,L|264:164,1,190,2|8,0:2|0:0,0:0:0:0:
40,348,51674,5,2,0:2:0:0:
40,348,51756,1,2,0:2:0:0:
40,348,51838,2,0,P|88:348|148:340,1,95,2|2,0:2|0:2,0:0:0:0:
356,352,52166,1,8,0:0:0:0:
192,268,52330,1,2,0:2:0:0:
432,160,52658,6,0,L|412:220,1,47.5,2|2,0:2|0:2,0:0:0:0:
408,232,52822,1,8,0:0:0:0:
384,308,52986,1,0,0:0:0:0:
308,144,53150,37,0,0:0:0:0:
264,324,53314,1,2,0:0:0:0:
244,84,53478,1,8,0:0:0:0:
384,152,53642,1,2,0:0:0:0:
120,240,53806,6,0,L|200:220,1,66.4999979705811,2|0,0:2|0:0,0:0:0:0:
140,156,54133,2,0,P|88:144|48:116,1,95,8|0,0:0|0:0,0:0:0:0:
208,104,54461,1,0,0:2:0:0:
268,296,54625,5,2,0:2:0:0:
304,132,54789,1,8,0:0:0:0:
144,232,54953,2,0,L|240:208,1,95,0|0,0:0|0:0,0:0:0:0:
336,236,55281,5,2,0:2:0:0:
424,80,55445,1,8,0:0:0:0:
472,164,55609,5,2,0:2:0:0:
472,164,55691,1,0,0:0:0:0:
472,164,55773,1,2,0:2:0:0:
328,120,55937,1,2,0:2:0:0:
456,248,56101,1,8,0:0:0:0:
308,320,56265,1,0,0:0:0:0:
384,184,56429,37,2,0:0:0:0:
312,232,56592,1,2,0:2:0:0:
224,232,56756,2,0,P|148:220|100:204,1,95,8|0,0:0|0:0,0:0:0:0:
84,200,57002,1,0,0:0:0:0:
44,172,57084,1,2,0:3:0:0:
264,84,57248,5,8,0:3:0:0:
252,160,57412,1,4,0:3:0:0:
476,40,57576,6,0,P|488:128|484:180,1,113.999996520996,10|0,0:2|0:0,0:0:0:0:
356,332,57904,54,0,L|248:352,1,95,10|0,0:0|0:2,0:0:0:0:
120,112,58232,6,0,P|180:100|252:92,1,132.999995941162,2|0,0:0|0:0,0:0:0:0:
404,180,58560,70,0,L|420:264,1,76,2|0,0:0|0:0,0:0:0:0:
128,360,58888,38,0,P|112:304|100:204,1,152,2|0,0:0|0:0,0:0:0:0:
336,100,59215,22,0,L|392:84,1,56.9999982604981,10|0,0:0|0:0,0:0:0:0:
484,320,59543,86,0,P|412:340|312:360,1,170.999994781494,10|0,0:0|0:0,0:0:0:0:
144,84,59871,22,0,L|132:36,1,38,10|0,0:0|0:0,0:0:0:0:
472,152,60198,5,10,0:0:0:0:
452,224,60362,1,0,0:0:0:0:
40,232,60526,5,10,0:0:0:0:
60,160,60690,1,8,0:3:0:0:
368,140,60854,86,0,B|400:232|332:280|332:280|360:232|328:172,1,242.250004620552,6|0,1:0|2:0,0:0:0:0:
256,256,61182,2,0,P|256:296|276:332,1,80.750001540184,0|0,0:0|2:0,0:0:0:0:
344,364,61345,1,10,0:0:0:0:
256,164,61510,1,2,0:0:0:0:
440,324,61673,5,2,0:0:0:0:
176,204,61837,1,0,0:0:0:0:
404,68,62001,1,8,0:0:0:0:
360,288,62165,1,2,0:0:0:0:
84,128,62329,85,2,0:1:0:0:
64,240,62493,1,2,0:2:0:0:
176,204,62657,1,8,0:0:0:0:
400,120,62821,6,0,P|348:96|288:88,1,113.999996520996,2|2,0:0|0:2,0:0:0:0:
240,324,63149,2,0,P|292:348|352:356,1,113.999996520996,2|8,0:2|0:0,0:0:0:0:
488,172,63477,86,2,B|440:208|368:196|368:196|428:232|440:300,1,242.250004620552,6|0,0:0|2:0,0:0:0:0:
316,256,63805,2,0,P|296:224|296:176,1,80.750001540184,2|0,0:0|2:0,0:0:0:0:
348,108,63969,1,10,0:0:0:0:
448,296,64132,5,0,0:0:0:0:
448,296,64214,1,2,0:0:0:0:
448,296,64296,1,2,0:2:0:0:
256,320,64460,1,2,0:2:0:0:
376,360,64624,1,10,0:0:0:0:
294,181,64788,1,4,0:2:0:0:
80,348,64952,86,0,P|64:300|76:224,1,113.999996520996,2|2,0:0|0:2,0:0:0:0:
180,124,65280,1,8,0:0:0:0:
216,328,65444,1,2,0:0:0:0:
216,328,65526,1,0,0:0:0:0:
216,328,65608,1,2,0:2:0:0:
376,144,65772,1,2,0:2:0:0:
188,228,65936,1,10,0:0:0:0:
420,332,66100,2,0,B|472:200|472:200|436:232|392:228,1,227.999993041992,4|0,0:0|0:0,0:0:0:0:
312,352,66591,6,0,P|280:268|296:180,1,170.999994781494,8|0,0:0|0:0,0:0:0:0:
312,152,66919,1,2,0:0:0:0:
392,80,67083,1,2,0:2:0:0:
200,168,67247,1,8,0:0:0:0:
412,72,67411,1,2,0:0:0:0:
368,292,67575,85,2,0:2:0:0:
264,72,67739,1,2,0:2:0:0:
216,344,67903,1,8,0:0:0:0:
244,92,68067,1,0,0:0:0:0:
104,344,68231,5,2,0:0:0:0:
256,168,68395,1,0,0:0:0:0:
464,332,68558,1,8,0:0:0:0:
348,340,68722,86,2,B|260:356|260:356|216:272|120:248,1,227.999993041992,6|2,0:0|0:0,0:0:0:0:
64,324,69214,2,0,P|36:244|48:152,1,170.999994781494,10|0,0:0|0:0,0:0:0:0:
68,128,69542,1,0,0:0:0:0:
296,44,69706,2,0,L|168:64,1,113.999996520996,0|10,0:0|0:0,0:0:0:0:
312,260,70034,5,2,0:0:0:0:
312,260,70116,1,0,0:0:0:0:
312,260,70198,1,4,0:2:0:0:
408,164,70362,1,0,0:0:0:0:
200,232,70526,1,8,0:0:0:0:
484,312,70690,85,0,0:0:0:0:
484,312,70772,1,0,0:0:0:0:
484,312,70854,2,0,P|432:336|372:332,1,113.999996520996,8|4,0:0|0:3,0:0:0:0:
304,308,71099,2,0,L|176:332,1,113.999996520996,8|4,0:0|0:3,0:0:0:0:
120,368,71345,6,0,B|92:344|92:344|136:280|124:176|124:176|96:156,1,242.250004620552,6|0,0:0|2:0,0:0:0:0:
28,124,71673,2,0,P|24:172|36:208,1,80.750001540184,2|0,0:0|2:0,0:0:0:0:
204,260,71837,1,8,0:0:0:0:
296,112,72001,85,0,0:0:0:0:
264,76,72083,1,0,0:0:0:0:
220,60,72165,1,2,0:0:0:0:
308,216,72329,1,0,0:0:0:0:
360,48,72493,1,10,0:0:0:0:
156,204,72657,2,0,P|176:204|204:176,1,56.9999982604981,2|0,0:2|2:0,0:0:0:0:
212,160,72821,5,2,0:2:0:0:
380,312,72985,2,0,L|252:336,1,113.999996520996,2|10,0:2|0:0,0:0:0:0:
64,240,73313,1,2,0:2:0:0:
188,288,73477,1,2,0:2:0:0:
208,36,73640,1,2,0:1:0:0:
88,68,73804,1,8,0:0:0:0:
312,248,73968,86,0,B|377:270|428:239|428:239|418:166|352:152,1,242.250004620552,6|0,0:0|2:0,0:0:0:0:
301,95,74296,2,0,P|284:131|284:176,1,80.750001540184,2|0,0:0|2:0,0:0:0:0:
424,308,74460,1,8,0:0:0:0:
416,112,74624,5,2,0:0:0:0:
512,288,74788,1,2,0:2:0:0:
312,248,74952,1,2,0:2:0:0:
496,276,75116,1,10,0:0:0:0:
424,92,75280,1,4,0:2:0:0:
288,240,75444,1,0,0:0:0:0:
392,192,75608,85,0,0:0:0:0:
392,192,75690,1,0,0:0:0:0:
392,192,75772,1,8,0:0:0:0:
192,320,75936,2,0,P|148:340|76:344,1,113.999996520996,2|2,0:0|0:2,0:0:0:0:
24,88,76263,2,0,P|68:68|140:64,1,113.999996520996,2|8,0:0|0:0,0:0:0:0:
40,260,76591,6,0,B|104:208|192:212|192:212|104:172,1,242.250004620552,4|0,0:0|2:0,0:0:0:0:
176,292,76919,2,0,L|264:268,1,80.750001540184,2|0,0:0|2:0,0:0:0:0:
480,220,77083,1,8,0:0:0:0:
456,136,77247,85,2,0:0:0:0:
456,136,77329,1,0,0:0:0:0:
456,136,77411,1,0,0:0:0:0:
416,332,77575,1,2,0:0:0:0:
328,108,77739,1,8,0:0:0:0:
420,320,77903,1,2,0:0:0:0:
384,184,78067,5,2,0:0:0:0:
156,264,78231,1,2,0:2:0:0:
248,56,78395,1,8,0:0:0:0:
332,324,78558,2,0,P|280:344|204:352,1,113.999996520996,2|2,0:0|0:2,0:0:0:0:
40,160,78886,2,0,P|92:140|168:132,1,113.999996520996,2|8,0:2|0:0,0:0:0:0:
460,248,79214,85,12,0:0:0:0:
460,248,79542,1,0,0:0:0:0:
236,120,79706,1,10,0:0:0:0:
280,44,79870,1,2,0:2:0:0:
356,328,80034,1,10,0:0:0:0:
276,356,80198,1,0,0:0:0:0:
408,40,80362,1,10,0:0:0:0:
484,76,80526,1,0,0:0:0:0:
208,324,80690,5,10,0:0:0:0:
104,120,80854,1,2,0:2:0:0:
304,228,81017,1,10,0:0:0:0:
76,248,81181,1,0,0:0:0:0:
244,96,81345,1,10,0:0:0:0:
196,216,81509,70,2,P|196:200|208:212,1,38,2|0,0:2|2:0,0:0:0:0:
428,180,82001,86,0,P|440:148|440:80,1,95,4|0,0:0|0:0,0:0:0:0:
441,87,82247,1,0,0:0:0:0:
444,92,82329,2,0,P|352:124|256:92,1,190,8|0,0:0|0:0,0:0:0:0:
200,48,82821,1,2,0:2:0:0:
296,280,82985,1,8,0:0:0:0:
248,360,83149,1,2,0:2:0:0:
44,220,83477,5,2,0:2:0:0:
44,220,83640,1,8,0:0:0:0:
120,196,83804,2,0,L|196:176,1,47.5,2|2,0:2|0:2,0:0:0:0:
244,164,84132,2,0,L|320:144,1,47.5,2|8,0:0|0:0,0:0:0:0:
416,240,84460,85,0,0:0:0:0:
416,240,84542,1,0,0:0:0:0:
416,240,84624,2,0,P|432:184|424:144,1,95,2|2,0:0|0:0,0:0:0:0:
320,244,84952,1,8,0:0:0:0:
452,316,85116,2,0,L|500:296,2,47.5,0|0|0,0:0|0:0|0:0,0:0:0:0:
380,348,85444,5,2,0:2:0:0:
332,164,85608,1,8,0:0:0:0:
244,328,85772,2,0,P|196:344|144:352,1,95,2|2,0:0|0:0,0:0:0:0:
64,320,86099,1,2,0:2:0:0:
244,328,86263,1,8,0:0:0:0:
80,144,86591,70,0,L|56:76,1,47.5,2|0,0:2|2:0,0:0:0:0:
48,88,86755,2,0,L|83:188,1,95,2|0,0:0|0:0,0:0:0:0:
79,177,87247,6,0,P|184:148|288:128,1,213.750008153916,6|0,0:2|0:0,0:0:0:0:
360,160,87903,2,0,P|408:152|504:124,2,142.500005435944,2|0|0,0:0|0:0|0:0,0:0:0:0:
212,316,88886,1,2,0:0:0:0:
284,292,89050,2,0,P|276:220|240:128,1,142.500005435944,2|2,0:0|1:1,0:0:0:0:
224,80,89542,1,2,0:0:0:0:
176,140,89706,6,0,P|100:128|40:104,2,142.500005435944,2|2|2,0:0|0:0|0:0,0:0:0:0:
352,64,90690,1,2,0:0:0:0:
292,116,90854,1,0,0:0:0:0:
364,144,91017,2,0,L|392:304,1,142.500005435944,2|0,0:0|3:0,0:0:0:0:
388,284,91509,1,2,0:0:0:0:
460,324,91673,2,0,L|528:364,1,71.2500027179719,2|0,0:0|0:0,0:0:0:0:
392,288,92001,1,2,0:2:0:0:
316,320,92165,2,0,L|232:356,1,71.2500027179719,8|2,0:0|0:0,0:0:0:0:
250,348,92411,1,2,0:0:0:0:
250,348,92493,1,8,0:0:0:0:
196,144,92657,37,2,0:0:0:0:
264,216,92821,1,2,0:0:0:0:
172,232,92985,1,2,0:0:0:0:
280,132,93149,6,0,P|284:100|272:40,1,71.2500027179719,2|2,3:0|0:0,0:0:0:0:
348,176,93477,1,8,0:0:0:0:
244,268,93640,6,0,P|240:328|244:368,1,95,0|0,0:0|0:0,0:0:0:0:
448,256,93968,2,0,P|452:196|448:156,1,95,0|0,0:0|0:0,0:0:0:0:
448,80,94296,1,2,0:2:0:0:
448,344,94460,1,8,0:0:0:0:
356,128,94624,1,2,0:2:0:0:
356,292,94788,1,0,0:0:0:0:
288,212,94952,5,2,0:2:0:0:
384,208,95116,1,0,0:0:0:0:
248,120,95280,2,0,P|200:120|144:128,1,95,2|0,0:2|0:0,0:0:0:0:
72,184,95608,2,0,P|68:136|72:88,1,95,2|0,0:2|0:0,0:0:0:0:
200,200,95936,1,2,0:2:0:0:
196,40,96099,1,8,0:0:0:0:
120,332,96263,5,2,0:2:0:0:
52,280,96591,1,2,0:2:0:0:
416,104,96919,1,2,0:2:0:0:
256,192,97083,37,8,0:2:0:0:
176,168,97247,2,0,L|76:140,1,95,2|2,0:0|0:2,0:0:0:0:
344,216,97739,54,2,L|436:240,1,85.4999973907472,6|2,0:0|0:0,0:0:0:0:
416,128,98395,37,2,0:2:0:0:
292,152,98558,1,2,0:2:0:0:
100,252,98722,5,8,0:0:0:0:
224,224,98886,1,2,0:2:0:0:
308,292,99050,21,0,0:0:0:0:
192,128,99214,2,2,P|196:100|204:72,1,56.9999982604981,2|2,0:1|0:1,0:0:0:0:
356,140,99706,5,0,0:0:0:0:
192,256,99870,2,2,P|164:252|136:244,1,56.9999982604981,2|2,0:1|0:0,0:0:0:0:
203,72,100362,85,2,0:2:0:0:
308,312,100526,2,2,P|316:264|320:208,1,95,2|2,0:1|0:2,0:0:0:0:
312,196,100936,1,2,0:2:0:0:
304,176,101017,1,2,3:0:0:0:
240,256,101181,1,2,0:2:0:0:
388,328,101345,1,8,0:0:0:0:
164,220,101509,54,0,P|116:232|64:240,1,95,2|2,0:2|0:2,0:0:0:0:
228,152,101837,2,0,P|236:112|260:55,1,95,2|8,0:1|0:0,0:0:0:0:
256,248,102165,2,0,P|292:280|323:324,1,95,0|2,0:0|0:2,0:0:0:0:
364,128,102493,5,2,0:0:0:0:
300,184,102657,1,8,0:0:0:0:
384,204,102821,1,2,3:3:0:0:
300,184,102985,1,4,0:2:0:0:
464,52,103149,5,0,0:0:0:0:
376,40,103313,2,0,P|328:44|272:56,1,95,8|0,0:0|0:0,0:0:0:0:
260,64,103558,1,0,0:0:0:0:
260,64,103640,1,2,0:2:0:0:
168,104,103804,1,2,0:2:0:0:
88,56,103968,1,8,0:0:0:0:
248,152,104132,70,0,P|268:248|236:352,1,190,0|2,0:0|0:2,0:0:0:0:
176,272,104624,1,8,0:0:0:0:
360,216,104788,1,0,0:0:0:0:
360,216,104870,1,0,0:0:0:0:
360,216,104952,2,0,B|392:248|392:248|344:264,1,95,0|2,0:0|0:1,0:0:0:0:
392,328,105280,1,8,0:0:0:0:
444,104,105444,6,0,P|392:96|348:116,1,95,2|2,0:0|0:2,0:0:0:0:
280,152,105772,1,2,0:2:0:0:
280,152,105936,1,8,0:0:0:0:
52,80,106099,5,0,0:0:0:0:
100,72,106181,1,8,0:2:0:0:
140,96,106263,1,8,0:2:0:0:
224,52,106427,1,2,0:2:0:0:
344,220,106591,1,8,0:0:0:0:
408,56,106755,69,10,0:2:0:0:
472,320,106919,1,0,0:0:0:0:
388,88,107083,1,10,0:0:0:0:
440,304,107247,1,0,0:2:0:0:
328,48,107411,5,2,0:0:0:0:
304,324,107575,1,0,0:0:0:0:
300,72,107739,1,2,0:0:0:0:
280,300,107903,1,0,0:0:0:0:
208,104,108067,5,2,0:0:0:0:
180,296,108231,1,0,0:0:0:0:
180,76,108395,1,10,0:0:0:0:
152,324,108558,1,0,0:0:0:0:
52,72,108722,69,10,0:0:0:0:
85,284,108886,1,0,0:0:0:0:
14,48,109050,1,10,0:0:0:0:
56,322,109214,1,0,0:0:0:0:
300,256,109377,38,0,B|328:248|328:248|384:176|368:104|368:104|360:148|324:160,1,256.499992172241,10|0,0:0|0:0,0:0:0:0:
248,188,109705,6,0,B|256:176|252:156|252:156|188:252|92:240|92:240|116:236|140:220,1,256.499992172241,10|0,0:0|0:0,0:0:0:0:
300,344,110033,6,0,B|315:367|315:367|413:330|423:229|423:229|394:224,1,242.250004620552,4|0,1:0|0:0,0:0:0:0:
323,205,110360,2,0,P|334:173|362:147,2,56.9999982604981,2|0|8,0:0|0:0|0:0,0:0:0:0:
184,352,110688,1,2,0:0:0:0:
288,96,110852,5,2,0:1:0:0:
260,280,111016,1,2,0:2:0:0:
204,52,111180,85,10,0:0:0:0:
360,220,111344,1,0,0:0:0:0:
184,352,111508,1,2,0:0:0:0:
124,156,111672,5,2,0:2:0:0:
124,156,111754,1,0,0:0:0:0:
124,156,111836,2,0,P|184:132|256:128,1,113.999996520996,8|2,0:0|0:0,0:0:0:0:
104,264,112164,1,2,0:2:0:0:
260,344,112328,1,2,0:0:0:0:
164,92,112492,1,8,0:0:0:0:
58,352,112656,86,0,B|95:346|132:369|132:369|196:332|216:264|216:264|216:280|232:296,1,242.250004620552,6|0,0:0|0:0,0:0:0:0:
328,288,112983,2,0,B|368:296|368:296|388:256,2,80.750001540184,0|0|10,0:0|0:0|0:0,0:0:0:0:
252,160,113311,1,2,0:0:0:0:
400,80,113475,5,2,0:2:0:0:
324,208,113639,1,2,0:2:0:0:
492,296,113803,85,10,0:0:0:0:
252,160,113967,1,0,0:0:0:0:
500,72,114131,1,4,0:2:0:0:
396,324,114295,1,2,0:2:0:0:
140,96,114459,1,10,0:0:0:0:
188,312,114623,5,2,0:0:0:0:
188,312,114705,1,0,0:0:0:0:
188,312,114787,1,2,0:2:0:0:
108,260,114951,2,0,P|156:228|224:228,1,113.999996520996,2|8,0:0|0:0,0:0:0:0:
476,192,115278,86,0,B|496:288|416:340|416:340|368:288,1,227.999993041992,6|2,0:2|0:2,0:0:0:0:
344,124,115770,1,8,0:0:0:0:
424,48,115934,1,0,0:0:0:0:
424,48,116016,1,0,0:0:0:0:
424,48,116098,1,2,0:0:0:0:
308,200,116262,1,2,0:2:0:0:
240,68,116426,1,8,0:0:0:0:
412,184,116590,1,0,0:0:0:0:
224,288,116754,5,2,0:3:0:0:
296,328,116918,1,8,0:3:0:0:
168,224,117082,85,4,0:3:0:0:
380,280,117246,1,10,0:2:0:0:
404,228,117328,1,8,0:2:0:0:
396,172,117410,1,2,0:2:0:0:
144,312,117574,1,10,0:0:0:0:
220,32,117737,5,8,0:0:0:0:
296,352,117901,1,6,0:0:0:0:
296,352,118229,1,2,0:0:0:0:
196,240,118393,2,0,P|124:224|36:268,1,170.999994781494,8|0,0:0|0:0,0:0:0:0:
16,304,118721,85,0,0:0:0:0:
40,164,118885,1,2,0:0:0:0:
288,192,119049,1,8,0:0:0:0:
272,332,119213,1,10,0:0:0:0:
148,56,119541,5,10,0:0:0:0:
400,84,119705,1,8,0:0:0:0:
372,336,119869,1,10,0:0:0:0:
120,308,120033,1,4,3:0:0:0:
276,188,120196,86,0,P|252:196|228:192,1,38,10|8,0:0|0:3,0:0:0:0:
424,312,120524,6,0,B|460:256|436:188|436:188|460:120|460:120|472:144|508:148,1,242.250004620552,6|0,1:0|2:0,0:0:0:0:
400,36,120852,2,0,P|376:68|380:116,1,80.750001540184,0|0,0:0|2:0,0:0:0:0:
488,48,121016,85,10,0:0:0:0:
292,84,121180,1,2,0:0:0:0:
400,36,121344,5,2,0:0:0:0:
360,184,121508,1,0,0:0:0:0:
232,60,121672,1,10,0:0:0:0:
376,156,121836,1,0,0:0:0:0:
164,296,122000,86,0,P|120:332|64:332,1,113.999996520996,2|2,0:1|0:2,0:0:0:0:
160,192,122328,1,8,0:0:0:0:
244,320,122492,1,2,0:0:0:0:
328,284,122656,5,2,0:2:0:0:
180,112,122819,1,2,0:2:0:0:
360,180,122983,1,10,0:0:0:0:
64,244,123147,86,2,B|36:200|52:164|52:164|116:44|116:44|100:60|84:56,1,242.250004620552,6|0,0:0|2:0,0:0:0:0:
180,112,123475,2,0,L|268:84,1,80.750001540184,2|0,0:2|2:0,0:0:0:0:
328,60,123639,1,10,0:0:0:0:
480,212,123803,5,2,0:0:0:0:
480,212,123885,1,0,0:0:0:0:
480,212,123967,2,0,L|400:144,1,80.750001540184,2|0,0:1|2:0,0:0:0:0:
480,212,124131,86,0,L|376:200,1,80.750001540184,2|0,0:1|2:0,0:0:0:0:
480,212,124295,6,0,L|396:252,1,80.750001540184,8|0,0:0|2:0,0:0:0:0:
474,303,124459,85,4,0:2:0:0:
204,160,124623,6,0,P|144:160|64:232,1,170.999994781494,2|0,0:0|2:0,0:0:0:0:
52,276,124951,1,8,0:0:0:0:
80,104,125115,1,2,0:0:0:0:
80,104,125196,1,0,0:0:0:0:
80,104,125278,1,2,0:2:0:0:
160,244,125442,1,2,0:2:0:0:
200,72,125606,1,10,0:0:0:0:
112,324,125770,86,0,B|120:312|120:312|192:364|280:356|280:356|256:328|264:296,1,242.250004620552,6|0,0:0|2:0,0:0:0:0:
316,236,126098,2,0,P|336:268|336:320,2,80.750001540184,2|0|8,0:1|0:0|0:0,0:0:0:0:
200,132,126426,1,2,0:0:0:0:
408,152,126590,5,2,0:0:0:0:
262,302,126754,1,0,0:0:0:0:
232,208,126918,85,10,0:0:0:0:
468,260,127082,1,2,0:0:0:0:
408,328,127246,5,2,0:1:0:0:
328,56,127410,1,2,0:2:0:0:
476,184,127574,1,10,0:0:0:0:
262,302,127737,2,0,P|202:294|146:278,1,113.999996520996,2|2,0:0|0:2,0:0:0:0:
64,148,128065,1,2,0:1:0:0:
224,108,128229,1,8,0:0:0:0:
152,280,128393,85,6,0:0:0:0:
128,196,128557,1,2,0:0:0:0:
336,120,128721,1,0,0:0:0:0:
184,44,128885,1,10,0:0:0:0:
128,196,129049,1,2,0:2:0:0:
400,324,129213,5,10,0:0:0:0:
432,128,129377,1,2,0:2:0:0:
320,240,129541,1,10,0:0:0:0:
488,352,129705,1,2,0:2:0:0:
256,112,129869,85,6,0:2:0:0:
256,340,130033,1,0,0:0:0:0:
364,80,130196,5,10,0:0:0:0:
144,304,130360,1,2,0:2:0:0:
476,48,130524,85,10,0:0:0:0:
72,220,130688,2,0,P|64:176|76:108,1,99.7499969558717,4|0,0:3|2:3,0:0:0:0:
140,168,131016,22,2,B|264:224|264:224|320:212|336:160|336:160|300:172|284:216,1,304,6|2,0:0|0:0,0:0:0:0:
332,320,131508,6,2,B|380:292|412:300|412:300|456:260|432:164|432:164|432:232|332:320,1,360.99999036026,2|0,0:0|0:0,0:0:0:0:
72,324,132000,6,2,B|28:320|12:284|12:284|132:324|232:276|232:276|244:228|192:192,1,398.999987823487,2|8,0:0|0:0,0:0:0:0:
276,144,132492,6,2,B|284:88|252:56|252:56|236:100|276:144,1,190,2|0,0:0|0:0,0:0:0:0:
352,312,132983,5,8,0:2:0:0:
388,340,133065,1,8,0:2:0:0:
436,348,133147,1,8,0:2:0:0:
504,280,133311,37,2,0:2:0:0:
440,56,133475,1,4,0:3:0:0:
260,280,133639,6,2,B|296:216|380:200|380:200|312:196|272:156,2,265.999991882324,6|2|2,0:0|0:0|0:0,0:0:0:0:
200,356,134459,5,8,1:0:0:0:
136,256,134623,1,0,0:0:0:0:
296,72,134787,1,8,0:0:0:0:
360,172,134951,1,2,0:2:0:0:
160,152,135115,5,0,0:0:0:0:
76,132,135278,1,2,0:2:0:0:
76,132,135360,1,2,0:2:0:0:
148,68,135524,1,0,0:0:0:0:
148,68,135606,1,2,0:2:0:0:
232,100,135770,5,8,0:0:0:0:
440,160,135934,1,0,0:0:0:0:
256,288,136098,1,8,0:0:0:0:
204,240,136262,38,0,P|172:264|124:264,1,76,2|0,0:0|2:0,0:0:0:0:
137,267,136426,2,0,P|195:223|283:215,1,152,2|2,0:0|0:0,0:0:0:0:
400,264,136754,1,0,0:0:0:0:
272,360,136918,1,2,0:2:0:0:
400,168,137082,6,2,B|384:108|389:77|436:23|436:23|373:82|268:61,1,304,10|2,0:0|0:0,0:0:0:0:
116,36,137574,1,8,0:0:0:0:
184,324,137737,6,0,B|192:256|244:228|244:228|270:264,2,152,2|2|2,0:2|0:0|0:0,0:0:0:0:
352,256,138229,1,8,0:2:0:0:
356,204,138311,1,8,0:2:0:0:
332,156,138393,1,8,0:0:0:0:
288,336,138557,5,2,0:2:0:0:
132,252,138721,2,0,P|149:232|156:192,1,56.9999982604981,4|0,3:0|2:0,0:0:0:0:
100,276,138885,6,2,P|188:236|320:236,1,213.750008153916,6|2,0:0|0:0,0:0:0:0:
376,248,139213,2,0,P|452:228|472:216,1,71.2500027179719,2|2,0:0|0:0,0:0:0:0:
476,32,139377,38,2,B|388:56|388:56|352:116|396:172|396:172|416:132|456:120,1,285.000010871888,2|10,0:0|0:0,0:0:0:0:
212,40,139869,5,2,0:0:0:0:
288,152,140033,1,8,0:0:0:0:
120,332,140196,6,2,B|104:284|80:196|80:196|96:240|148:260,1,213.750008153916,2|0,0:0|0:0,0:0:0:0:
164,256,140524,1,8,0:2:0:0:
248,264,140688,1,8,0:2:0:0:
348,228,140852,1,2,0:2:0:0:
416,124,141016,1,8,0:0:0:0:
376,304,141180,5,8,0:2:0:0:
328,336,141262,1,8,0:2:0:0:
272,344,141344,2,0,P|232:352|192:372,1,71.2500027179719,8|8,0:0|0:0,0:0:0:0:
72,308,141508,54,2,B|48:148|48:148|84:196,1,213.750008153916,6|0,0:0|0:0,0:0:0:0:
79,189,141836,2,0,L|160:176,1,71.2500027179719,2|2,0:0|0:0,0:0:0:0:
224,164,142000,2,0,B|265:156|300:176|300:176|312:148|352:128,1,142.500005435944,10|2,0:0|0:2,0:0:0:0:
408,56,142328,6,0,P|444:60|424:80,1,71.2500027179719,2|2,0:0|0:0,0:0:0:0:
344,131,142492,2,0,P|416:160|476:208,1,142.500005435944,2|8,0:0|0:0,0:0:0:0:
368,236,142819,22,0,P|376:280|376:320,1,71.2500027179719,2|2,0:0|0:0,0:0:0:0:
296,196,142983,2,0,P|232:240|152:268,1,142.500005435944,2|2,0:0|0:2,0:0:0:0:
216,124,143311,5,8,0:0:0:0:
268,320,143475,1,2,0:0:0:0:
268,320,143557,1,0,0:0:0:0:
268,320,143639,1,2,0:0:0:0:
156,184,143803,38,0,B|120:164|120:164|112:208,1,85.4999973907472,8|8,0:2|0:2,0:0:0:0:
171,263,143967,1,8,0:0:0:0:
292,44,144131,6,2,B|392:32|444:104|444:104|392:80,1,213.750008153916,2|0,0:0|0:0,0:0:0:0:
328,144,144459,2,0,P|360:180|400:200,1,71.2500027179719,2|2,0:0|0:0,0:0:0:0:
468,196,144623,6,2,B|384:240|384:240|420:296|372:368,1,213.750008153916,10|8,0:0|0:2,0:0:0:0:
308,312,144951,2,0,B|260:316|224:351|224:351|192:348|168:312,1,142.500005435944,2|2,0:0|0:0,0:0:0:0:
256,132,145278,2,0,P|228:148|196:196,1,71.2500027179719,8|0,0:0|0:0,0:0:0:0:
200,208,145442,6,0,B|172:164|184:96|184:96|160:108|152:140,2,161.500003080368,2|2|2,0:0|0:0|0:2,0:0:0:0:
352,288,145934,1,8,0:0:0:0:
136,256,146098,6,0,B|104:280|104:280|152:292,1,80.750001540184,2|2,0:0|0:0,0:0:0:0:
268,272,146262,37,8,0:3:0:0:
232,336,146344,2,0,P|312:304|400:300,1,161.500003080368,4|0,0:3|0:0,0:0:0:0:
456,336,146590,2,0,P|472:300|464:252,1,80.750001540184,8|8,0:0|0:0,0:0:0:0:
388,36,146754,6,2,B|340:92|372:168|372:168|464:184|464:184|460:156|480:128,1,285.000010871888,6|2,0:0|0:0,0:0:0:0:
280,176,147246,5,10,0:0:0:0:
464,60,147410,1,2,0:0:0:0:
184,128,147574,6,0,P|120:108|60:32,1,142.500005435944,2|2,0:0|0:2,0:0:0:0:
296,80,147901,1,8,0:0:0:0:
224,260,148065,1,2,0:0:0:0:
352,172,148229,6,0,P|388:152|424:148,1,71.2500027179719,2|2,0:2|0:2,0:0:0:0:
376,264,148393,2,0,P|304:228|256:168,1,142.500005435944,2|8,0:0|0:0,0:0:0:0:
444,220,148721,38,0,P|472:232|456:264,1,71.2500027179719,2|2,0:2|0:2,0:0:0:0:
376,264,148885,2,0,P|300:280|232:304,1,142.500005435944,2|4,0:0|0:3,0:0:0:0:
60,368,149213,1,8,0:0:0:0:
124,56,149377,6,2,B|112:112|148:132|148:132|332:72|332:72|364:84|376:132,1,341.999989562989,6|2,0:0|0:0,0:0:0:0:
376,208,149869,5,10,0:0:0:0:
324,276,150033,1,2,0:2:0:0:
288,296,150115,1,2,0:2:0:0:
244,296,150196,1,2,0:1:0:0:
168,260,150360,1,2,0:2:0:0:
448,160,150524,69,10,0:0:0:0:
444,244,150688,1,2,0:2:0:0:
428,284,150770,1,2,0:2:0:0:
396,316,150852,1,2,0:0:0:0:
316,348,151016,1,2,0:2:0:0:
480,76,151180,5,8,0:0:0:0:
500,340,151344,1,4,0:3:0:0:
488,164,151508,6,2,L|492:208,1,42.7499986953736,2|2,0:0|2:0,0:0:0:0:
500,340,151672,6,0,P|483:304|448:267,1,76,2|0,0:0|2:0,0:0:0:0:
232,112,152000,6,0,P|160:108|88:144,1,142.500005435944,4|0,0:0|0:0,0:0:0:0:
97,136,152492,2,0,L|80:212,1,71.2500027179719,2|0,0:0|0:0,0:0:0:0:
81,205,152819,2,0,L|104:280,1,71.2500027179719,2|0,0:0|0:0,0:0:0:0:
102,274,153147,2,0,L|168:320,1,71.2500027179719,2|0,0:0|0:0,0:0:0:0:
160,314,153475,2,0,L|252:328,1,71.2500027179719,2|0,0:0|0:0,0:0:0:0:
301,311,153803,1,2,0:0:0:0:
231,324,153967,2,0,L|323:308,1,71.2500027179719,2|0,0:0|0:0,0:0:0:0:
301,311,154295,2,0,L|364:268,1,71.2500027179719,2|0,0:0|0:0,0:0:0:0:
359,270,154623,86,0,L|424:144,1,142.500005435944,2|0,0:0|0:0,0:0:0:0:
424,143,155115,2,0,P|412:104|392:64,1,71.2500027179719,2|0,0:0|0:0,0:0:0:0:
399,77,155442,2,0,P|368:48|320:32,1,71.2500027179719,2|0,0:0|0:0,0:0:0:0:
342,36,155770,2,0,P|296:32|256:40,1,71.2500027179719,2|0,0:0|0:0,0:0:0:0:
271,35,156098,2,0,P|228:48|196:68,1,71.2500027179719,2|0,0:0|0:0,0:0:0:0:
119,168,156426,1,2,0:0:0:0:
205,60,156590,2,0,P|161:92|120:168,1,142.500005435944,2|0,0:0|0:0,0:0:0:0:
132,244,157082,1,2,0:0:0:0:
307,324,157246,6,0,B|348:304|380:268|380:268|408:200|400:132,2,227.999993041992,4|8|4,0:2|0:3|0:3,0:0:0:0:
216,336,158065,1,8,0:3:0:0:
128,312,158229,1,8,0:3:0:0:
80,236,158393,1,4,0:3:0:0:
72,144,158557,1,4,0:3:0:0:
116,64,158721,37,8,0:0:0:0:
416,96,158885,1,8,0:0:0:0:
160,344,159049,5,8,0:0:0:0:
192,44,159213,1,8,0:0:0:0:
412,312,159377,5,8,0:0:0:0:
112,280,159541,1,8,0:0:0:0:
368,36,159705,5,8,0:0:0:0:
336,336,159869,1,8,0:0:0:0:
144,212,160033,5,8,0:3:0:0:
368,172,160196,1,12,0:0:0:0:
112,144,160360,37,8,0:3:0:0:
400,240,160524,1,12,0:0:0:0:
68,208,160688,5,8,0:3:0:0:
444,176,160852,1,12,0:0:0:0:
4,164,161016,5,12,0:0:0:0:
504,220,161180,1,8,0:0:0:0:
256,192,161344,6,2,B|256:128|288:104|288:104|284:68|252:48|252:48|260:92|232:120,2,228
256,356,162000,21,2,0:0:0:0:
368,40,162164,5,2,0:0:0:0:
368,40,162492,86,0,B|296:44|264:116|264:116|192:100|148:36|148:36|148:72|172:92,1,323.000006160736,6|2,0:0|0:0,0:0:0:0:
212,280,162983,1,8,0:0:0:0:
312,292,163147,5,0,0:0:0:0:
304,244,163229,1,0,0:0:0:0:
276,204,163311,1,2,0:0:0:0:
188,152,163475,1,0,0:0:0:0:
428,224,163639,85,10,0:0:0:0:
240,368,163803,1,2,0:2:0:0:
324,40,163967,5,2,0:2:0:0:
352,128,164131,1,2,0:2:0:0:
420,64,164295,1,10,0:0:0:0:
324,40,164459,85,2,0:2:0:0:
376,216,164623,1,2,0:2:0:0:
504,88,164787,1,2,0:1:0:0:
324,40,164951,1,8,0:0:0:0:
200,320,165115,6,0,B|148:312|100:336|100:336|48:295|56:187|56:187|112:167,1,323.000006160736,6|2,0:0|0:0,0:0:0:0:
272,128,165606,1,8,0:0:0:0:
232,252,165770,1,2,0:0:0:0:
276,228,165852,1,0,0:0:0:0:
324,224,165934,1,2,0:2:0:0:
172,72,166098,1,2,0:2:0:0:
148,312,166262,1,10,0:0:0:0:
200,148,166426,1,4,0:2:0:0:
68,340,166590,85,2,0:0:0:0:
304,360,166754,1,0,0:0:0:0:
64,212,166918,1,8,0:0:0:0:
276,64,167082,5,2,0:0:0:0:
276,64,167164,1,0,0:0:0:0:
276,64,167246,1,2,0:2:0:0:
224,336,167410,1,2,0:0:0:0:
16,152,167574,1,8,0:0:0:0:
344,136,167737,86,0,B|408:136|468:184|468:184|512:168|520:112|520:112|452:92|416:136,1,323.000006160736,4|2,0:0|0:0,0:0:0:0:
328,232,168229,1,8,0:0:0:0:
464,328,168393,1,2,0:0:0:0:
372,32,168557,5,2,0:0:0:0:
192,256,168721,1,2,0:0:0:0:
412,252,168885,1,8,0:0:0:0:
156,176,169049,85,2,0:0:0:0:
336,320,169213,1,2,0:0:0:0:
456,164,169377,1,2,0:2:0:0:
272,32,169541,1,10,0:0:0:0:
248,260,169705,5,2,0:0:0:0:
328,132,169869,1,2,0:2:0:0:
216,152,170033,1,2,0:2:0:0:
352,232,170196,1,8,0:0:0:0:
20,192,170360,85,14,0:0:0:0:
20,192,170688,1,0,0:2:0:0:
46,31,170852,5,8,0:0:0:0:
92,344,171016,1,0,0:0:0:0:
125,35,171180,5,8,0:0:0:0:
170,348,171344,1,0,0:0:0:0:
203,39,171508,5,8,0:0:0:0:
248,352,171672,1,2,0:2:0:0:
281,43,171836,5,14,0:0:0:0:
326,356,172000,1,0,0:0:0:0:
359,47,172164,5,10,0:0:0:0:
405,360,172328,1,2,0:0:0:0:
496,84,172492,5,8,0:0:0:0:
392,280,172656,1,10,0:0:0:0:
492,172,172819,1,8,0:0:0:0:
396,192,172983,5,4,0:0:0:0:
396,192,173311,1,0,0:0:0:0:
128,96,173475,1,8,0:0:0:0:
412,192,173639,1,0,0:0:0:0:
136,292,173803,1,8,0:0:0:0:
428,192,173967,1,0,0:0:0:0:
108,68,174131,1,8,0:0:0:0:
444,192,174295,1,2,0:2:0:0:
108,308,174459,1,8,0:0:0:0:
460,192,174623,1,0,0:0:0:0:
92,56,174787,1,8,0:0:0:0:
476,192,174951,1,0,0:0:0:0:
80,324,175115,1,8,0:0:0:0:
492,192,175278,1,2,0:2:0:0:
60,40,175442,1,8,0:0:0:0:
256,192,175606,5,4,0:0:0:0:
256,192,175934,1,0,0:0:0:0:
304,104,176098,1,8,0:0:0:0:
172,148,176262,1,0,0:0:0:0:
216,280,176426,1,8,0:0:0:0:
348,236,176590,1,0,0:0:0:0:
212,48,176754,1,8,0:0:0:0:
104,244,176918,1,0,0:0:0:0:
308,332,177082,1,12,0:3:0:0:
416,136,177246,1,0,0:0:0:0:
136,368,177410,85,12,0:3:0:0:
88,64,177574,1,0,0:0:0:0:
388,32,177737,1,10,0:0:0:0:
436,336,177901,1,10,0:0:0:0:
256,192,178065,12,0,179377,0:0:0:0:
