osu file format v14

[General]
AudioFilename: audio.mp3
AudioLeadIn: 0
PreviewTime: 151100
Countdown: 0
SampleSet: Normal
StackLeniency: 0.4
Mode: 0
LetterboxInBreaks: 0
WidescreenStoryboard: 1

[Editor]
DistanceSpacing: 1
BeatDivisor: 2
GridSize: 4
TimelineZoom: 1.1

[Metadata]
Title:twoface
TitleUnicode:twoface
Artist:Aimer
ArtistUnicode:Aimer
Creator:Delis
Version:Normal
Source:
Tags:shirohamymommy japanese rock
BeatmapID:2922037
BeatmapSetID:1351981

[Difficulty]
HPDrainRate:4
CircleSize:3
OverallDifficulty:5
ApproachRate:5
SliderMultiplier:1.2
SliderTickRate:1

[Events]
//Background and Video events
0,0,"BG.jpg",0,0
//Break Periods
2,82002,85555
2,131216,137849
2,152821,156046
//Storyboard Layer 0 (Background)
//Storyboard Layer 1 (Fail)
//Storyboard Layer 2 (Pass)
//Storyboard Layer 3 (Foreground)
//Storyboard Layer 4 (Overlay)
//Storyboard Sound Samples

[TimingPoints]
200,327.868852459016,4,1,2,50,1,0
6429,-100,4,1,1,60,0,0
6511,-100,4,1,1,5,0,0
6593,327.868852459016,4,1,1,60,1,0
7412,-100,4,1,2,60,0,0
7576,-100,4,1,1,60,0,0
10363,-100,4,1,2,60,0,0
10691,-100,4,1,1,60,0,0
13724,-100,4,1,2,60,0,0
13888,-100,4,1,1,60,0,0
15773,-100,4,1,1,5,0,0
15937,-100,4,1,1,60,0,0
16265,-100,4,1,2,60,0,0
16429,-100,4,1,1,60,0,0
20363,-100,4,1,2,60,0,0
20527,-100,4,1,1,60,0,0
21183,-100,4,1,2,60,0,0
21347,-100,4,1,1,60,0,0
23150,-100,4,1,2,60,0,0
23314,-100,4,1,1,60,0,0
24133,-100,4,1,2,60,0,0
24297,-100,4,1,1,60,0,0
27658,-100,4,1,1,10,0,0
27740,-100,4,1,1,60,0,0
27822,-100,4,1,1,10,0,0
27904,-100,4,1,1,60,0,0
27986,-100,4,1,1,10,0,0
28068,-100,4,1,1,60,0,0
28150,-100,4,1,1,10,0,0
28232,-100,4,1,1,60,0,0
28314,-100,4,1,1,10,0,0
28396,-100,4,1,1,60,0,0
28478,-100,4,1,1,10,0,0
28560,-100,4,1,1,60,0,0
28642,-100,4,1,1,10,0,0
28724,-100,4,1,1,60,0,0
28970,-100,4,1,1,10,0,0
29052,-100,4,1,1,60,0,0
29133,-100,4,1,1,10,0,0
29215,-100,4,1,1,60,0,0
29297,-100,4,1,1,10,0,0
29379,-100,4,1,1,60,0,0
29625,-100,4,1,1,10,0,0
29707,-100,4,1,1,60,0,0
29789,-100,4,1,1,10,0,0
29871,-100,4,1,1,60,0,0
29953,-100,4,1,1,10,0,0
30035,-100,4,1,1,60,0,0
30281,-100,4,1,1,10,0,0
30363,-100,4,1,1,60,0,0
30445,-100,4,1,1,10,0,0
30527,-100,4,1,1,60,0,0
30609,-100,4,1,1,10,0,0
30691,-100,4,1,1,60,0,0
30937,-100,4,1,1,10,0,0
31019,-100,4,1,1,60,0,0
31756,-100,4,1,1,10,0,0
31838,-100,4,1,1,60,0,0
31920,-100,4,1,1,10,0,0
32002,-100,4,1,1,60,0,0
32412,-100,4,1,1,10,0,0
32494,-100,4,1,1,60,0,0
32576,-100,4,1,1,10,0,0
32658,-100,4,1,1,60,0,0
36511,-100,4,1,1,10,0,0
36592,-100,4,1,1,60,0,0
36838,-100,4,1,1,10,0,0
36920,-100,4,1,1,60,0,0
37002,-100,4,1,1,10,0,0
37084,-100,4,1,1,60,0,0
37166,-100,4,1,1,10,0,0
37248,-100,4,1,1,60,0,0
38888,-100,4,1,2,60,0,0
39052,-100,4,1,1,60,0,0
39789,-100,4,1,2,60,0,0
39953,-100,4,1,1,60,0,0
41838,-100,4,1,2,60,0,0
42166,-100,4,1,1,60,0,0
45773,-100,4,1,2,60,0,0
45937,-100,4,1,1,60,0,0
46838,-100,4,1,2,60,0,0
47002,-100,4,1,1,60,0,0
47740,-100,4,1,2,60,0,0
47904,-100,4,1,1,60,0,0
51674,-100,4,1,2,60,0,0
52002,-100,4,1,1,60,0,0
52658,-100,4,1,2,60,0,0
52822,-100,4,1,1,60,0,0
55609,-100,4,1,2,60,0,0
55855,-100,4,1,1,60,0,0
57576,327.868852459016,4,1,1,60,1,0
60854,-100,4,1,1,70,0,0
61018,327.868852459016,4,1,1,70,1,0
72575,-100,4,1,2,70,0,0
72739,-100,4,1,1,70,0,0
73231,-100,4,1,2,70,0,0
73395,-100,4,1,1,70,0,0
78722,-100,4,1,2,70,0,0
78886,-100,4,1,1,70,0,0
81509,-100,4,1,2,70,0,0
81837,-100,4,1,2,20,0,0
82001,-100,4,1,1,60,0,0
83804,-100,4,1,2,60,0,0
84132,-100,4,1,1,60,0,0
86673,-100,4,1,1,20,0,0
86755,-100,4,1,1,60,0,0
87247,-133.333333333333,4,2,2,50,0,0
92001,-133.333333333333,4,2,1,50,0,0
92329,-133.333333333333,4,2,2,50,0,0
92493,-133.333333333333,4,2,1,50,0,0
92739,-133.333333333333,4,2,2,50,0,0
92903,-133.333333333333,4,2,1,50,0,0
93640,-133.333333333333,4,1,1,60,0,0
97575,-133.333333333333,4,1,2,60,0,0
97739,-100,4,1,1,60,0,0
98559,-100,4,1,2,60,0,0
98723,-100,4,1,1,60,0,0
101673,-100,4,1,2,60,0,0
101837,-100,4,1,1,60,0,0
105444,-100,4,1,2,60,0,0
105608,-100,4,1,1,60,0,0
106755,327.868852459016,4,1,1,60,1,0
110033,-100,4,1,1,70,0,0
110197,327.868852459016,4,1,1,70,1,0
115278,-100,4,1,2,70,0,0
115524,-100,4,1,1,70,0,0
124049,-100,4,1,1,5,0,0
124131,-100,4,1,1,70,0,0
124213,-100,4,1,1,5,0,0
124295,-100,4,1,1,70,0,0
124377,-100,4,1,1,5,0,0
124459,-100,4,1,1,70,0,0
130934,-100,4,1,1,10,0,0
131016,-100,4,1,1,70,0,0
131508,-100,4,1,1,60,0,0
136344,-100,4,1,1,5,0,0
136426,-100,4,1,1,60,0,0
148147,-100,4,1,2,60,0,0
148393,-100,4,1,1,60,0,0
148721,-100,4,1,2,60,0,0
148885,-100,4,1,1,60,0,0
151836,-100,4,1,1,20,0,0
152000,-100,4,2,2,60,0,0
157246,-100,4,1,1,60,0,0
162492,-100,4,1,1,70,0,0
163722,-100,4,1,2,70,0,0
163886,-100,4,1,1,70,0,0
164378,-100,4,1,2,70,0,0
164542,-100,4,1,1,70,0,0
169869,-100,4,1,2,70,0,0
170033,-100,4,1,1,70,0,0
178065,-100,4,2,1,5,0,0

[Colours]
Combo1 : 213,206,132
Combo2 : 122,158,211
Combo3 : 182,118,220
Combo4 : 179,209,169
Combo5 : 196,193,185
Combo6 : 242,91,96
Combo7 : 183,103,91

[HitObjects]
100,56,6593,6,0,L|124:300,1,240,4|0,0:0|0:0,0:0:0:0:
236,336,7576,1,8,0:0:0:0:
236,336,7740,2,0,P|320:352|400:288,1,180,6|8,0:2|0:0,0:0:0:0:
320,204,8560,2,0,P|336:136|348:76,1,120,0|8,0:0|0:0,0:0:0:0:
228,108,9215,6,0,P|184:60|120:40,2,120,2|8|0,0:2|0:0|0:0,0:0:0:0:
148,200,10199,1,8,0:0:0:0:
148,200,10363,2,0,L|188:332,1,120,2|2,0:2|0:2,0:0:0:0:
196,344,10855,1,8,0:0:0:0:
312,312,11183,2,0,P|344:316|376:336,2,60,2|2|8,0:2|0:0|0:0,0:0:0:0:
248,208,11838,6,0,P|320:180|376:188,1,120,2|8,0:0|0:0,0:0:0:0:
276,104,12494,2,0,P|328:68|400:56,1,120,0|8,0:0|0:0,0:0:0:0:
416,60,12986,1,2,0:2:0:0:
488,156,13314,2,0,L|464:228,2,60,2|8|0,0:2|0:0|0:0,0:0:0:0:
372,192,13970,1,2,0:0:0:0:
272,128,14297,6,0,L|124:164,1,120,0|2,0:0|0:0,0:0:0:0:
64,236,14953,2,0,P|44:288|60:360,1,120,0|2,0:0|0:2,0:0:0:0:
88,340,15445,1,0,0:0:0:0:
88,340,15609,2,0,L|228:360,1,120,8|2,0:2|0:2,0:0:0:0:
232,340,16101,1,8,0:0:0:0:
352,348,16429,2,0,P|364:320|360:268,1,60,0|2,0:0|0:0,0:0:0:0:
288,208,16920,37,2,3:0:0:0:
288,208,17084,2,0,P|340:180|404:188,1,120,4|8,0:0|0:0,0:0:0:0:
488,104,17740,2,0,P|432:72|356:76,1,120,0|8,0:0|0:0,0:0:0:0:
348,84,18232,2,0,L|212:56,1,120,2|2,0:2|0:2,0:0:0:0:
204,72,18724,1,8,0:0:0:0:
92,108,19052,2,0,P|80:76|88:40,2,60,0|2|8,0:0|0:0|0:0,0:0:0:0:
160,208,19707,6,0,P|136:268|144:336,1,120,2|8,0:0|0:0,0:0:0:0:
256,360,20363,1,2,0:2:0:0:
304,252,20691,1,8,0:0:0:0:
304,252,20855,2,0,P|324:168|300:80,1,180,2|8,0:2|0:0,0:0:0:0:
404,140,21674,2,0,L|424:208,2,60,0|2|8,0:0|0:0|0:0,0:0:0:0:
496,64,22330,6,0,P|512:172|504:216,1,120,2|8,0:0|0:0,0:0:0:0:
464,292,22986,1,0,0:0:0:0:
344,284,23314,1,8,0:0:0:0:
344,284,23478,2,0,L|192:296,1,120,2|2,0:2|0:2,0:0:0:0:
148,200,24133,2,0,L|300:188,1,120,2|2,0:0|0:0,0:0:0:0:
328,84,24789,6,0,P|268:68|204:92,1,120,0|2,0:0|0:0,0:0:0:0:
188,76,25281,1,8,0:0:0:0:
188,76,25445,2,0,P|116:100|68:84,1,120,0|2,0:0|0:2,0:0:0:0:
8,188,26101,1,0,0:0:0:0:
64,292,26429,1,2,0:2:0:0:
172,236,26756,2,0,L|300:256,1,120,2|0,0:0|0:0,0:0:0:0:
324,260,27248,1,0,0:0:0:0:
436,304,27576,54,0,B|452:276|452:276|428:176,1,120,6|10,0:0|0:0,0:0:0:0:
352,100,28232,2,0,L|336:172,2,60,2|2|10,0:0|0:0|0:0,0:0:0:0:
372,80,28724,2,0,P|312:108|244:104,1,120,2|0,0:0|0:0,0:0:0:0:
144,72,29379,1,2,0:0:0:0:
56,152,29707,2,0,B|44:216|44:216|88:276,1,120,2|0,0:0|0:0,0:0:0:0:
100,280,30199,6,0,B|168:236|168:236|208:260,1,120,2|10,0:0|0:0,0:0:0:0:
304,316,30855,1,2,0:0:0:0:
304,316,31019,2,0,P|336:308|368:276,1,60,2|8,0:0|0:0,0:0:0:0:
360,260,31347,2,0,P|424:268|464:312,1,120,2|2,0:0|0:2,0:0:0:0:
476,188,32002,2,0,L|436:56,1,120,0|2,0:0|0:2,0:0:0:0:
432,44,32494,1,8,0:0:0:0:
324,92,32822,6,0,P|264:92|200:60,1,120,2|10,0:0|0:0,0:0:0:0:
116,144,33478,2,0,L|40:168,2,60,2|2|8,0:0|0:0|0:0,0:0:0:0:
136,168,33970,2,0,P|204:192|232:252,1,120,2|2,0:0|0:0,0:0:0:0:
272,344,34625,2,0,P|336:320|372:260,1,120,2|2,0:0|0:0,0:0:0:0:
344,256,35117,2,0,P|332:228|340:188,1,60,8|0,2:0|0:0,0:0:0:0:
348,172,35445,5,2,0:0:0:0:
444,100,35773,2,0,P|464:160|452:224,1,120,8|2,0:0|0:0,0:0:0:0:
440,240,36265,1,4,0:3:0:0:
340,304,36592,1,10,0:0:0:0:
220,288,36920,2,0,L|140:304,2,60,2|2|2,0:2|0:2|0:0,0:0:0:0:
276,216,37494,2,0,L|296:104,2,90,8|8|8,0:0|0:0|0:0,0:0:0:0:
124,216,38396,6,0,P|128:144|152:88,1,120,8|0,0:0|0:0,0:0:0:0:
256,56,39052,1,8,0:0:0:0:
256,56,39215,2,0,L|376:72,2,120,2|2|2,0:2|0:2|0:2,0:0:0:0:
228,172,40199,2,0,P|248:192|288:200,1,60,2|8,0:2|0:0,0:0:0:0:
304,184,40527,38,0,P|368:196|408:252,1,120
300,296,41183,2,0,L|160:312,1,120,0|2,0:0|0:2,0:0:0:0:
160,336,41674,2,0,P|148:304|160:268,1,60,8|2,0:0|0:2,0:0:0:0:
200,168,42166,2,0,P|204:136|192:104,2,60,2|8|0,0:2|0:0|0:0,0:0:0:0:
324,196,42822,1,2,0:0:0:0:
324,196,42986,2,0,L|292:72,1,120,8|2,0:0|0:1,0:0:0:0:
408,120,43642,6,0,P|472:144|508:204,1,120,8|0,0:0|0:0,0:0:0:0:
428,280,44297,1,8,0:0:0:0:
428,280,44461,2,0,P|360:292|312:328,1,120,0|2,0:0|0:2,0:0:0:0:
296,344,44953,2,0,P|264:336|232:304,1,60,8|0,0:0|0:0,0:0:0:0:
208,204,45445,2,0,P|199:169|192:128,2,60,2|8|2,0:2|0:0|0:0,0:0:0:0:
136,300,46101,5,0,0:0:0:0:
40,232,46429,2,0,P|36:168|64:108,1,120,0|2,0:0|0:2,0:0:0:0:
88,108,46920,1,2,0:2:0:0:
88,108,47084,2,0,L|216:92,1,120,8|2,0:0|0:2,0:0:0:0:
328,80,47740,1,2,0:2:0:0:
428,144,48068,2,0,P|424:188|408:220,1,60,2|8,0:2|0:0,0:0:0:0:
408,232,48396,5,2,0:0:0:0:
408,232,48560,2,0,P|336:200|280:212,1,120,4|8,0:0|0:0,0:0:0:0:
268,220,49052,1,0,0:0:0:0:
268,220,49215,2,0,P|196:224|144:192,1,120,0|8,0:0|0:0,0:0:0:0:
64,280,49871,2,0,L|28:148,1,120,0|8,0:0|0:0,0:0:0:0:
72,172,50363,1,0,0:0:0:0:
72,172,50527,2,0,P|104:108|144:64,1,120,0|8,0:0|0:0,0:0:0:0:
252,48,51183,6,0,P|320:52|368:96,1,120,2|8,0:2|0:0,0:0:0:0:
356,112,51674,2,0,P|364:148|388:176,1,60,2|2,0:2|0:2,0:0:0:0:
480,228,52166,1,8,0:0:0:0:
480,228,52330,2,0,P|432:264|364:252,1,120,2|2,0:2|0:2,0:0:0:0:
284,180,52986,2,0,P|216:168|172:196,1,120,0|2,0:0|0:0,0:0:0:0:
156,212,53478,1,8,0:0:0:0:
96,316,53806,38,0,L|48:184,2,120,2|8|0,0:2|0:0|0:2,0:0:0:0:
212,288,54789,2,0,P|244:300|276:296,1,60,8|0,0:0|0:0,0:0:0:0:
388,312,55281,2,0,P|420:300|460:304,1,60,2|8,0:2|0:0,0:0:0:0:
476,308,55609,2,0,P|504:256|484:196,1,120,2|2,0:2|0:2,0:0:0:0:
464,180,56101,2,0,L|488:112,1,60,8|0,0:0|0:0,0:0:0:0:
384,56,56592,5,2,0:2:0:0:
272,92,56920,2,0,P|212:104|144:120,1,120,0|8,0:0|0:3,0:0:0:0:
124,128,57412,1,4,0:3:0:0:
96,136,57576,6,0,P|80:200|56:272,1,120,10|10,0:2|0:0,0:0:0:0:
184,236,58231,2,0,P|168:300|144:372,1,120,2|2,0:0|0:0,0:0:0:0:
160,360,58723,1,0,0:0:0:0:
168,368,58887,6,0,P|240:352|312:348,1,120,2|10,0:0|0:0,0:0:0:0:
312,232,59543,2,0,P|372:220|440:216,1,120,10|10,0:0|0:0,0:0:0:0:
464,216,60035,1,0,0:0:0:0:
464,216,60198,1,10,0:0:0:0:
436,100,60526,1,10,0:0:0:0:
316,112,60854,22,0,P|228:120|104:124,1,180,6|10,1:0|0:0,0:0:0:0:
68,224,61673,2,0,P|128:220|200:220,1,120,2|8,0:0|0:0,0:0:0:0:
216,224,62165,1,2,0:0:0:0:
216,224,62329,2,0,P|284:224|404:212,1,180,2|2,0:1|0:0,0:0:0:0:
480,128,63149,2,0,P|488:96|484:52,2,60,2|8|6,0:2|0:0|0:0,0:0:0:0:
500,248,63804,5,2,0:0:0:0:
500,248,63968,2,0,P|444:284|420:356,1,120,10|2,0:0|0:2,0:0:0:0:
316,276,64624,1,10,0:0:0:0:
204,312,64952,2,0,P|120:284|100:232,1,120,2|8,0:0|0:0,0:0:0:0:
96,232,65444,2,0,P|124:172|136:68,1,120,2|2,0:0|0:2,0:0:0:0:
120,96,65936,2,0,P|132:68|168:48,1,60,10|4,0:0|0:0,0:0:0:0:
252,124,66427,85,0,0:0:0:0:
252,124,66591,2,0,P|308:96|384:100,2,120,8|2|8,0:0|0:0|0:0,0:0:0:0:
336,208,67575,2,0,L|476:240,1,120,2|8,0:2|0:0,0:0:0:0:
380,332,68231,1,2,0:0:0:0:
380,332,68395,2,0,P|340:352|308:352,1,60,0|8,0:0|0:0,0:0:0:0:
300,332,68722,6,0,P|240:280|136:296,1,180,6|10,0:0|0:0,0:0:0:0:
36,344,69542,2,0,P|8:288|24:224,1,120,0|10,0:0|0:0,0:0:0:0:
36,208,70034,1,2,0:0:0:0:
36,208,70198,2,0,L|80:80,1,120,4|8,0:2|0:0,0:0:0:0:
168,168,70854,2,0,P|211:146|272:140,1,90,8|8,0:0|0:0,0:0:0:0:
336,172,71345,86,0,P|372:136|360:68,1,120,6|2,0:0|0:0,0:0:0:0:
344,48,71837,1,8,0:0:0:0:
224,60,72165,2,0,P|188:56|160:32,2,60,2|0|10,0:0|0:0|0:0,0:0:0:0:
172,168,72821,2,0,P|100:184|56:220,1,120,2|10,0:2|0:0,0:0:0:0:
52,240,73313,1,2,0:2:0:0:
136,324,73640,1,2,0:1:0:0:
228,244,73968,6,0,P|288:252|340:312,1,120,6|2,0:0|0:0,0:0:0:0:
344,320,74460,1,8,0:0:0:0:
428,232,74788,1,2,0:2:0:0:
428,232,74952,2,0,L|408:164,1,60,2|10,0:2|0:0,0:0:0:0:
432,148,75280,2,0,P|348:100|252:108,1,180,4|8,0:2|0:0,0:0:0:0:
196,200,76099,2,0,P|148:240|84:232,1,120,2|8,0:2|0:0,0:0:0:0:
64,216,76591,86,0,B|32:148|92:84|164:100,1,180,4|8,0:0|0:0,0:0:0:0:
268,104,77411,2,0,P|284:68|276:40,2,60,0|2|8,0:0|0:0|0:0,0:0:0:0:
212,212,78067,2,0,L|244:344,1,120,2|8,0:0|0:0,0:0:0:0:
360,316,78722,2,0,L|420:332,1,60,2|2,0:2|0:2,0:0:0:0:
428,304,79050,2,0,L|368:288,1,60,8|12,0:0|0:0,0:0:0:0:
312,184,79542,5,0,0:0:0:0:
312,184,79706,2,0,P|368:164|436:172,2,120,10|10|10,0:0|0:0|0:0,0:0:0:0:
212,248,80690,2,0,L|168:132,1,120,10|10,0:0|0:0,0:0:0:0:
60,184,81345,2,0,P|36:168|0:160,1,60,10|2,0:0|0:2,0:0:0:0:
256,192,86755,53,2,0:0:0:0:
256,192,87247,2,0,P|188:140|100:168,1,180.000006866455,6|2,0:2|0:0,0:0:0:0:
192,324,88558,2,0,P|232:344|284:336,1,90.0000034332277,0|2,0:0|0:0,0:0:0:0:
360,308,89214,2,0,L|372:216,1,90.0000034332277,0|2,0:0|0:0,0:0:0:0:
392,192,89706,6,0,P|328:184|280:176,1,90.0000034332277,2|2,0:0|0:0,0:0:0:0:
228,132,90362,2,0,P|164:124|116:116,1,90.0000034332277,2|2,0:0|0:0,0:0:0:0:
108,112,90854,2,0,P|104:136|96:168,1,45.0000017166138,0|2,0:0|0:0,0:0:0:0:
88,244,91345,1,0,3:0:0:0:
160,300,91673,1,2,0:0:0:0:
236,252,92001,2,0,P|272:240|296:240,1,45.0000017166138,2|8,0:2|0:0,0:0:0:0:
364,272,92493,86,0,L|408:92,1,180.000006866455,8|2,0:0|3:0,0:0:0:0:
332,48,93477,1,8,0:0:0:0:
332,48,93640,2,0,L|308:144,1,90.0000034332277,0|0,0:0|0:0,0:0:0:0:
244,196,94296,2,0,P|196:192|144:164,1,90.0000034332277,2|2,0:2|0:2,0:0:0:0:
76,208,94952,5,2,0:2:0:0:
76,208,95116,2,0,P|64:280|56:312,1,90.0000034332277,0|0,0:0|0:0,0:0:0:0:
56,328,95608,2,0,P|104:332|156:344,1,90.0000034332277,2|2,0:2|0:2,0:0:0:0:
172,328,96099,2,0,P|198:334|240:336,1,45.0000017166138,8|2,0:0|0:2,0:0:0:0:
296,296,96591,1,2,0:2:0:0:
232,236,96919,1,2,0:2:0:0:
316,204,97247,2,0,P|324:160|296:104,1,90.0000034332277,2|2,0:0|0:2,0:0:0:0:
288,108,97739,38,0,L|80:130,1,180,6|2,0:0|0:0,0:0:0:0:
88,112,98395,2,0,P|84:176|96:240,1,120,2|8,0:2|0:0,0:0:0:0:
92,256,98886,2,0,B|200:236|296:300,1,180,2|0,0:2|0:0,0:0:0:0:
372,336,99706,2,0,P|392:304|388:268,1,60,0|2,0:0|0:1,0:0:0:0:
336,176,100198,5,2,0:0:0:0:
336,176,100362,2,0,P|372:128|456:96,1,120,2|0,0:2|0:0,0:0:0:0:
312,56,101017,2,0,L|240:36,1,60,2|2,3:0|0:2,0:0:0:0:
228,60,101345,1,8,0:0:0:0:
228,60,101509,2,0,P|152:80|108:124,1,120,2|2,0:2|0:1,0:0:0:0:
64,212,102165,1,0,0:0:0:0:
128,312,102493,2,0,L|212:288,1,60,2|8,0:0|0:0,0:0:0:0:
276,216,102985,6,0,L|408:248,2,120,4|8|2,0:2|0:0|0:2,0:0:0:0:
196,128,103968,1,8,0:0:0:0:
196,128,104132,2,0,P|248:104|316:112,1,120,0|2,0:0|0:2,0:0:0:0:
412,48,104788,2,0,P|448:88|460:168,1,120,0|2,0:0|0:1,0:0:0:0:
448,180,105280,5,8,0:0:0:0:
448,180,105444,2,0,L|408:312,1,120,2|2,0:0|0:2,0:0:0:0:
404,324,105936,2,0,P|363:327|336:348,1,60,8|0,0:0|0:0,0:0:0:0:
248,268,106427,2,0,L|268:192,2,60,2|8|10,0:2|0:0|0:2,0:0:0:0:
144,328,107082,53,10,0:0:0:0:
56,244,107410,1,2,0:0:0:0:
108,136,107738,2,0,P|112:100|96:64,2,60,2|0|2,0:0|0:0|0:0,0:0:0:0:
176,236,108394,1,10,0:0:0:0:
220,124,108722,6,0,L|352:96,1,120,10|10,0:0|0:0,0:0:0:0:
364,116,109214,1,0,0:0:0:0:
392,132,109377,1,10,0:0:0:0:
372,252,109705,1,10,0:0:0:0:
484,296,110033,54,0,P|492:236|456:172,1,120,4|2,1:0|0:0,0:0:0:0:
448,164,110524,1,8,0:0:0:0:
328,144,110852,2,0,L|184:116,1,120,2|10,0:1|0:0,0:0:0:0:
92,100,111508,2,0,P|64:152|80:240,1,120,2|8,0:0|0:0,0:0:0:0:
88,240,112000,2,0,P|116:188|100:100,1,120,2|2,0:0|0:0,0:0:0:0:
144,148,112492,2,0,P|168:164|204:168,1,60,8|6,0:0|0:0,0:0:0:0:
308,116,112983,5,0,0:0:0:0:
308,116,113147,2,0,P|376:124|424:164,1,120,10|2,0:0|0:2,0:0:0:0:
396,176,113639,2,0,L|420:248,1,60,2|10,0:2|0:0,0:0:0:0:
324,312,114131,2,0,L|184:280,1,120,4|10,0:2|0:0,0:0:0:0:
180,304,114623,2,0,P|120:308|56:348,1,120,2|2,0:0|0:0,0:0:0:0:
40,220,115278,86,0,L|80:44,1,180,6|8,0:2|0:0,0:0:0:0:
176,120,116098,2,0,P|224:80|292:88,1,120,2|8,0:0|0:0,0:0:0:0:
384,140,116754,2,0,L|400:208,2,60,2|8|4,0:3|0:3|0:3,0:0:0:0:
276,192,117410,1,2,0:2:0:0:
276,192,117574,2,0,L|248:268,1,60,10|8,0:0|0:0,0:0:0:0:
244,276,117901,6,2,P|188:244|104:256,1,120,6|2,0:0|0:0,0:0:0:0:
104,260,118393,1,8,0:0:0:0:
128,144,118721,2,0,P|192:128|232:76,1,120,0|8,0:0|0:0,0:0:0:0:
236,60,119213,2,0,L|372:104,1,120,10|10,0:0|0:0,0:0:0:0:
376,84,119705,1,8,0:0:0:0:
452,180,120033,1,4,3:0:0:0:
452,180,120196,2,0,P|433:210|440:248,1,60,10|8,0:0|0:3,0:0:0:0:
448,264,120524,86,0,P|372:252|288:320,1,180,6|10,1:0|0:0,0:0:0:0:
240,204,121344,2,0,P|200:156|132:136,1,120,2|10,0:0|0:0,0:0:0:0:
140,260,122000,1,2,0:1:0:0:
140,260,122164,2,0,P|136:288|108:336,1,60,2|8,0:2|0:0,0:0:0:0:
104,344,122492,1,2,0:0:0:0:
224,332,122819,1,2,0:2:0:0:
344,332,123147,6,0,P|408:324|480:324,1,120,6|2,0:0|0:2,0:0:0:0:
496,320,123639,1,10,0:0:0:0:
496,320,123803,2,0,P|492:244|496:188,1,120,2|2,0:0|0:1,0:0:0:0:
496,168,124295,1,8,0:0:0:0:
496,168,124459,2,0,P|456:172|420:168,1,60,4|2,0:2|0:0,0:0:0:0:
324,128,124951,1,8,0:0:0:0:
324,128,125115,2,0,P|260:120|192:128,1,120,2|2,0:0|0:2,0:0:0:0:
88,96,125770,86,0,L|108:236,1,120,6|2,0:0|0:1,0:0:0:0:
88,240,126262,2,0,P|144:260|184:328,1,120,8|2,0:0|0:0,0:0:0:0:
296,340,126918,1,10,0:0:0:0:
400,280,127246,2,0,P|424:228|408:144,1,120,2|10,0:1|0:0,0:0:0:0:
408,136,127737,1,2,0:0:0:0:
320,56,128065,2,0,P|284:60|260:80,1,60,2|8,0:1|0:0,0:0:0:0:
248,100,128393,1,6,0:0:0:0:
136,60,128721,5,0,0:0:0:0:
136,60,128885,2,0,L|96:188,2,120,10|10|10,0:0|0:0|0:0,0:0:0:0:
208,156,129869,2,0,L|196:304,1,120,6|10,0:2|0:0,0:0:0:0:
312,232,130524,2,0,L|324:316,1,60,10|4,0:0|0:3,0:0:0:0:
416,364,131016,1,6,0:0:0:0:
256,192,139049,12,0,141508,0:0:0:0:
256,188,142328,5,2,0:0:0:0:
56,320,142983,2,0,L|24:176,1,120,2|8,0:0|0:0,0:0:0:0:
64,84,143639,2,0,P|128:84|172:152,1,120,2|8,0:0|0:0,0:0:0:0:
180,148,144131,6,2,P|252:152|312:56,1,180,2|10,0:0|0:0,0:0:0:0:
420,124,144951,2,0,P|456:120|484:104,2,60,2|2|8,0:0|0:0|0:0,0:0:0:0:
396,144,145442,2,2,L|356:328,1,180,2|8,0:0|0:0,0:0:0:0:
240,296,146262,2,0,P|192:328|116:316,1,120,8|8,0:3|0:0,0:0:0:0:
108,304,146754,6,2,B|96:208|168:240|156:128,1,180,6|10,0:0|0:0,0:0:0:0:
248,60,147574,2,0,P|264:96|260:136,2,60,2|2|8,0:0|0:2|0:0,0:0:0:0:
364,84,148229,2,0,L|484:100,1,120,2|8,0:2|0:0,0:0:0:0:
464,128,148721,1,2,0:2:0:0:
464,128,148885,2,0,P|452:160|460:200,1,60,2|4,0:0|0:3,0:0:0:0:
384,284,149377,6,2,P|368:228|308:168,1,120,6|2,0:0|0:0,0:0:0:0:
304,164,149869,1,10,0:0:0:0:
192,124,150196,1,2,0:1:0:0:
112,212,150524,1,10,0:0:0:0:
224,248,150852,2,0,L|360:276,1,120,2|8,0:0|0:0,0:0:0:0:
452,324,151508,2,0,P|468:300|464:268,1,60,2|2,0:0|0:0,0:0:0:0:
420,168,152000,1,4,0:0:0:0:
108,52,157246,54,0,P|84:104|108:184,1,120,4|8,0:2|0:3,0:0:0:0:
168,260,157901,1,4,0:3:0:0:
168,260,158065,2,0,L|148:332,2,60,8|8|4,0:3|0:3|0:3,0:0:0:0:
252,172,158721,2,0,L|232:96,2,60,8|8|8,0:0|0:0|0:0,0:0:0:0:
356,232,159377,2,0,L|332:312,2,60,8|8|8,0:0|0:0|0:0,0:0:0:0:
468,188,160033,6,0,P|460:108|436:56,2,120,12|12|12,0:3|0:3|0:3,0:0:0:0:
460,220,160852,1,8,0:0:0:0:
444,248,161016,2,0,P|432:288|436:328,1,60,8|8,0:0|0:0,0:0:0:0:
420,336,161344,2,0,P|360:352|308:360,1,90,2|2,0:0|0:0,0:0:0:0:
252,316,161836,1,0,0:0:0:0:
252,316,162000,2,0,P|208:320|176:340,1,60,2|2,0:0|0:0,0:0:0:0:
76,356,162492,54,0,P|40:308|56:232,1,120,6|2,0:0|0:0,0:0:0:0:
64,228,162983,1,8,0:0:0:0:
40,112,163311,2,0,P|100:92|172:84,1,120,2|10,0:0|0:0,0:0:0:0:
188,100,163803,1,2,0:2:0:0:
188,100,163967,2,0,P|260:88|316:72,1,120,2|10,0:2|0:0,0:0:0:0:
328,80,164459,2,0,P|392:96|428:148,1,120,2|2,0:2|0:1,0:0:0:0:
456,252,165115,5,6,0:0:0:0:
352,196,165442,1,2,0:0:0:0:
352,196,165606,2,0,P|288:204|240:244,1,120,8|2,0:0|0:2,0:0:0:0:
144,304,166262,2,0,P|108:304|80:284,1,60,10|4,0:0|0:2,0:0:0:0:
56,288,166590,2,0,P|112:264|152:196,1,120,2|8,0:0|0:0,0:0:0:0:
128,192,167082,2,0,L|108:68,1,120,2|2,0:0|0:0,0:0:0:0:
224,104,167737,85,4,0:0:0:0:
324,44,168065,2,0,L|404:60,1,60,2|8,0:0|0:0,0:0:0:0:
400,176,168557,2,0,L|416:248,2,60,2|2|8,0:0|0:0|0:0,0:0:0:0:
280,152,169213,2,0,L|288:272,1,120,2|10,0:0|0:0,0:0:0:0:
168,252,169869,1,2,0:2:0:0:
168,252,170033,2,0,L|156:328,1,60,2|8,0:2|0:0,0:0:0:0:
140,336,170360,6,0,L|120:188,1,120,14|0,0:0|0:2,0:0:0:0:
120,184,170852,1,8,0:0:0:0:
232,136,171180,2,0,P|244:100|240:56,2,60,8|0|8,0:0|0:0|0:0,0:0:0:0:
268,252,171836,2,0,P|320:220|384:216,1,120,14|10,0:0|0:0,0:0:0:0:
444,116,172492,2,0,L|480:44,2,60,8|10|8,0:0|0:0|0:0,0:0:0:0:
448,148,172983,86,0,P|376:80|264:84,1,180,4|8,0:0|0:0,0:0:0:0:
192,128,173803,2,0,P|120:128|72:92,1,120,8|8,0:0|0:0,0:0:0:0:
64,84,174295,1,2,0:2:0:0:
48,64,174459,2,0,L|28:192,1,120,8|8,0:0|0:0,0:0:0:0:
124,256,175115,2,0,L|136:344,1,60,8|2,0:0|0:2,0:0:0:0:
144,352,175442,5,8,0:0:0:0:
144,352,175606,2,0,P|208:292|300:312,1,180,4|8,0:0|0:0,0:0:0:0:
400,360,176426,2,0,P|432:304|420:244,1,120,8|8,0:0|0:0,0:0:0:0:
400,228,176918,1,0,0:0:0:0:
400,228,177082,1,12,0:3:0:0:
412,108,177410,1,12,0:3:0:0:
304,156,177737,2,0,P|272:164|236:164,1,60,10|10,0:0|0:0,0:0:0:0:
256,192,178065,12,0,179377,0:0:0:0:
