osu file format v14

[General]
AudioFilename: audio.mp3
AudioLeadIn: 0
PreviewTime: 151100
Countdown: 0
SampleSet: Normal
StackLeniency: 0.4
Mode: 0
LetterboxInBreaks: 0
WidescreenStoryboard: 1

[Editor]
DistanceSpacing: 0.7
BeatDivisor: 4
GridSize: 4
TimelineZoom: 1.1

[Metadata]
Title:twoface
TitleUnicode:twoface
Artist:Aimer
ArtistUnicode:Aimer
Creator:Delis
Version:Insane
Source:
Tags:shirohamymommy japanese rock
BeatmapID:2922036
BeatmapSetID:1351981

[Difficulty]
HPDrainRate:6
CircleSize:4
OverallDifficulty:8
ApproachRate:9
SliderMultiplier:1.7
SliderTickRate:1

[Events]
//Background and Video events
0,0,"BG.jpg",0,0
//Break Periods
//Storyboard Layer 0 (Background)
//Storyboard Layer 1 (Fail)
//Storyboard Layer 2 (Pass)
//Storyboard Layer 3 (Foreground)
//Storyboard Layer 4 (Overlay)
//Storyboard Sound Samples

[TimingPoints]
200,327.868852459016,4,1,2,50,1,0
200,-125,4,1,2,50,0,0
6429,-125,4,1,1,60,0,0
6511,-125,4,1,1,5,0,0
6593,327.868852459016,4,1,1,60,1,0
7412,-100,4,1,2,60,0,0
7576,-100,4,1,1,60,0,0
10363,-100,4,1,2,60,0,0
10691,-100,4,1,1,60,0,0
13724,-100,4,1,2,60,0,0
13888,-100,4,1,1,60,0,0
15773,-100,4,1,1,5,0,0
15937,-100,4,1,1,60,0,0
16265,-100,4,1,2,60,0,0
16429,-100,4,1,1,60,0,0
20363,-100,4,1,2,60,0,0
20527,-100,4,1,1,60,0,0
21183,-100,4,1,2,60,0,0
21347,-100,4,1,1,60,0,0
23150,-100,4,1,2,60,0,0
23314,-100,4,1,1,60,0,0
24133,-100,4,1,2,60,0,0
24297,-100,4,1,1,60,0,0
26101,-125,4,1,1,60,0,0
27576,-83.3333333333333,4,1,1,60,0,0
27658,-83.3333333333333,4,1,1,10,0,0
27740,-83.3333333333333,4,1,1,60,0,0
27822,-83.3333333333333,4,1,1,10,0,0
27904,-83.3333333333333,4,1,1,60,0,0
27986,-83.3333333333333,4,1,1,10,0,0
28068,-83.3333333333333,4,1,1,60,0,0
28150,-83.3333333333333,4,1,1,10,0,0
28232,-83.3333333333333,4,1,1,60,0,0
28314,-83.3333333333333,4,1,1,10,0,0
28396,-83.3333333333333,4,1,1,60,0,0
28478,-83.3333333333333,4,1,1,10,0,0
28560,-83.3333333333333,4,1,1,60,0,0
28642,-83.3333333333333,4,1,1,10,0,0
28724,-83.3333333333333,4,1,1,60,0,0
28970,-83.3333333333333,4,1,1,10,0,0
29052,-83.3333333333333,4,1,1,60,0,0
29133,-83.3333333333333,4,1,1,10,0,0
29215,-83.3333333333333,4,1,1,60,0,0
29297,-83.3333333333333,4,1,1,10,0,0
29379,-83.3333333333333,4,1,1,60,0,0
29625,-83.3333333333333,4,1,1,10,0,0
29707,-83.3333333333333,4,1,1,60,0,0
29789,-83.3333333333333,4,1,1,10,0,0
29871,-83.3333333333333,4,1,1,60,0,0
29953,-83.3333333333333,4,1,1,10,0,0
30035,-83.3333333333333,4,1,1,60,0,0
30281,-83.3333333333333,4,1,1,10,0,0
30363,-83.3333333333333,4,1,1,60,0,0
30445,-83.3333333333333,4,1,1,10,0,0
30527,-83.3333333333333,4,1,1,60,0,0
30609,-83.3333333333333,4,1,1,10,0,0
30691,-83.3333333333333,4,1,1,60,0,0
30937,-83.3333333333333,4,1,1,10,0,0
31019,-83.3333333333333,4,1,1,60,0,0
31756,-83.3333333333333,4,1,1,10,0,0
31838,-83.3333333333333,4,1,1,60,0,0
31920,-83.3333333333333,4,1,1,10,0,0
32002,-66.6666666666667,4,1,1,60,0,0
32412,-66.6666666666667,4,1,1,10,0,0
32494,-66.6666666666667,4,1,1,60,0,0
32576,-66.6666666666667,4,1,1,10,0,0
32658,-66.6666666666667,4,1,1,60,0,0
32822,-83.3333333333333,4,1,1,60,0,0
36511,-83.3333333333333,4,1,1,10,0,0
36592,-83.3333333333333,4,1,1,60,0,0
36838,-83.3333333333333,4,1,1,10,0,0
36920,-83.3333333333333,4,1,1,60,0,0
37002,-83.3333333333333,4,1,1,10,0,0
37084,-83.3333333333333,4,1,1,60,0,0
37166,-83.3333333333333,4,1,1,10,0,0
37248,-83.3333333333333,4,1,1,60,0,0
38068,-100,4,1,1,60,0,0
38888,-100,4,1,2,60,0,0
39052,-100,4,1,1,60,0,0
39789,-100,4,1,2,60,0,0
39953,-100,4,1,1,60,0,0
41838,-100,4,1,2,60,0,0
42166,-100,4,1,1,60,0,0
45773,-100,4,1,2,60,0,0
45937,-100,4,1,1,60,0,0
46838,-100,4,1,2,60,0,0
47002,-100,4,1,1,60,0,0
47740,-100,4,1,2,60,0,0
47904,-100,4,1,1,60,0,0
51674,-100,4,1,2,60,0,0
52002,-100,4,1,1,60,0,0
52658,-100,4,1,2,60,0,0
52822,-100,4,1,1,60,0,0
55609,-100,4,1,2,60,0,0
55855,-100,4,1,1,60,0,0
57576,327.868852459016,4,1,1,60,1,0
60854,-100,4,1,1,70,0,0
61018,327.868852459016,4,1,1,70,1,0
68395,-133.333333333333,4,1,1,70,0,0
68722,-100,4,1,1,70,0,0
72575,-100,4,1,2,70,0,0
72739,-100,4,1,1,70,0,0
73231,-100,4,1,2,70,0,0
73395,-100,4,1,1,70,0,0
78722,-100,4,1,2,70,0,0
78886,-100,4,1,1,70,0,0
81509,-100,4,1,2,70,0,0
81837,-100,4,1,2,20,0,0
82001,-100,4,1,1,60,0,0
83804,-100,4,1,2,60,0,0
84132,-100,4,1,1,60,0,0
86673,-100,4,1,1,20,0,0
86755,-100,4,1,1,60,0,0
87247,-200,4,2,2,50,0,0
92001,-200,4,2,1,50,0,0
92329,-200,4,2,2,50,0,0
92493,-200,4,2,1,50,0,0
92656,-100,4,2,1,50,0,0
92739,-100,4,2,2,50,0,0
92903,-100,4,2,1,50,0,0
93640,-100,4,1,1,60,0,0
97247,-133.333333333333,4,1,1,60,0,0
97575,-133.333333333333,4,1,2,60,0,0
97739,-83.3333333333333,4,1,1,60,0,0
98395,-100,4,1,1,60,0,0
98559,-100,4,1,2,60,0,0
98723,-100,4,1,1,60,0,0
99050,-125,4,1,1,60,0,0
99706,-166.666666666667,4,1,1,60,0,0
101017,-100,4,1,1,60,0,0
101673,-100,4,1,2,60,0,0
101837,-100,4,1,1,60,0,0
105444,-100,4,1,2,60,0,0
105608,-100,4,1,1,60,0,0
106755,327.868852459016,4,1,1,60,1,0
109705,-133.333333333333,4,1,1,60,0,0
110033,-100,4,1,1,70,0,0
110197,327.868852459016,4,1,1,70,1,0
115278,-100,4,1,2,70,0,0
115524,-100,4,1,1,70,0,0
124049,-100,4,1,1,5,0,0
124131,-100,4,1,1,70,0,0
124213,-100,4,1,1,5,0,0
124295,-100,4,1,1,70,0,0
124377,-100,4,1,1,5,0,0
124459,-100,4,1,1,70,0,0
130688,-76.9230769230769,4,1,1,70,0,0
130934,-76.9230769230769,4,1,1,10,0,0
131016,-83.3333333333333,4,1,1,70,0,0
131508,-100,4,1,1,60,0,0
132000,-83.3333333333333,4,1,1,60,0,0
132492,-125,4,1,1,60,0,0
133147,-200,4,1,1,60,0,0
133639,-100,4,1,1,60,0,0
133967,-83.3333333333333,4,1,1,60,0,0
134459,-100,4,1,1,60,0,0
135115,-83.3333333333333,4,1,1,60,0,0
136344,-83.3333333333333,4,1,1,5,0,0
136426,-100,4,1,1,60,0,0
140442,-100,4,1,1,5,0,0
140524,-100,4,1,1,60,0,0
141508,-83.3333333333333,4,1,1,60,0,0
148147,-83.3333333333333,4,1,2,60,0,0
148393,-83.3333333333333,4,1,1,60,0,0
148721,-83.3333333333333,4,1,2,60,0,0
148885,-83.3333333333333,4,1,1,60,0,0
151836,-83.3333333333333,4,1,1,20,0,0
152000,-125,4,2,2,60,0,0
153967,-200,4,2,2,60,0,0
154295,-125,4,2,2,60,0,0
157246,-100,4,1,1,60,0,0
162492,-83.3333333333333,4,1,1,70,0,0
163722,-83.3333333333333,4,1,2,70,0,0
163886,-83.3333333333333,4,1,1,70,0,0
164378,-83.3333333333333,4,1,2,70,0,0
164542,-83.3333333333333,4,1,1,70,0,0
169869,-83.3333333333333,4,1,2,70,0,0
170033,-83.3333333333333,4,1,1,70,0,0
178065,-83.3333333333333,4,2,1,5,0,0

[Colours]
Combo1 : 213,206,132
Combo2 : 122,158,211
Combo3 : 182,118,220
Combo4 : 179,209,169
Combo5 : 196,193,185
Combo6 : 242,91,96
Combo7 : 183,103,91

[HitObjects]
36,344,200,5,0,0:0:0:0:
36,344,363,2,0,L|132:332,1,68,0|0,0:0|0:0,0:0:0:0:
172,292,1183,1,0,0:0:0:0:
172,292,1347,2,0,L|268:280,1,68,0|0,0:0|0:0,0:0:0:0:
304,244,2167,1,0,0:0:0:0:
304,244,2331,2,0,L|400:232,1,68,0|0,0:0|0:0,0:0:0:0:
436,188,3150,1,0,0:0:0:0:
436,188,3314,2,0,L|532:176,1,68,0|0,0:0|0:0,0:0:0:0:
503,179,4134,5,0,0:0:0:0:
503,179,4298,2,0,L|407:191,1,68
436,188,5118,5,0,0:0:0:0:
436,188,5281,2,0,L|532:176,1,68,2|0,0:3|0:0,0:0:0:0:
348,200,5609,5,2,0:3:0:0:
268,212,5937,1,2,0:3:0:0:
192,224,6265,1,2,0:3:0:0:
312,280,6429,1,2,0:0:0:0:
304,136,6593,2,0,P|236:80|144:104,1,170,4|8,0:0|0:0,0:0:0:0:
160,92,7248,37,0,0:0:0:0:
184,184,7412,1,2,0:2:0:0:
88,156,7576,1,8,0:0:0:0:
122,242,7740,1,6,0:2:0:0:
122,242,8068,2,0,P|170:194|198:174,1,85,2|8,0:2|0:0,0:0:0:0:
204,268,8396,2,0,P|248:280|308:280,1,85,0|0,0:0|0:0,0:0:0:0:
260,200,8724,5,2,0:0:0:0:
368,276,8888,1,8,0:0:0:0:
384,144,9052,1,0,0:0:0:0:
384,144,9133,1,0,0:0:0:0:
384,144,9215,2,0,P|436:124|492:112,1,85,2|0,0:2|0:0,0:0:0:0:
336,204,9543,1,8,0:0:0:0:
260,200,9707,2,0,P|176:180|100:140,1,170,0|2,0:0|0:2,0:0:0:0:
102,141,10199,1,8,0:0:0:0:
152,252,10363,6,0,L|192:340,1,85,2|0,0:2|0:0,0:0:0:0:
187,329,10691,1,2,0:2:0:0:
152,252,10855,1,8,0:0:0:0:
256,256,11019,2,0,P|248:204|252:152,1,85,0|2,0:0|0:2,0:0:0:0:
332,208,11347,1,2,0:0:0:0:
248,92,11511,1,8,0:0:0:0:
376,132,11674,1,2,3:0:0:0:
376,132,11756,1,0,0:0:0:0:
376,132,11838,1,2,0:0:0:0:
120,128,12166,6,0,P|72:136|24:144,1,85,8|0,0:0|0:0,0:0:0:0:
152,208,12494,2,0,P|104:216|56:224,1,85,0|2,0:0|0:2,0:0:0:0:
68,221,12822,1,8,0:0:0:0:
232,192,12986,1,2,0:2:0:0:
232,192,13314,2,0,P|244:244|260:296,1,85,2|8,0:2|0:0,0:0:0:0:
212,112,13642,1,0,0:0:0:0:
212,112,13970,2,0,P|268:100|312:88,1,85,2|8,0:0|0:0,0:0:0:0:
348,248,14297,5,0,0:0:0:0:
368,328,14461,1,2,0:0:0:0:
288,320,14625,2,0,P|224:284|124:292,1,170,2|0,0:0|0:0,0:0:0:0:
129,289,15035,1,0,0:0:0:0:
129,289,15117,1,8,1:2:0:0:
56,256,15281,2,0,P|32:212|44:172,1,85,2|0,0:2|0:0,0:0:0:0:
112,204,15609,2,0,L|292:232,1,170,8|2,0:2|0:2,0:0:0:0:
356,244,16101,1,8,0:0:0:0:
432,260,16265,1,2,0:2:0:0:
376,320,16429,38,0,L|288:328,3,85,0|2|8|2,0:0|0:0|0:0|3:0,0:0:0:0:
264,316,17002,1,2,3:0:0:0:
244,308,17084,2,0,L|64:324,1,170,4|8,0:0|0:0,0:0:0:0:
52,152,17740,2,0,P|136:144|224:136,1,170,0|8,0:0|0:0,0:0:0:0:
288,168,18232,2,0,P|296:124|276:84,1,85,2|0,0:2|0:0,0:0:0:0:
336,236,18560,2,0,P|388:188|488:152,1,170,2|0,0:2|0:0,0:0:0:0:
396,100,19052,2,0,L|416:52,2,42.5,0|0|2,0:0|2:0|0:0,0:0:0:0:
336,236,19379,6,0,L|364:332,1,85,8|0,0:0|0:0,0:0:0:0:
376,324,19625,1,0,0:0:0:0:
392,332,19707,1,2,0:0:0:0:
304,368,19871,1,2,0:0:0:0:
228,320,20035,1,8,0:0:0:0:
148,352,20199,2,0,P|100:364|48:368,2,85,0|2|2,0:0|0:2|0:2,0:0:0:0:
272,252,20691,5,8,0:0:0:0:
228,320,20855,2,0,P|184:288|156:244,1,85,2|0,0:2|0:0,0:0:0:0:
340,148,21183,1,2,0:2:0:0:
272,252,21347,5,8,0:0:0:0:
248,168,21511,2,0,P|256:108|284:64,1,85,0|0,0:0|0:0,0:0:0:0:
352,240,21838,1,2,0:0:0:0:
244,328,22002,2,0,L|124:348,1,85,8|2,0:0|3:0,0:0:0:0:
324,316,22330,6,0,P|416:328|484:364,1,170,2|8,0:0|0:0,0:0:0:0:
292,204,22986,2,0,P|388:268|432:340,1,170,0|8,0:0|0:0,0:0:0:0:
416,192,23478,2,0,L|400:84,1,85,2|0,0:2|0:0,0:0:0:0:
328,164,23806,1,2,0:2:0:0:
328,164,23970,1,8,0:0:0:0:
184,92,24133,37,2,0:0:0:0:
184,92,24215,1,0,2:0:0:0:
184,92,24297,2,0,L|272:80,2,85,0|2|8,0:0|0:0|0:0,0:0:0:0:
124,148,24789,2,0,P|88:136|72:124,2,42.5,0|0|2,0:0|0:0|0:0,0:0:0:0:
104,228,25117,2,0,P|176:212|216:192,1,85,2|8,0:0|0:0,0:0:0:0:
256,280,25445,1,0,0:0:0:0:
256,280,25527,2,0,P|288:220|288:176,1,85,0|0,0:0|0:0,0:0:0:0:
280,164,25773,5,2,0:2:0:0:
228,104,25937,1,4,0:3:0:0:
304,88,26101,2,0,P|360:92|424:40,2,136,0|2|2,0:0|0:2|0:0,0:0:0:0:
100,48,27084,1,0,0:0:0:0:
136,116,27248,1,0,0:0:0:0:
428,360,27494,5,2,0:0:0:0:
428,360,27576,2,0,P|428:296|404:148,2,203.999993774414,6|10|2,0:0|0:0|0:0,0:0:0:0:
340,256,28396,2,0,P|332:324|316:372,1,101.999996887207,2|10,0:0|0:0,0:0:0:0:
248,276,28724,2,0,P|244:172|196:60,1,203.999993774414,2|0,0:0|0:0,0:0:0:0:
164,176,29215,1,8,0:0:0:0:
260,136,29379,2,0,P|152:96|48:88,1,203.999993774414,2|2,0:0|0:0,0:0:0:0:
4,144,29871,1,8,0:0:0:0:
80,272,30035,5,0,0:0:0:0:
80,272,30117,1,0,0:0:0:0:
80,272,30199,2,0,L|188:248,1,101.999996887207,2|2,0:0|0:0,0:0:0:0:
168,336,30527,2,0,P|240:348|328:372,1,152.999995330811,10|0,0:0|0:0,0:0:0:0:
288,336,30855,1,2,0:0:0:0:
384,328,31019,2,0,P|440:312|492:284,1,101.999996887207,2|8,0:0|0:0,0:0:0:0:
328,256,31347,6,0,P|344:196|260:232,1,203.999993774414,2|2,0:0|0:2,0:0:0:0:
264,312,31838,1,8,0:0:0:0:
328,256,32002,38,2,P|329:158|260:231,1,255.000009727478,2|2,0:0|0:2,0:0:0:0:
340,340,32494,1,8,0:0:0:0:
136,56,32822,6,0,P|80:64|24:84,1,101.999996887207,2|0,0:0|0:0,0:0:0:0:
108,144,33150,2,0,P|192:136|268:104,1,152.999995330811,10|0,0:0|2:0,0:0:0:0:
284,80,33478,1,2,0:0:0:0:
360,136,33642,1,2,0:0:0:0:
360,136,33806,1,8,0:0:0:0:
284,80,33970,6,0,L|232:232,1,152.999995330811,2|0,0:0|2:0,0:0:0:0:
236,248,34297,2,0,P|256:224|268:152,1,101.999996887207,2|8,0:0|0:0,0:0:0:0:
160,172,34625,1,2,0:0:0:0:
160,172,34707,1,0,0:0:0:0:
160,172,34789,1,0,0:0:0:0:
92,240,34953,1,2,0:0:0:0:
156,320,35117,2,0,P|204:344|260:336,1,101.999996887207,8|0,2:0|0:0,0:0:0:0:
320,288,35445,5,2,0:0:0:0:
320,288,35609,1,2,0:0:0:0:
288,192,35773,1,8,0:0:0:0:
416,316,35937,5,0,0:0:0:0:
416,316,36019,1,0,0:0:0:0:
416,316,36101,1,2,0:0:0:0:
228,268,36265,1,4,0:3:0:0:
228,268,36592,2,0,P|180:244|116:248,1,101.999996887207,10|0,0:0|0:0,0:0:0:0:
68,296,36920,37,2,0:2:0:0:
52,200,37084,1,2,0:2:0:0:
36,104,37248,2,0,P|84:80|148:80,1,101.999996887207,2|0,0:0|0:0,0:0:0:0:
160,84,37494,2,0,P|220:80|260:56,1,101.999996887207,8|0,0:0|0:0,0:0:0:0:
276,44,37740,1,8,0:0:0:0:
344,92,37904,1,0,0:0:0:0:
352,68,37986,1,8,0:0:0:0:
496,116,38232,5,0,0:0:0:0:
432,60,38396,2,0,L|468:252,1,170,8|0,0:0|0:0,0:0:0:0:
424,296,38888,1,2,0:2:0:0:
424,296,39052,1,8,0:0:0:0:
280,240,39215,1,2,0:2:0:0:
280,240,39543,2,0,P|320:224|352:172,1,85,2|8,0:2|0:0,0:0:0:0:
220,312,39871,1,2,0:2:0:0:
220,312,40199,2,0,P|180:328|148:380,1,85,2|8,0:2|0:0,0:0:0:0:
192,228,40527,5,0,0:0:0:0:
192,228,40609,1,0,0:0:0:0:
192,228,40691,2,0,P|176:172|176:60,1,170,2|8,0:2|0:0,0:0:0:0:
100,184,41183,1,0,0:0:0:0:
100,184,41265,1,0,0:0:0:0:
100,184,41347,2,0,P|64:212|0:212,1,85,0|2,0:0|0:2,0:0:0:0:
92,96,41674,1,8,0:0:0:0:
264,172,41838,6,0,L|352:192,1,85,2|2,0:2|0:2,0:0:0:0:
180,168,42166,2,0,L|216:256,1,85,2|8,0:2|0:0,0:0:0:0:
256,82,42494,2,0,L|208:258,1,170,0|2,0:0|0:0,0:0:0:0:
140,308,42986,2,0,P|192:316|228:340,1,85,8|2,0:0|3:3,0:0:0:0:
292,304,43314,1,2,0:1:0:0:
104,100,43642,6,0,P|200:88|288:56,1,170,8|0,0:0|0:0,0:0:0:0:
260,152,44133,1,2,0:2:0:0:
180,136,44297,1,8,0:0:0:0:
244,240,44461,2,0,P|296:232|340:220,1,85,0|0,0:0|0:0,0:0:0:0:
327,223,44789,2,0,P|335:275|347:319,1,85,2|8,0:2|0:0,0:0:0:0:
343,306,45117,2,0,P|260:324|156:336,1,170,0|2,0:0|0:2,0:0:0:0:
96,304,45609,1,8,0:0:0:0:
188,188,45773,38,0,P|144:160|80:168,1,85,2|2,0:0|0:2,0:0:0:0:
124,232,46101,1,0,0:0:0:0:
184,96,46265,1,8,0:0:0:0:
268,232,46429,1,0,0:0:0:0:
268,232,46511,1,8,0:2:0:0:
268,232,46592,2,0,P|316:224|348:188,1,85,8|2,0:2|0:2,0:0:0:0:
360,128,46920,1,2,0:2:0:0:
336,304,47084,6,0,P|268:256|168:260,1,170,8|2,0:0|0:2,0:0:0:0:
128,320,47576,1,8,0:0:0:0:
212,340,47740,1,2,0:2:0:0:
183,254,47904,2,0,L|155:158,1,85,0|2,0:0|0:2,0:0:0:0:
132,100,48232,1,8,0:0:0:0:
40,216,48396,5,2,0:0:0:0:
40,216,48478,1,0,0:0:0:0:
40,216,48560,2,0,B|28:256|28:256|92:324|92:324|132:316,1,170,4|8,0:0|0:0,0:0:0:0:
152,244,49052,1,0,0:0:0:0:
204,340,49215,2,0,B|212:300|212:300|300:280|300:280|332:312,1,170,0|8,0:0|0:0,0:0:0:0:
296,380,49707,1,2,0:2:0:0:
408,348,49871,6,0,B|424:316|424:316|404:220|404:220|428:180,1,170,0|8,0:0|0:0,0:0:0:0:
472,128,50363,1,0,0:0:0:0:
344,160,50527,2,0,P|296:168|244:180,1,85,0|2,0:0|0:0,0:0:0:0:
224,100,50855,2,0,P|268:92|324:80,1,85,8|0,0:0|0:0,0:0:0:0:
176,172,51183,6,0,B|156:200|156:200|72:140|72:140|92:108,1,170,2|8,0:2|0:0,0:0:0:0:
80,248,51674,1,2,0:2:0:0:
80,248,51756,1,2,0:2:0:0:
80,248,51838,2,0,L|112:344,1,85,2|2,0:2|0:2,0:0:0:0:
106,328,52166,1,8,0:0:0:0:
232,248,52330,37,2,0:2:0:0:
232,248,52658,1,2,0:2:0:0:
296,320,52822,1,8,0:0:0:0:
332,232,52986,2,0,P|348:160|356:112,1,85,0|0,0:0|0:0,0:0:0:0:
232,248,53314,1,2,0:0:0:0:
364,352,53478,2,0,P|416:340|464:332,1,85,8|2,0:0|0:0,0:0:0:0:
478,260,53806,6,0,P|414:212|318:244,1,170,2|8,0:2|0:0,0:0:0:0:
280,296,54297,1,0,0:0:0:0:
208,336,54461,1,0,0:2:0:0:
124,336,54625,1,2,0:2:0:0:
52,304,54789,1,8,0:0:0:0:
52,304,54953,2,0,P|56:248|56:208,1,85,0|0,0:0|0:0,0:0:0:0:
120,168,55281,1,2,0:2:0:0:
120,168,55445,1,8,0:0:0:0:
232,96,55609,2,0,P|228:152|228:192,1,85,2|2,0:2|0:2,0:0:0:0:
172,244,55937,1,2,0:2:0:0:
172,244,56101,1,8,0:0:0:0:
236,348,56265,6,0,P|292:356|348:352,1,85,0|2,0:0|0:0,0:0:0:0:
380,300,56592,1,2,0:2:0:0:
292,280,56756,1,8,0:0:0:0:
448,256,56920,1,0,0:0:0:0:
452,252,57002,1,0,0:0:0:0:
456,248,57084,2,0,P|472:200|440:80,1,170,2|4,0:3|0:3,0:0:0:0:
360,88,57576,69,10,0:2:0:0:
152,296,57903,1,10,0:0:0:0:
256,44,58231,1,2,0:0:0:0:
256,340,58559,1,2,0:0:0:0:
152,88,58887,1,2,0:0:0:0:
360,296,59215,1,10,0:0:0:0:
108,192,59543,1,10,0:0:0:0:
404,192,59871,1,10,0:0:0:0:
256,192,60198,6,0,P|260:240|260:280,1,85,10|0,0:0|0:0,0:0:0:0:
336,224,60526,1,10,0:0:0:0:
180,240,60690,1,8,0:3:0:0:
320,132,60854,53,6,1:0:0:0:
120,100,61181,1,0,0:0:0:0:
120,100,61345,2,0,P|116:156|116:200,1,85,10|2,0:0|0:0,0:0:0:0:
216,276,61673,2,0,P|220:220|220:176,1,85,2|0,0:0|0:0,0:0:0:0:
128,268,62001,5,8,0:0:0:0:
208,360,62165,1,2,0:0:0:0:
300,280,62329,1,2,0:1:0:0:
220,191,62493,1,2,0:2:0:0:
216,276,62657,1,8,0:0:0:0:
132,184,62821,2,0,P|136:124|136:92,1,85,2|2,0:0|0:2,0:0:0:0:
224,106,63149,2,0,P|220:166|220:198,1,85,2|8,0:2|0:0,0:0:0:0:
300,240,63477,86,2,P|304:144|304:52,1,170,6|2,0:0|0:0,0:0:0:0:
224,106,63968,1,10,0:0:0:0:
388,144,64132,1,0,0:0:0:0:
388,144,64214,1,2,0:0:0:0:
388,144,64296,1,2,0:2:0:0:
219,190,64460,1,2,0:2:0:0:
380,228,64624,1,10,0:0:0:0:
328,80,64788,1,4,0:2:0:0:
308,168,64952,6,0,P|232:144|216:48,1,170,2|8,0:0|0:0,0:0:0:0:
128,104,65444,1,2,0:0:0:0:
128,104,65526,1,0,0:0:0:0:
128,104,65608,2,0,P|48:112|12:116,1,85,2|2,0:2|0:2,0:0:0:0:
48,192,65936,1,10,0:0:0:0:
204,172,66099,86,0,P|224:244|208:344,1,170,4|0,0:0|0:0,0:0:0:0:
136,288,66591,1,8,0:0:0:0:
136,288,66919,1,2,0:0:0:0:
212,336,67083,1,2,0:2:0:0:
204,172,67247,1,8,0:0:0:0:
204,172,67575,1,2,0:2:0:0:
64,256,67739,1,2,0:2:0:0:
212,336,67903,1,8,0:0:0:0:
212,336,68231,1,2,0:0:0:0:
152,272,68395,6,0,L|168:200,1,63.7500024318696,0|8,0:0|0:0,0:0:0:0:
256,192,68722,86,0,P|352:204|400:288,1,170,6|2,0:0|0:0,0:0:0:0:
312,272,69214,2,0,L|280:116,1,127.5,10|0,0:0|0:0,0:0:0:0:
280,120,69542,1,0,0:0:0:0:
344,56,69706,1,0,0:0:0:0:
368,152,69870,1,10,0:0:0:0:
244,40,70034,2,0,P|200:96|228:196,1,170,2|0,0:0|0:0,0:0:0:0:
144,140,70526,1,8,0:0:0:0:
192,260,70690,1,0,0:0:0:0:
64,188,70854,5,8,0:0:0:0:
168,204,71017,1,4,0:3:0:0:
168,204,71099,1,8,0:0:0:0:
280,216,71263,1,4,0:3:0:0:
280,216,71345,2,0,P|380:232|460:248,1,170,6|2,0:0|0:0,0:0:0:0:
376,148,71837,2,0,P|420:156|472:168,1,85,8|0,0:0|0:0,0:0:0:0:
324,304,72165,2,0,P|360:312|420:324,1,85,2|0,0:0|0:0,0:0:0:0:
280,216,72493,85,10,0:0:0:0:
204,252,72657,1,2,0:2:0:0:
204,252,72739,1,0,0:0:0:0:
204,252,72821,2,0,P|148:268|96:268,1,85,2|2,0:2|0:2,0:0:0:0:
44,240,73149,1,10,0:0:0:0:
88,168,73313,2,0,P|168:144|264:136,1,170,2|2,0:2|0:1,0:0:0:0:
328,184,73804,1,8,0:0:0:0:
392,40,73968,6,0,P|356:88|320:112,1,85,6|0,0:0|0:0,0:0:0:0:
488,172,74296,1,2,0:0:0:0:
488,172,74460,2,0,P|444:172|400:160,1,85,8|2,0:0|0:0,0:0:0:0:
432,312,74788,1,2,0:2:0:0:
432,312,74952,1,2,0:2:0:0:
432,312,75116,2,0,P|400:280|372:228,1,85,10|4,0:0|0:2,0:0:0:0:
340,336,75444,85,0,0:0:0:0:
256,288,75608,1,0,0:0:0:0:
184,344,75772,2,0,L|88:352,1,85,8|2,0:0|0:0,0:0:0:0:
32,300,76099,1,2,0:2:0:0:
148,268,76263,2,0,P|148:224|140:176,1,85,2|8,0:0|0:0,0:0:0:0:
64,172,76591,6,0,P|128:108|224:132,1,170,4|2,0:0|0:0,0:0:0:0:
260,188,77083,1,8,0:0:0:0:
288,100,77247,1,2,0:0:0:0:
201,115,77411,2,0,P|185:159|161:223,1,85,0|2,0:0|0:0,0:0:0:0:
324,252,77739,2,0,P|340:208|364:144,1,85,8|2,0:0|0:0,0:0:0:0:
232,264,78067,85,2,0:0:0:0:
232,264,78395,1,8,0:0:0:0:
171,194,78558,2,0,P|155:238|131:302,1,85,2|2,0:0|0:2,0:0:0:0:
294,331,78886,2,0,P|310:287|334:223,1,85,2|8,0:2|0:0,0:0:0:0:
256,100,79214,6,0,L|80:132,1,170,12|0,0:0|0:0,0:0:0:0:
80,124,79706,2,0,L|172:108,1,85,10|2,0:0|0:2,0:0:0:0:
136,236,80034,2,0,L|228:220,1,85,10|0,0:0|0:0,0:0:0:0:
264,64,80362,2,0,L|368:44,1,85,10|0,0:0|0:0,0:0:0:0:
328,220,80690,2,0,L|420:204,1,85,10|2,0:0|0:2,0:0:0:0:
468,32,81017,85,10,0:0:0:0:
408,104,81181,1,0,0:0:0:0:
408,104,81263,1,0,0:0:0:0:
408,104,81345,1,10,0:0:0:0:
492,152,81509,2,0,P|468:200|464:336,1,170,2|0,0:2|2:0,0:0:0:0:
380,352,82001,69,4,0:0:0:0:
304,280,82165,2,0,P|316:248|344:228,2,42.5,0|0|8,0:0|0:0|0:0,0:0:0:0:
304,280,82657,1,0,0:0:0:0:
144,360,82821,5,2,0:2:0:0:
224,292,82985,1,8,0:0:0:0:
128,268,83149,1,2,0:2:0:0:
264,116,83477,2,0,L|236:204,1,85,2|8,0:2|0:0,0:0:0:0:
92,148,83804,85,2,0:2:0:0:
171,126,83968,2,0,P|123:130|79:158,1,85,2|2,0:2|0:0,0:0:0:0:
204,44,84296,1,8,0:0:0:0:
352,152,84542,5,0,0:0:0:0:
352,152,84624,2,0,L|440:128,1,85,2|2,0:0|0:0,0:0:0:0:
416,216,84952,1,8,0:0:0:0:
280,208,85116,1,0,0:0:0:0:
280,208,85198,1,0,0:0:0:0:
280,208,85280,1,0,0:0:0:0:
232,288,85444,2,0,P|212:248|168:224,1,85,2|8,0:2|0:0,0:0:0:0:
324,280,85772,85,2,0:0:0:0:
324,280,85936,1,2,0:0:0:0:
324,280,86099,2,0,L|412:300,1,85,2|8,0:2|0:0,0:0:0:0:
188,104,86591,2,0,L|100:84,1,85,2|2,0:2|0:0,0:0:0:0:
304,128,87247,6,0,L|472:88,1,170,6|2,0:2|0:0,0:0:0:0:
244,180,88558,2,0,L|391:270,1,170,0|0,0:0|0:0,0:0:0:0:
168,168,89870,2,0,L|208:336,1,170,0|0,0:0|0:0,0:0:0:0:
112,120,91181,2,0,L|21:267,1,170,0|0,0:0|0:0,0:0:0:0:
76,332,92001,1,2,0:2:0:0:
160,316,92165,1,8,0:0:0:0:
244,356,92329,1,2,0:0:0:0:
244,356,92411,1,2,0:0:0:0:
244,356,92493,1,8,0:0:0:0:
320,324,92657,38,0,P|400:320|488:304,2,170,2|2|2,0:0|0:0|0:0,0:0:0:0:
232,240,93477,1,8,0:0:0:0:
244,356,93640,1,0,0:0:0:0:
384,220,93968,1,0,0:0:0:0:
212,128,94296,1,2,0:2:0:0:
228,216,94460,1,8,0:0:0:0:
300,160,94624,2,0,P|296:120|284:64,1,85,2|0,0:2|0:0,0:0:0:0:
148,188,94952,5,2,0:2:0:0:
300,160,95116,1,0,0:0:0:0:
148,188,95280,2,0,P|152:240|164:284,1,85,2|0,0:2|0:0,0:0:0:0:
180,352,95608,1,2,0:2:0:0:
352,320,95936,1,2,0:2:0:0:
352,320,96099,1,8,0:0:0:0:
272,368,96263,6,0,B|252:304|260:252|228:184,2,170,2|2|2,0:2|0:2|0:2,0:0:0:0:
332,288,97083,1,8,0:2:0:0:
172,240,97247,2,0,B|144:216|112:224|112:224|144:216|172:176,1,127.500004863739,2|2,0:0|0:2,0:0:0:0:
108,132,97739,70,0,P|184:104|320:92,1,203.999993774414,6|0,0:0|0:0,0:0:0:0:
268,176,98231,5,2,0:0:0:0:
268,176,98313,1,0,0:0:0:0:
268,176,98395,2,0,P|364:200|452:244,1,170,2|8,0:2|0:0,0:0:0:0:
304,256,98886,5,2,0:2:0:0:
304,256,99050,2,0,P|340:308|360:380,1,136,0|0,0:0|0:0,0:0:0:0:
208,360,99542,5,2,0:1:0:0:
293,308,99706,2,0,P|257:340|205:360,1,101.999996887207,0|0,0:0|0:0,0:0:0:0:
136,324,100198,1,2,0:0:0:0:
80,180,100362,53,2,0:2:0:0:
156,192,100526,1,2,0:1:0:0:
104,252,100690,1,0,0:0:0:0:
28,128,100854,5,2,0:2:0:0:
28,128,100936,1,2,0:2:0:0:
28,128,101017,2,0,B|64:28|64:28|84:60|136:48,1,170,2|8,3:0|0:0,0:0:0:0:
188,100,101509,2,0,P|244:88|284:56,1,85,2|2,0:2|0:2,0:0:0:0:
336,140,101837,2,0,P|356:96|360:52,1,85,2|8,0:1|0:0,0:0:0:0:
360,59,102165,2,0,P|340:103|336:147,1,85,0|2,0:0|0:2,0:0:0:0:
380,208,102493,1,2,0:0:0:0:
444,264,102657,2,0,P|408:284|364:288,1,85,8|2,0:0|3:3,0:0:0:0:
132,268,102985,6,0,P|208:228|300:240,1,170,4|8,0:2|0:0,0:0:0:0:
204,320,103477,1,0,0:0:0:0:
204,320,103558,1,0,0:0:0:0:
204,320,103640,2,0,P|164:348|116:348,1,85,2|2,0:2|0:2,0:0:0:0:
64,300,103968,1,8,0:0:0:0:
128,184,104132,1,0,0:0:0:0:
128,184,104460,2,0,P|80:208|36:216,1,85,2|8,0:2|0:0,0:0:0:0:
60,128,104788,1,0,0:0:0:0:
60,128,104870,1,0,0:0:0:0:
60,128,104952,1,0,0:0:0:0:
184,252,105116,2,0,P|236:248|280:224,1,85,2|8,0:1|0:0,0:0:0:0:
312,164,105444,5,2,0:0:0:0:
316,76,105608,1,2,0:2:0:0:
236,48,105772,1,2,0:2:0:0:
228,132,105936,1,8,0:0:0:0:
400,144,106099,1,0,0:0:0:0:
400,144,106181,1,8,0:2:0:0:
400,144,106263,1,8,0:2:0:0:
308,248,106427,1,2,0:2:0:0:
308,248,106591,1,8,0:0:0:0:
184,200,106755,54,0,P|108:164|20:180,1,170,10|10,0:2|0:0,0:0:0:0:
328,184,107410,2,0,P|404:220|492:204,1,170,2|2,0:0|0:0,0:0:0:0:
486,206,107902,1,0,0:0:0:0:
312,264,108066,6,0,L|220:284,1,85,2|0,0:0|0:0,0:0:0:0:
200,120,108394,2,0,L|292:100,1,85,10|0,0:0|0:0,0:0:0:0:
256,192,108722,1,10,0:0:0:0:
256,192,109050,1,10,0:0:0:0:
256,192,109377,2,0,L|164:216,1,85,10|0,0:0|0:0,0:0:0:0:
332,228,109705,38,0,P|340:180|312:136,1,95.6250036478044,10|0,0:0|0:0,0:0:0:0:
315,67,110033,6,0,P|347:151|313:254,1,170,4|2,1:0|0:0,0:0:0:0:
280,292,110524,1,8,0:0:0:0:
176,240,110688,1,2,0:0:0:0:
176,240,110770,1,0,0:0:0:0:
176,240,110852,2,0,P|212:216|268:216,1,85,2|2,0:1|0:2,0:0:0:0:
200,316,111180,1,10,0:0:0:0:
92,280,111344,1,0,0:0:0:0:
131,366,111508,5,2,0:0:0:0:
92,280,111672,2,0,L|104:176,1,85,2|8,0:2|0:0,0:0:0:0:
200,316,112000,2,0,L|124:372,1,85,2|2,0:0|0:2,0:0:0:0:
272,268,112328,1,2,0:0:0:0:
196,232,112492,1,8,0:0:0:0:
352,304,112656,85,6,0:0:0:0:
352,304,112983,1,0,0:0:0:0:
424,248,113147,2,0,P|416:208|384:160,1,85,10|2,0:0|0:0,0:0:0:0:
432,328,113475,5,2,0:2:0:0:
344,224,113639,1,2,0:2:0:0:
496,280,113803,2,0,P|508:232|504:172,1,85,10|0,0:0|0:0,0:0:0:0:
480,120,114131,85,4,0:2:0:0:
396,140,114295,1,2,0:2:0:0:
416,56,114459,1,10,0:0:0:0:
431,104,114623,5,2,0:0:0:0:
304,44,114787,1,2,0:2:0:0:
224,80,114951,2,0,L|128:60,1,85,2|8,0:0|0:0,0:0:0:0:
272,168,115278,86,0,L|76:128,1,170,6|2,0:2|0:2,0:0:0:0:
28,112,115770,1,8,0:0:0:0:
144,236,115934,1,0,0:0:0:0:
144,236,116016,1,0,0:0:0:0:
144,236,116098,2,0,P|92:256|48:264,1,85,2|2,0:0|0:2,0:0:0:0:
72,340,116426,2,0,P|116:344|180:368,1,85,8|0,0:0|0:0,0:0:0:0:
212,292,116754,5,2,0:3:0:0:
288,332,116918,2,0,P|344:316|376:304,1,85,8|4,0:3|0:3,0:0:0:0:
476,184,117246,1,10,0:2:0:0:
476,184,117328,1,8,0:2:0:0:
476,184,117410,2,0,P|412:168|372:144,1,85,2|10,0:2|0:0,0:0:0:0:
312,96,117737,1,8,0:0:0:0:
204,128,117901,86,2,P|136:128|44:184,1,170,6|2,0:0|0:0,0:0:0:0:
36,256,118393,2,0,P|80:256|112:220,1,85,8|0,0:0|0:0,0:0:0:0:
172,264,118721,2,0,P|216:264|248:228,1,85,0|2,0:0|0:0,0:0:0:0:
344,64,119049,5,8,0:0:0:0:
288,164,119213,1,10,0:0:0:0:
404,200,119377,2,0,L|500:172,1,85,0|10,0:0|0:0,0:0:0:0:
364,96,119705,1,8,0:0:0:0:
324,232,119869,1,10,0:0:0:0:
252,184,120033,86,0,P|236:212|240:232,1,42.5,4|0,3:0|2:0,0:0:0:0:
240,240,120196,2,0,P|224:196|176:168,1,85,10|8,0:0|0:3,0:0:0:0:
318,307,120524,6,0,B|370:283|354:199|354:199|346:224|322:232,1,170,6|0,1:0|0:0,0:0:0:0:
224,324,121016,1,10,0:0:0:0:
224,324,121180,1,2,0:0:0:0:
318,307,121344,2,0,P|286:259|242:239,1,85,2|0,0:0|0:0,0:0:0:0:
208,144,121672,2,0,P|256:160|308:152,1,85,10|0,0:0|0:0,0:0:0:0:
304,148,121918,1,0,0:0:0:0:
316,136,122000,1,2,0:1:0:0:
260,72,122164,85,2,0:2:0:0:
132,132,122328,1,8,0:0:0:0:
176,44,122492,1,2,0:0:0:0:
176,44,122574,1,0,0:0:0:0:
176,44,122656,1,2,0:2:0:0:
208,144,122819,1,2,0:2:0:0:
92,60,122983,1,10,0:0:0:0:
56,192,123147,2,0,P|96:244|204:216,1,170,6|2,0:0|0:2,0:0:0:0:
208,144,123639,1,10,0:0:0:0:
264,208,123803,6,0,P|260:236|256:272,2,42.5,2|0|2,0:0|0:0|0:1,0:0:0:0:
280,92,124131,1,2,0:1:0:0:
344,212,124295,1,8,0:0:0:0:
192,188,124459,1,4,0:2:0:0:
192,188,124541,1,0,0:0:0:0:
192,188,124623,2,0,P|132:180|88:172,1,85,2|0,0:0|0:0,0:0:0:0:
164,104,124951,1,8,0:0:0:0:
140,256,125115,2,0,P|132:308|124:352,1,85,2|2,0:0|0:2,0:0:0:0:
224,272,125442,2,0,P|216:324|208:368,1,85,2|10,0:2|0:0,0:0:0:0:
304,328,125770,86,0,P|356:292|428:304,1,127.5,6|0,0:0|2:0,0:0:0:0:
456,320,126098,1,2,0:1:0:0:
404,220,126262,1,8,0:0:0:0:
492,152,126426,1,2,0:0:0:0:
460,72,126590,6,0,P|428:96|408:152,1,85,2|0,0:0|0:0,0:0:0:0:
324,116,126918,2,0,P|328:168|364:212,1,85,10|2,0:0|0:0,0:0:0:0:
248,180,127246,2,0,P|236:104|160:32,1,170,2|10,0:1|0:0,0:0:0:0:
104,80,127737,2,0,P|116:156|192:228,1,170,2|2,0:0|0:1,0:0:0:0:
178,221,128229,1,8,0:0:0:0:
248,180,128393,85,6,0:0:0:0:
272,264,128557,1,2,0:0:0:0:
330,201,128721,1,0,0:0:0:0:
388,136,128885,1,10,0:0:0:0:
420,216,129049,1,2,0:2:0:0:
330,201,129213,2,0,P|270:185|234:177,1,85,10|2,0:0|0:2,0:0:0:0:
272,264,129541,2,0,P|332:280|368:288,1,85,10|2,0:0|0:2,0:0:0:0:
436,304,129869,5,6,0:2:0:0:
436,304,130033,1,0,0:0:0:0:
272,264,130196,1,10,0:0:0:0:
272,264,130360,1,2,0:2:0:0:
112,216,130524,1,10,0:0:0:0:
112,216,130688,2,0,B|64:176|76:116|76:116|76:148|112:168,1,165.749992412568,4|0,0:3|2:3,0:0:0:0:
64,192,131016,6,2,P|132:136|256:144,1,203.999993774414,6|2,0:0|0:0,0:0:0:0:
320,96,131508,2,0,P|352:128|400:136,1,85,2|0,0:0|0:0,0:0:0:0:
388,52,131836,1,0,0:0:0:0:
243,137,132000,2,0,B|240:188|204:208|204:208|195:249|223:281,1,152.999995330811,2|0,0:0|0:0,0:0:0:0:
264,304,132328,1,8,0:0:0:0:
136,296,132492,2,2,P|96:320|144:304,1,136
92,128,132983,5,8,0:2:0:0:
72,160,133065,1,8,0:2:0:0:
72,200,133147,2,0,L|60:248,2,42.5,8|2|4,0:2|0:2|0:3,0:0:0:0:
208,144,133639,6,0,P|260:120|272:176,1,127.5,6|0,0:0|0:0,0:0:0:0:
260,192,133967,2,2,P|312:120|424:148,1,203.999993774414
384,288,134459,2,0,P|368:244|364:200,1,85,8|0,1:0|0:0,0:0:0:0:
460,240,134787,1,8,0:0:0:0:
460,240,134951,1,2,0:2:0:0:
280,200,135115,6,0,P|224:216|176:272,1,101.999996887207,0|2,0:0|0:2,0:0:0:0:
188,256,135360,2,0,P|156:208|88:180,1,101.999996887207,2|0,0:2|0:0,0:0:0:0:
96,188,135606,1,2,0:2:0:0:
80,264,135770,5,8,0:0:0:0:
136,108,135934,1,0,0:0:0:0:
20,184,136098,1,8,0:0:0:0:
188,256,136262,1,2,0:0:0:0:
124,204,136426,38,0,L|112:156,1,42.5,2|0,0:0|0:0,0:0:0:0:
104,232,136590,2,0,P|144:188|236:176,1,127.5,2|0,0:0|0:0,0:0:0:0:
252,176,136918,1,2,0:2:0:0:
352,120,137082,2,0,P|316:96|268:84,1,85,10|0,0:0|0:0,0:0:0:0:
332,200,137410,1,2,0:0:0:0:
404,252,137574,2,0,P|456:244|504:212,1,85,8|2,0:0|0:2,0:0:0:0:
436,116,137901,1,2,0:0:0:0:
332,200,138065,2,0,L|232:224,1,85,2|8,0:0|0:2,0:0:0:0:
228,224,138311,1,8,0:2:0:0:
208,228,138393,1,8,0:0:0:0:
136,176,138557,5,2,0:2:0:0:
120,276,138721,1,4,3:0:0:0:
120,276,138803,1,0,2:0:0:0:
120,276,138885,2,2,L|76:96,1,170,6|2,0:0|0:0,0:0:0:0:
100,192,139377,2,2,P|152:140|252:144,1,170,2|10,0:0|0:0,0:0:0:0:
160,136,139869,2,0,L|252:168,1,85,2|8,0:0|0:0,0:0:0:0:
312,92,140196,5,2,0:0:0:0:
312,92,140524,2,0,P|332:116|360:120,1,42.5,8|0,0:2|0:0,0:0:0:0:
388,180,140688,2,0,P|419:182|441:165,1,42.5,8|0,0:2|0:3,0:3:0:0:
492,140,140852,1,2,0:2:0:0:
444,280,141016,6,0,P|400:292|372:320,1,85,8|8,0:0|0:2,0:0:0:0:
356,360,141262,1,8,0:2:0:0:
332,324,141344,1,8,0:0:0:0:
292,304,141426,1,8,0:0:0:0:
248,300,141508,2,2,B|148:324|148:324|132:256|132:256|168:248,1,203.999993774414,6|2,0:0|0:0,0:0:0:0:
240,224,142000,2,0,B|276:216|276:216|260:148,1,101.999996887207,10|2,0:0|0:2,0:0:0:0:
148,68,142328,2,0,L|176:188,2,101.999996887207,2|2|8,0:0|0:0|0:0,0:0:0:0:
148,68,142819,1,2,0:0:0:0:
312,72,142983,6,0,L|424:96,1,101.999996887207,2|2,0:0|0:2,0:0:0:0:
411,93,143311,1,8,0:0:0:0:
392,212,143475,1,2,0:0:0:0:
280,184,143639,2,0,L|168:160,1,101.999996887207,2|8,0:0|0:2,0:0:0:0:
180,162,143967,1,8,0:0:0:0:
56,344,144131,38,0,B|120:372|192:356|192:356|211:335|224:300,1,203.999993774414,0|2,0:0|0:0,0:0:0:0:
180,162,144623,2,0,P|152:212|144:268,1,101.999996887207,10|0,0:0|0:0,0:0:0:0:
143,255,144869,1,8,0:2:0:0:
143,255,144951,1,2,0:0:0:0:
224,299,145115,2,0,P|252:249|260:193,1,101.999996887207,2|8,0:0|0:0,0:0:0:0:
284,116,145442,6,0,B|312:156|364:148|364:148|404:160|416:204,1,152.999995330811,2|0,0:0|0:0,0:0:0:0:
444,144,145770,2,0,P|396:140|352:100,1,101.999996887207,2|8,0:2|0:0,0:0:0:0:
140,72,146098,1,2,0:0:0:0:
140,72,146180,1,2,0:0:0:0:
140,72,146262,2,0,P|188:48|240:44,1,101.999996887207,8|0,0:3|0:0,0:0:0:0:
252,48,146508,2,0,P|224:64|196:60,1,50.9999984436036,0|8,0:0|0:0,0:0:0:0:
64,244,146754,6,0,B|120:184|192:200|192:200|160:192|132:152,1,203.999993774414,6|2,0:0|0:0,0:0:0:0:
156,280,147246,1,10,0:0:0:0:
268,224,147410,1,2,0:0:0:0:
244,304,147574,6,0,L|360:336,1,101.999996887207,2|2,0:0|0:2,0:0:0:0:
424,352,147901,1,8,0:0:0:0:
392,216,148065,2,0,P|360:224|348:240,2,50.9999984436036,2|0|2,0:0|0:0|0:2,0:0:0:0:
440,280,148393,5,2,0:0:0:0:
492,144,148557,1,8,0:0:0:0:
428,188,148721,1,2,0:2:0:0:
472,64,148885,37,2,0:0:0:0:
508,224,149049,1,4,0:3:0:0:
348,184,149213,1,8,0:0:0:0:
420,136,149377,6,2,P|312:104|200:108,1,203.999993774414,6|2,0:0|0:0,0:0:0:0:
144,160,149869,2,0,P|84:144|60:108,1,101.999996887207,10|2,0:0|0:2,0:0:0:0:
84,80,150115,5,2,0:2:0:0:
84,80,150196,2,0,P|144:96|168:132,1,101.999996887207,2|2,0:1|0:2,0:0:0:0:
144,160,150442,69,0,0:0:0:0:
144,160,150524,2,0,P|84:144|60:108,1,101.999996887207,10|2,0:0|0:2,0:0:0:0:
84,80,150770,5,2,0:2:0:0:
84,80,150852,2,0,P|144:96|168:132,1,101.999996887207,2|2,0:0|0:2,0:0:0:0:
200,224,151180,5,8,0:0:0:0:
264,152,151344,1,4,0:3:0:0:
228,344,151508,6,0,L|164:320,1,50.9999984436036,2|0,0:0|0:0,0:0:0:0:
172,308,151672,1,2,0:0:0:0:
444,284,152000,6,0,P|424:192|416:124,1,136,4|0,0:0|0:0,0:0:0:0:
332,132,152492,2,0,P|340:196|348:224,1,68,2|0,0:0|0:0,0:0:0:0:
256,248,152819,2,0,P|248:184|240:156,1,68,2|0,0:0|0:0,0:0:0:0:
240,100,153147,2,0,P|204:108|156:108,1,68,2|0,0:0|0:0,0:0:0:0:
272,284,153475,2,0,P|308:276|356:276,1,68,2|0,0:0|0:0,0:0:0:0:
160,208,153803,1,2,0:0:0:0:
336,200,153967,86,0,P|320:168|332:136,1,63.75,2|0,0:0|2:0,0:0:0:0:
336,200,154295,2,0,L|420:172,1,68,2|0,0:0|0:0,0:0:0:0:
470,221,154623,2,0,L|322:197,1,136,2|0,0:0|0:0,0:0:0:0:
240,144,155115,6,0,P|268:128|308:124,1,68,2|0,0:0|0:0,0:0:0:0:
228,240,155442,2,0,P|256:256|296:260,1,68,2|0,0:0|0:0,0:0:0:0:
164,128,155770,2,0,P|176:92|212:60,1,68,2|0,0:0|0:0,0:0:0:0:
148,256,156098,2,0,P|160:292|196:324,1,68,2|0,0:0|0:0,0:0:0:0:
96,180,156426,85,2,0:0:0:0:
228,204,156590,1,2,0:0:0:0:
72,284,156754,2,0,P|36:312|16:348,1,68,0|0,0:0|0:0,0:0:0:0:
96,360,157082,1,2,0:0:0:0:
160,212,157246,6,0,P|108:148|24:172,2,170,4|8|4,0:2|0:3|0:3,0:0:0:0:
180,292,158065,1,8,0:3:0:0:
236,204,158229,1,8,0:3:0:0:
100,264,158393,1,4,0:3:0:0:
208,364,158557,1,4,0:3:0:0:
160,212,158721,38,0,P|100:188|56:168,1,85,8|8,0:0|0:0,0:0:0:0:
260,300,159049,2,0,P|320:324|364:344,1,85,8|8,0:0|0:0,0:0:0:0:
172,288,159377,1,8,0:0:0:0:
264,212,159541,1,8,0:0:0:0:
172,288,159705,1,8,0:0:0:0:
256,380,159869,1,8,0:0:0:0:
356,236,160033,6,0,P|352:184|352:128,1,85,12|8,0:3|0:0,0:0:0:0:
176,96,160360,2,0,P|180:148|180:204,1,85,12|8,0:3|0:0,0:0:0:0:
256,240,160688,1,12,0:3:0:0:
272,144,160852,1,8,0:0:0:0:
160,212,161016,1,8,0:0:0:0:
240,332,161180,1,8,0:0:0:0:
136,208,161344,6,0,L|12:252,1,127.5,2|0,0:0|0:0,0:0:0:0:
16,264,161672,2,0,L|100:236,1,85,2|0,0:0|0:0,0:0:0:0:
364,168,162000,37,2,0:0:0:0:
364,168,162164,1,2,0:0:0:0:
364,168,162492,6,0,B|304:196|304:196|260:140|172:140,1,203.999993774414,6|2,0:0|0:0,0:0:0:0:
68,96,162983,2,0,P|76:160|112:200,1,101.999996887207,8|0,0:0|0:0,0:0:0:0:
256,264,163311,1,2,0:0:0:0:
256,264,163475,1,0,0:0:0:0:
124,312,163639,1,10,0:0:0:0:
192,168,163803,1,2,0:2:0:0:
160,240,163967,85,2,0:2:0:0:
219,359,164131,2,0,L|259:255,1,101.999996887207,2|10,0:2|0:0,0:0:0:0:
268,92,164459,1,2,0:2:0:0:
288,108,164541,1,0,0:0:0:0:
300,132,164623,1,2,0:2:0:0:
180,224,164787,2,0,P|132:216|88:176,1,101.999996887207,2|8,0:1|0:0,0:0:0:0:
192,120,165115,6,0,L|400:148,1,203.999993774414,6|2,0:0|0:0,0:0:0:0:
480,156,165606,1,8,0:0:0:0:
424,224,165770,1,2,0:0:0:0:
484,288,165934,85,2,0:2:0:0:
440,132,166098,1,2,0:2:0:0:
360,268,166262,1,10,0:0:0:0:
272,208,166426,5,4,0:2:0:0:
212,272,166590,2,0,P|192:232|200:168,1,101.999996887207,2|0,0:0|0:0,0:0:0:0:
256,116,166918,1,8,0:0:0:0:
116,188,167082,2,0,P|44:148|32:108,1,101.999996887207,2|2,0:0|0:2,0:0:0:0:
188,80,167410,1,2,0:0:0:0:
272,208,167574,1,8,0:0:0:0:
192,172,167737,86,0,L|352:116,1,152.999995330811,4|0,0:0|0:0,0:0:0:0:
360,112,168065,1,2,0:0:0:0:
312,48,168229,1,8,0:0:0:0:
396,192,168393,1,2,0:0:0:0:
304,208,168557,1,2,0:0:0:0:
176,88,168721,2,0,P|236:92|268:128,1,101.999996887207,2|8,0:0|0:0,0:0:0:0:
172,244,169049,5,2,0:0:0:0:
128,180,169213,1,2,0:0:0:0:
200,172,169377,1,2,0:2:0:0:
136,216,169541,1,10,0:0:0:0:
240,272,169705,1,2,0:0:0:0:
132,316,169869,1,2,0:2:0:0:
240,372,170033,1,2,0:2:0:0:
344,316,170196,1,8,0:0:0:0:
416,360,170360,86,0,P|472:324|444:224,1,152.999995330811,14|0,0:0|0:0,0:0:0:0:
448,220,170688,1,0,0:2:0:0:
388,268,170852,1,8,0:0:0:0:
368,196,171016,1,0,0:0:0:0:
312,252,171180,5,8,0:0:0:0:
428,144,171344,1,0,0:0:0:0:
388,268,171508,1,8,0:0:0:0:
356,116,171672,1,2,0:2:0:0:
228,112,171836,86,0,P|176:120|120:124,1,101.999996887207,14|0,0:0|0:0,0:0:0:0:
332,224,172164,2,0,P|384:216|440:212,1,101.999996887207,10|2,0:0|0:0,0:0:0:0:
184,196,172492,1,8,0:0:0:0:
308,140,172656,1,10,0:0:0:0:
288,288,172819,1,8,0:0:0:0:
264,208,172983,5,4,0:0:0:0:
264,208,173311,1,0,0:0:0:0:
184,44,173475,2,0,P|176:96|164:152,1,101.999996887207,8|0,0:0|0:0,0:0:0:0:
104,44,173803,2,0,P|96:96|84:152,1,101.999996887207,8|0,0:0|0:0,0:0:0:0:
328,160,174131,2,0,P|336:108|348:52,1,101.999996887207,8|2,0:0|0:2,0:0:0:0:
408,160,174459,2,0,P|416:108|428:52,1,101.999996887207,8|0,0:0|0:0,0:0:0:0:
256,40,174787,85,8,0:0:0:0:
216,112,174951,1,0,0:0:0:0:
292,156,175115,1,8,0:0:0:0:
188,240,175278,1,2,0:2:0:0:
304,332,175442,1,8,0:0:0:0:
220,316,175606,6,0,B|160:360|76:336|76:336|32:376,1,203.999993774414,4|0,0:0|0:0,0:0:0:0:
36,236,176098,2,0,P|88:236|132:268,1,101.999996887207,8|0,0:0|0:0,0:0:0:0:
220,148,176426,2,0,L|176:44,1,101.999996887207,8|0,0:0|0:0,0:0:0:0:
212,244,176754,2,0,P|256:272|316:272,1,101.999996887207,8|0,0:0|0:0,0:0:0:0:
424,56,177082,85,12,0:3:0:0:
380,348,177410,1,12,0:3:0:0:
216,92,177737,5,10,0:0:0:0:
296,292,177901,1,10,0:0:0:0:
256,192,178065,12,0,179377,0:0:0:0:
