osu file format v14

[General]
AudioFilename: audio.mp3
AudioLeadIn: 0
PreviewTime: 78798
Countdown: 0
SampleSet: Soft
StackLeniency: 0.3
Mode: 0
LetterboxInBreaks: 0
WidescreenStoryboard: 0

[Editor]
Bookmarks: 34405,57282,80137,148684
DistanceSpacing: 1.3
BeatDivisor: 8
GridSize: 4
TimelineZoom: 2.799999

[Metadata]
Title:trill
TitleUnicode:トリル
Artist:Aimer
ArtistUnicode:Aimer
Creator:MrPotato
Version:Sleepless Night
Source:Yoru no Kuni
Tags:aimerrhythm toriru walpurgis night world country pop jpop j-pop japanese 夜の国 エメ
BeatmapID:2977493
BeatmapSetID:1447923

[Difficulty]
HPDrainRate:6
CircleSize:4.3
OverallDifficulty:8.3
ApproachRate:8.5
SliderMultiplier:2.8
SliderTickRate:1

[Events]
//Background and Video events
0,0,"1107311.jpg",0,0
//Break Periods
2,183189,188028
//Storyboard Layer 0 (Background)
//Storyboard Layer 1 (Fail)
//Storyboard Layer 2 (Pass)
//Storyboard Layer 3 (Foreground)
//Storyboard Layer 4 (Overlay)
//Storyboard Sound Samples

[TimingPoints]
11568,714.285714285714,4,2,1,55,1,0
33315,714.285714285714,4,2,1,55,1,0
34405,714.285714285714,4,2,1,55,1,0
34962,714.285714285714,4,2,1,55,1,0
35854,714.285714285714,4,2,1,55,1,0
37276,666.666666666667,4,2,1,55,1,0
37609,714.285714285714,4,2,1,55,1,0
38350,714.285714285714,4,2,1,55,1,0
38532,714.285714285714,4,2,1,55,1,0
38710,714.285714285714,4,2,1,55,1,0
40138,714.285714285714,4,2,1,55,1,0
74424,-133.333333333333,4,2,1,45,0,0
80137,-83.3333333333333,4,2,1,60,0,1
125852,-100,4,2,1,55,0,0
147627,714.285714285714,4,2,1,55,1,0
148329,714.285714285714,4,2,1,55,1,0
148684,769.230769230769,4,2,1,55,1,0
149068,714.285714285714,4,2,1,55,1,0
149425,714.285714285714,4,2,1,55,1,0
151567,714.285714285714,4,2,1,55,1,0
158698,689.655172413793,4,2,1,55,1,0
159227,714.285714285714,4,2,1,55,1,0
160133,714.285714285714,4,2,1,55,1,0
171472,-100,4,2,1,5,0,0
171561,-100,4,2,1,55,0,0
188703,714.285714285714,4,2,1,55,1,0
188703,-133.333333333333,4,2,1,45,0,0
192899,-133.333333333333,4,2,1,5,0,0
192988,-133.333333333333,4,2,1,55,0,0
194437,714.285714285714,4,2,1,55,1,0
194437,-83.3333333333333,4,2,1,60,0,1
205508,666.666666666667,4,2,1,60,1,1
205508,-83.3333333333333,4,2,1,60,0,1
205870,714.285714285714,4,2,1,60,1,1
205870,-83.3333333333333,4,2,1,60,0,1
217292,714.285714285714,4,2,1,55,1,0
217292,-100,4,2,1,55,0,0
219431,631.578947368421,4,2,1,55,1,0
219768,674.157303370787,4,2,1,55,1,0
220148,714.285714285714,4,2,1,55,1,0
225859,759.493670886076,4,2,1,55,1,0
226238,714.285714285714,4,2,1,55,1,0
226581,714.285714285714,4,2,1,55,1,0
227295,714.285714285714,4,2,1,55,1,0
230152,-133.333333333333,4,2,1,55,0,0
231580,-100,4,2,1,55,0,0
232273,714.285714285714,4,2,1,55,1,0
234452,714.285714285714,4,2,1,55,1,0
234541,-100,4,2,1,45,0,0
234803,714.285714285714,4,2,1,55,1,0
235160,714.285714285714,4,2,1,55,1,0
237302,714.285714285714,4,2,1,55,1,0
238731,-100,4,2,1,5,0,0
240158,714.285714285714,4,2,1,55,1,0
240158,-76.9230769230769,4,2,1,60,0,1
283582,923.076923076923,4,2,1,60,1,1
283904,1071.42857142857,4,2,1,60,1,1
284307,714.285714285714,4,2,1,60,1,1
284640,909.090909090909,4,2,1,60,1,1
285153,714.285714285714,4,2,1,60,1,1
285500,714.285714285714,4,2,1,60,1,1
285500,-76.9230769230769,4,2,1,60,0,1
285872,714.285714285714,4,2,1,55,1,0
285872,-125,4,2,1,55,0,0
291586,-74.0740740740741,4,2,1,60,0,1
297300,-74.0740740740741,4,2,1,55,0,0
305882,714.285714285714,4,2,1,55,1,0
306572,714.285714285714,4,2,1,55,1,0
307171,714.285714285714,4,2,1,55,1,0
307674,714.285714285714,4,2,1,55,1,0
308072,857.142857142857,4,2,1,55,1,0
308501,833.333333333333,4,2,1,55,1,0
308975,714.285714285714,4,2,1,55,1,0
315584,-100,4,2,1,5,0,0

[Colours]
Combo1 : 63,114,233
Combo2 : 0,152,202
Combo3 : 18,124,255
Combo4 : 225,249,255

[HitObjects]
112,69,11211,5,0,0:0:0:0:
114,79,11300,1,0,0:0:0:0:
116,89,11389,1,0,0:0:0:0:
118,99,11478,1,0,0:0:0:0:
121,109,11568,2,0,P|178:115|242:44,1,140,6|0,3:2|3:0,0:0:0:0:
229,46,12104,1,0,0:0:0:0:
328,97,12282,2,0,P|320:135|318:194,1,70,10|0,0:0|0:0,0:0:0:0:
377,220,12639,1,0,3:0:0:0:
207,194,12818,5,2,0:0:0:0:
207,194,12907,1,0,0:0:0:0:
207,194,12997,1,0,3:0:0:0:
227,271,13175,1,8,0:0:0:0:
206,349,13354,2,0,L|105:333,1,70,2|0,3:2|0:0,0:0:0:0:
25,212,13711,2,0,P|45:279|29:375,1,140,10|0,0:0|3:0,0:0:0:0:
114,170,14247,5,0,0:0:0:0:
114,170,14336,1,0,0:0:0:0:
114,170,14425,2,0,P|147:150|192:148,1,70,2|0,3:2|0:0,0:0:0:0:
243,36,14782,2,0,P|209:30|180:11,1,70,2|0,3:2|0:0,0:0:0:0:
291,157,15139,2,0,P|324:137|369:135,1,70,10|0,0:0|0:0,0:0:0:0:
421,22,15497,2,0,P|386:17|357:0,1,70,2|0,3:2|0:0,0:0:0:0:
354,133,15854,5,0,3:0:0:0:
244,36,16032,1,8,0:0:0:0:
177,146,16211,2,0,P|169:106|149:58,1,70,2|0,3:2|0:0,0:0:0:0:
253,233,16568,2,0,P|261:193|281:145,1,70,10|0,0:0|0:0,0:0:0:0:
177,320,16925,2,0,P|169:280|149:232,1,70,2|0,3:2|0:0,0:0:0:0:
414,303,17282,6,0,L|271:319,1,140,2|2,3:2|3:2,0:0:0:0:
269,336,17818,1,0,0:0:0:0:
159,252,17997,2,0,L|89:259,1,70,10|0,0:0|0:0,0:0:0:0:
38,320,18354,1,0,3:0:0:0:
54,144,18532,5,2,0:0:0:0:
54,144,18622,1,0,0:0:0:0:
54,144,18711,1,0,3:0:0:0:
130,170,18889,1,8,0:0:0:0:
178,107,19068,2,0,P|175:69|148:26,1,70,2|0,3:2|0:0,0:0:0:0:
260,158,19425,2,0,P|294:141|345:143,1,70,10|0,0:2|0:0,0:0:0:0:
197,234,19782,2,0,L|183:302,1,70,0|0,3:0|0:0,0:0:0:0:
127,356,20050,5,0,0:0:0:0:
127,356,20139,2,0,P|187:333|276:358,1,140,2|2,3:2|3:2,0:0:0:0:
253,363,20675,1,0,0:0:0:0:
357,344,20854,2,0,P|353:302|345:265,1,70,10|0,0:0|0:0,0:0:0:0:
448,244,21211,2,0,P|452:202|460:165,1,70,2|0,3:2|0:0,0:0:0:0:
481,164,21479,5,0,0:0:0:0:
481,164,21568,1,2,3:2:0:0:
374,170,21747,1,8,0:0:0:0:
414,38,21925,1,2,3:2:0:0:
414,38,22282,6,0,P|385:17|338:24,1,70,10|0,0:2|0:0,0:0:0:0:
216,92,22639,2,0,P|245:71|292:78,1,70,2|0,3:2|0:0,0:0:0:0:
121,261,22997,6,0,P|141:160|132:115,1,140,6|2,3:2|3:2,0:0:0:0:
121,119,23532,1,0,0:0:0:0:
246,190,23711,2,0,L|343:174,1,70,8|0,0:0|0:0,0:0:0:0:
363,115,24068,1,0,3:0:0:0:
424,298,24247,5,2,0:0:0:0:
424,298,24336,1,0,0:0:0:0:
424,298,24425,1,0,3:0:0:0:
362,349,24604,1,8,0:0:0:0:
305,292,24782,2,0,P|275:300|242:335,1,70,2|0,3:2|0:0,0:0:0:0:
136,210,25139,2,0,P|166:218|199:253,1,70,10|0,0:2|0:0,0:0:0:0:
169,319,25497,1,2,3:2:0:0:
276,208,25675,5,0,0:0:0:0:
276,208,25764,1,0,0:0:0:0:
276,208,25854,2,0,L|288:115,1,70,2|0,3:2|0:0,0:0:0:0:
358,17,26211,2,0,L|367:87,1,70,2|0,3:2|0:0,0:0:0:0:
199,54,26568,2,0,L|297:66,1,70,10|0,0:0|0:0,0:0:0:0:
433,174,26925,2,0,L|342:185,1,70,2|0,3:2|0:0,0:0:0:0:
355,171,27193,5,0,0:0:0:0:
355,171,27282,1,0,3:0:0:0:
367,86,27461,1,8,0:0:0:0:
412,259,27639,1,2,3:2:0:0:
412,259,27997,2,0,P|402:302|399:355,1,70,10|0,0:0|0:0,0:0:0:0:
276,208,28354,2,0,P|286:251|289:304,1,70,2|0,3:2|0:0,0:0:0:0:
249,342,28622,5,0,0:0:0:0:
249,342,28711,2,0,L|98:326,1,140,2|0,3:2|3:0,0:0:0:0:
99,338,29247,1,0,0:0:0:0:
35,242,29425,2,0,P|38:209|56:153,1,70,10|0,0:0|0:0,0:0:0:0:
120,128,29782,1,2,3:2:0:0:
290,176,29961,5,0,0:0:0:0:
290,176,30050,1,0,0:0:0:0:
290,176,30139,1,2,3:2:0:0:
319,102,30318,1,8,0:0:0:0:
298,24,30497,2,0,P|257:23|208:44,1,70,0|0,3:0|0:0,0:0:0:0:
397,66,30854,2,0,P|430:75|517:7,1,140,10|2,0:2|3:2,0:0:0:0:
435,164,31389,5,0,0:0:0:0:
435,164,31479,1,0,0:0:0:0:
435,164,31568,2,0,P|440:215|467:255,1,70,2|0,3:2|0:0,0:0:0:0:
320,96,31925,2,0,P|315:147|288:187,1,70,2|0,3:2|0:0,0:0:0:0:
242,267,32282,2,0,P|288:245|336:249,1,70,10|0,0:2|0:0,0:0:0:0:
428,329,32639,2,0,P|381:307|333:311,1,70,2|0,3:2|0:0,0:0:0:0:
353,324,32907,5,0,0:0:0:0:
353,324,32997,1,0,3:0:0:0:
247,384,33175,1,8,0:0:0:0:
160,280,33315,1,8,3:0:0:0:
136,359,33492,5,0,0:0:0:0:
136,359,33582,1,0,0:0:0:0:
136,359,33671,1,8,0:0:0:0:
165,195,33850,1,8,3:0:0:0:
24,112,34029,1,4,3:0:0:0:
24,112,34405,6,0,P|84:79|176:109,1,140,4|2,3:2|3:2,0:0:0:0:
174,163,34962,1,2,0:0:0:0:
329,70,35140,5,10,0:0:0:0:
280,131,35319,1,0,0:0:0:0:
318,199,35498,1,2,3:2:0:0:
394,214,35676,1,0,0:0:0:0:
293,365,35854,6,0,P|292:308|373:294,1,140,2|0,3:2|3:0,0:0:0:0:
402,350,36389,1,2,0:0:0:0:
204,359,36568,2,0,P|178:327|125:320,1,70,10|0,0:0|0:0,0:0:0:0:
51,357,36925,1,0,3:0:0:0:
82,242,37103,5,0,0:0:0:0:
82,242,37192,1,0,0:0:0:0:
82,242,37276,2,0,L|102:90,1,140,0|2,3:0|3:2,0:0:0:0:
162,55,37787,1,0,0:0:0:0:
306,159,37966,5,10,0:0:0:0:
238,117,38144,1,0,0:0:0:0:
198,185,38350,1,2,3:2:0:0:
276,295,38532,5,0,0:0:0:0:
276,295,38621,1,0,0:0:0:0:
276,295,38710,2,0,P|273:258|254:216,1,70,2|0,3:2|0:0,0:0:0:0:
306,159,39066,1,2,3:2:0:0:
367,263,39245,2,0,P|369:226|388:184,1,70,2|8,0:0|0:0,0:0:0:0:
460,182,39602,1,2,0:0:0:0:
306,159,39781,2,0,L|297:89,1,70,2|0,3:2|0:0,0:0:0:0:
317,16,40049,5,0,0:0:0:0:
317,16,40138,2,0,P|283:60|182:58,1,140,0|2,3:0|3:2,0:0:0:0:
141,20,40674,1,2,0:0:0:0:
141,193,40852,5,10,0:2:0:0:
76,147,41030,1,0,0:0:0:0:
62,226,41209,1,2,3:2:0:0:
229,304,41388,5,0,0:0:0:0:
229,304,41477,1,0,0:0:0:0:
229,304,41566,2,0,L|215:148,1,140,2|0,3:2|3:2,0:0:0:0:
236,91,42102,1,2,0:0:0:0:
351,214,42281,2,0,P|315:185|266:204,1,70,10|0,0:2|0:0,0:0:0:0:
371,312,42638,2,0,P|407:283|456:302,1,70,0|0,3:0|0:0,0:0:0:0:
469,352,42906,5,0,0:0:0:0:
469,352,42995,2,0,P|466:299|482:190,1,140,0|2,3:0|3:2,0:0:0:0:
512,145,43531,1,0,0:0:0:0:
303,43,43709,5,10,0:2:0:0:
321,119,43888,1,0,0:0:0:0:
379,25,44066,1,2,3:2:0:0:
397,101,44245,1,0,0:0:0:0:
227,183,44424,6,0,L|236:113,1,70,2|0,3:2|0:0,0:0:0:0:
321,119,44781,1,2,3:2:0:0:
318,270,44959,2,0,L|308:200,1,70,2|8,0:0|0:0,0:0:0:0:
111,163,45316,1,2,0:0:0:0:
236,113,45495,1,2,3:2:0:0:
172,269,45673,5,0,0:0:0:0:
172,269,45763,1,0,0:0:0:0:
172,269,45852,2,0,L|12:248,1,140,0|2,3:0|3:2,0:0:0:0:
17,176,46388,1,2,0:0:0:0:
146,94,46567,6,0,P|141:53|124:13,1,70,10|0,0:2|0:0,0:0:0:0:
221,180,46924,2,0,P|226:139|243:99,1,70,2|0,3:2|0:0,0:0:0:0:
440,137,47281,6,0,P|383:175|314:167,1,140,2|2,3:2|3:2,0:0:0:0:
308,88,47817,1,2,0:0:0:0:
319,261,47995,6,0,P|250:253|193:291,2,140,8|0|0,0:0|3:0|3:0,0:0:0:0:
319,261,49067,5,2,3:2:0:0:
337,336,49244,1,0,0:0:0:0:
512,211,49424,5,10,0:2:0:0:
437,225,49602,1,0,0:0:0:0:
374,181,49781,1,2,3:2:0:0:
368,105,49958,1,0,0:0:0:0:
156,169,50138,6,0,L|302:152,1,140,2|2,3:2|3:2,0:0:0:0:
181,259,50674,2,0,L|41:242,1,140,2|2,0:0|0:0,0:0:0:0:
25,166,51208,1,2,3:2:0:0:
148,74,51388,5,0,0:0:0:0:
148,74,51477,1,0,0:0:0:0:
148,74,51567,2,0,P|146:38|53:30,1,140,0|2,3:0|3:2,0:0:0:0:
27,88,52102,1,0,0:0:0:0:
231,41,52281,6,0,L|325:59,1,70,10|0,0:2|0:0,0:0:0:0:
353,205,52638,1,2,3:2:0:0:
391,105,52816,1,0,0:0:0:0:
482,269,52995,6,0,P|412:277|345:297,1,140,2|2,3:2|3:2,0:0:0:0:
310,365,53531,1,0,0:0:0:0:
214,222,53710,2,0,P|221:254|217:321,1,70,8|0,0:0|0:0,0:0:0:0:
56,361,54067,2,0,P|56:326|63:291,1,70,0|0,3:0|0:0,0:0:0:0:
117,235,54335,5,0,0:0:0:0:
117,235,54424,2,0,L|107:93,1,140,2|2,3:2|3:2,0:0:0:0:
61,34,54960,1,0,0:0:0:0:
348,71,55138,5,10,0:2:0:0:
273,57,55316,1,0,0:0:0:0:
210,101,55495,1,2,3:2:0:0:
204,177,55674,1,0,0:0:0:0:
195,16,55852,5,2,3:2:0:0:
287,140,56031,1,8,0:0:0:0:
236,272,56210,1,10,3:0:0:0:
236,272,56567,5,8,0:0:0:0:
362,166,56745,1,10,3:0:0:0:
396,351,56924,1,6,3:0:0:0:
396,351,57281,6,0,P|326:346|259:366,1,140,6|2,3:2|3:2,0:0:0:0:
121,264,57817,2,0,P|151:284|166:341,1,70,2|8,0:0|0:0,0:0:0:0:
136,384,58174,1,2,0:0:0:0:
8,263,58352,2,0,P|38:243|53:186,1,70,2|0,3:2|0:0,0:0:0:0:
6,74,58710,6,0,P|58:112|119:108,1,105,2|0,3:2|0:0,0:0:0:0:
108,99,59067,1,2,3:2:0:0:
261,39,59245,2,0,P|228:26|193:25,1,70,2|8,0:2|0:0,0:0:0:0:
167,189,59602,1,2,0:0:0:0:
210,106,59781,1,0,3:0:0:0:
297,243,59960,5,0,0:0:0:0:
297,243,60049,1,0,0:0:0:0:
297,243,60138,2,0,L|457:224,1,140,2|2,3:2|3:2,0:0:0:0:
309,346,60674,2,0,P|275:336|240:332,1,70,2|8,0:0|0:0,0:0:0:0:
118,363,61031,1,2,0:0:0:0:
143,249,61210,1,2,3:2:0:0:
45,166,61388,5,0,0:0:0:0:
45,166,61477,1,0,0:0:0:0:
45,166,61567,1,2,3:2:0:0:
190,85,61745,1,10,0:0:0:0:
143,249,61924,1,0,3:0:0:0:
128,164,62102,1,2,0:0:0:0:
142,249,62281,2,0,P|171:229|206:230,1,70,8|0,0:0|0:0,0:0:0:0:
335,164,62638,2,0,P|300:164|271:145,1,70,0|0,3:0|0:0,0:0:0:0:
461,75,62995,6,0,L|444:214,1,140,2|2,3:2|3:2,0:0:0:0:
301,302,63531,2,0,P|353:273|392:280,1,70,2|8,0:0|0:0,0:0:0:0:
427,315,63888,1,2,0:0:0:0:
243,366,64067,2,0,P|191:337|152:344,1,70,2|0,3:2|0:0,0:0:0:0:
35,357,64424,6,0,P|54:290|45:229,1,105,2|0,3:2|0:0,0:0:0:0:
40,245,64781,1,2,3:2:0:0:
148,110,64960,2,0,P|136:143|136:178,1,70,2|8,0:0|0:0,0:0:0:0:
264,220,65317,1,2,0:0:0:0:
161,263,65495,1,2,3:2:0:0:
245,110,65674,5,0,0:0:0:0:
245,110,65763,1,0,0:0:0:0:
245,110,65852,2,0,L|385:123,1,140,2|2,3:2|3:2,0:0:0:0:
436,62,66388,1,2,0:0:0:0:
470,205,66567,2,0,P|433:207|403:231,1,70,8|2,0:0|0:0,0:0:0:0:
366,290,66924,1,2,3:2:0:0:
240,216,67102,5,2,0:0:0:0:
240,216,67192,1,0,0:0:0:0:
240,216,67281,1,2,3:2:0:0:
200,362,67460,1,10,0:0:0:0:
366,290,67638,1,0,3:2:0:0:
259,295,67817,1,2,0:2:0:0:
37,234,67995,6,0,P|83:285|90:354,1,140,12|0,3:2|3:0,0:0:0:0:
163,223,68531,5,0,0:0:0:0:
163,223,68620,1,0,0:0:0:0:
163,223,68710,2,0,P|167:183|239:115,1,140,6|2,3:2|3:2,0:0:0:0:
82,167,69245,2,0,P|79:132|67:99,1,70,2|8,0:0|0:0,0:0:0:0:
0,57,69602,1,2,0:0:0:0:
136,25,69781,2,0,P|165:39|206:38,1,70,2|0,3:2|0:0,0:0:0:0:
299,203,70138,6,0,P|308:169|228:118,1,140,2|2,3:2|3:2,0:0:0:0:
378,247,70674,2,0,P|407:216|440:214,1,70,2|8,0:0|0:0,0:0:0:0:
502,248,71031,1,2,0:0:0:0:
445,126,71210,1,2,3:2:0:0:
308,295,71388,5,0,0:0:0:0:
308,295,71477,1,0,0:0:0:0:
308,295,71567,2,0,L|154:274,1,140,2|2,3:2|3:2,0:0:0:0:
48,381,72102,2,0,P|40:349|40:283,1,70,2|8,0:0|0:0,0:0:0:0:
44,139,72460,1,2,0:0:0:0:
92,237,72638,1,2,3:2:0:0:
201,65,72817,5,2,0:0:0:0:
201,65,72906,1,0,0:0:0:0:
201,65,72995,1,2,3:2:0:0:
140,153,73174,1,10,0:0:0:0:
275,212,73352,2,0,P|270:176|246:131,1,70,0|2,3:0|0:0,0:0:0:0:
366,272,73710,2,0,P|371:236|395:191,1,70,8|0,0:0|0:0,0:0:0:0:
461,185,74067,1,0,3:0:0:0:
275,299,74245,5,0,0:0:0:0:
275,299,74335,1,0,0:0:0:0:
275,299,74424,2,0,P|212:293|167:329,1,105.000004005432,6|2,3:2|0:0,0:0:0:0:
92,364,74959,1,2,0:0:0:0:
92,364,75138,2,0,L|104:258,1,105.000004005432
214,174,75674,5,2,0:0:0:0:
214,174,75852,2,0,B|168:193|168:193|100:177,1,105.000004005432,2|2,0:0|0:0,0:0:0:0:
156,4,76388,1,2,0:0:0:0:
156,4,76567,2,0,L|161:124,1,105.000004005432
317,61,77102,5,2,0:0:0:0:
317,61,77281,2,0,P|343:70|373:100,1,52.5000020027161,2|0,0:0|0:0,0:0:0:0:
475,116,77638,1,2,0:0:0:0:
475,116,77817,2,0,P|449:125|419:155,1,52.5000020027161,2|0,0:0|0:0,0:0:0:0:
418,245,78174,1,2,0:0:0:0:
329,269,78352,2,0,L|334:185,1,78.7500030040742,2|0,0:0|0:0,0:0:0:0:
339,177,78709,5,2,0:0:0:0:
418,245,78888,1,8,0:0:0:0:
247,212,79067,1,10,3:0:0:0:
316,354,79245,5,0,0:0:0:0:
316,354,79334,1,0,0:0:0:0:
316,354,79424,1,10,0:0:0:0:
247,212,79602,1,10,3:0:0:0:
96,281,79781,1,4,3:0:0:0:
96,281,80138,6,0,L|71:99,1,167.999994873047,6|2,3:2|3:2,0:0:0:0:
47,39,80674,1,2,0:0:0:0:
176,174,80852,1,8,0:0:0:0:
254,77,81031,1,2,0:0:0:0:
322,205,81209,2,0,P|360:188|401:180,1,83.9999974365235,2|0,3:2|0:0,0:0:0:0:
420,196,81477,5,0,0:0:0:0:
420,196,81567,1,2,3:2:0:0:
484,277,81745,1,8,0:0:0:0:
318,336,81924,2,0,P|279:319|238:311,1,83.9999974365235,2|0,3:2|0:0,0:0:0:0:
80,258,82281,2,0,P|121:249|159:233,1,83.9999974365235,10|2,0:2|0:0,0:0:0:0:
179,45,82638,1,0,3:0:0:0:
245,183,82817,1,2,0:0:0:0:
430,65,82995,6,0,P|335:36|280:97,1,167.999994873047,2|2,3:2|3:0,0:0:0:0:
297,88,83531,1,0,0:0:0:0:
401,232,83709,2,0,P|409:191|430:145,1,83.9999974365235,10|0,0:0|0:0,0:0:0:0:
419,380,84067,1,2,3:2:0:0:
320,261,84245,1,2,0:0:0:0:
219,363,84424,6,0,P|198:337|135:342,1,83.9999974365235,2|0,3:2|0:0,0:0:0:0:
26,253,84781,2,0,P|66:252|95:222,1,83.9999974365235,2|0,3:2|0:0,0:0:0:0:
120,38,85138,2,0,P|111:84|79:134,1,83.9999974365235,10|0,0:2|0:0,0:0:0:0:
221,226,85495,2,0,P|202:189|195:148,1,83.9999974365235,2|0,3:2|0:0,0:0:0:0:
237,90,85763,5,0,0:0:0:0:
245,83,85852,2,0,P|321:98|421:95,1,167.999994873047,2|2,3:2|3:2,0:0:0:0:
477,50,86388,1,2,0:0:0:0:
408,224,86567,2,0,P|444:197|489:200,1,83.9999974365235,8|2,0:0|0:0,0:0:0:0:
357,317,86924,2,0,P|321:290|276:293,1,83.9999974365235,0|0,3:2|0:0,0:0:0:0:
278,312,87192,5,0,0:0:0:0:
278,312,87281,1,0,3:0:0:0:
225,195,87459,1,8,0:0:0:0:
130,318,87638,2,0,L|115:212,1,83.9999974365235,2|0,3:2|0:0,0:0:0:0:
51,84,87995,2,0,L|39:167,1,83.9999974365235,10|0,0:2|0:0,0:0:0:0:
18,282,88352,1,2,3:2:0:0:
157,109,88531,5,0,0:0:0:0:
157,109,88620,1,0,0:0:0:0:
157,109,88709,2,0,P|234:99|330:68,1,167.999994873047,2|0,3:2|3:0,0:0:0:0:
325,58,89245,1,0,0:0:0:0:
451,144,89424,2,0,P|432:184|433:226,1,83.9999974365235,8|0,0:0|0:0,0:0:0:0:
479,355,89781,1,2,3:2:0:0:
349,273,89959,5,2,0:0:0:0:
349,273,90049,1,0,0:0:0:0:
349,273,90138,1,0,3:0:0:0:
238,384,90317,1,8,0:0:0:0:
226,189,90495,1,8,3:0:0:0:
226,189,90852,5,8,0:0:0:0:
144,318,91031,1,10,3:0:0:0:
11,167,91209,1,6,3:0:0:0:
11,167,91567,6,0,L|28:354,1,167.999994873047,4|0,3:2|3:0,0:0:0:0:
84,384,92102,1,2,0:0:0:0:
227,304,92281,2,0,P|188:287|146:283,1,83.9999974365235,10|0,0:2|0:0,0:0:0:0:
267,179,92638,2,0,P|308:175|347:158,1,83.9999974365235,2|0,3:2|0:0,0:0:0:0:
358,139,92906,5,0,0:0:0:0:
358,139,92995,1,2,3:2:0:0:
358,2,93174,1,8,0:0:0:0:
460,161,93352,2,0,L|477:75,1,83.9999974365235,2|2,3:2|0:0,0:0:0:0:
497,281,93709,2,0,P|448:249|322:269,1,167.999994873047,8|0,0:0|3:0,0:0:0:0:
338,272,94245,1,0,0:0:0:0:
210,207,94424,6,0,P|219:247|221:289,1,83.9999974365235,2|0,3:2|0:0,0:0:0:0:
44,378,94781,2,0,P|45:336|54:295,1,83.9999974365235,0|2,3:0|0:0,0:0:0:0:
17,107,95138,2,0,P|19:185|95:202,1,167.999994873047,8|2,0:0|3:2,0:0:0:0:
298,122,95674,5,0,0:0:0:0:
298,122,95763,1,0,0:0:0:0:
298,122,95852,2,0,P|214:118|135:92,1,167.999994873047,2|2,3:2|3:0,0:0:0:0:
108,19,96388,1,2,0:0:0:0:
187,197,96567,2,0,L|169:295,1,83.9999974365235,10|0,0:0|0:0,0:0:0:0:
318,354,96924,2,0,L|302:271,1,83.9999974365235,2|0,3:2|0:0,0:0:0:0:
491,252,97281,6,0,P|406:253|374:184,1,167.999994873047,2|0,3:2|3:0,0:0:0:0:
386,171,97817,1,0,0:0:0:0:
312,36,97995,2,0,P|309:79|280:127,1,83.9999974365235,10|0,0:2|0:0,0:0:0:0:
195,246,98352,2,0,P|192:204|173:166,1,83.9999974365235,2|0,3:2|0:0,0:0:0:0:
103,141,98620,5,0,0:0:0:0:
92,149,98709,2,0,P|84:215|105:320,1,167.999994873047,0|2,3:0|3:2,0:0:0:0:
175,347,99245,1,2,0:0:0:0:
355,306,99424,2,0,P|319:284|277:280,1,83.9999974365235,8|0,0:0|0:0,0:0:0:0:
386,198,99781,1,2,3:2:0:0:
445,318,99959,1,2,0:0:0:0:
507,71,100138,6,0,P|479:148|473:235,1,167.999994873047,6|0,3:2|3:0,0:0:0:0:
485,246,100674,1,0,0:0:0:0:
364,117,100852,2,0,P|379:156|385:197,1,83.9999974365235,14|0,0:2|0:0,0:0:0:0:
319,296,101209,1,2,3:2:0:0:
202,193,101388,5,8,3:0:0:0:
202,193,101477,1,0,0:0:0:0:
202,193,101567,1,0,3:0:0:0:
146,312,101745,1,8,3:0:0:0:
27,256,101924,1,4,3:0:0:0:
119,64,102102,5,8,0:0:0:0:
119,64,102192,1,0,0:0:0:0:
119,64,102281,2,0,P|94:98|84:138,1,83.9999974365235,8|0,3:0|0:0,0:0:0:0:
237,267,102638,2,0,P|226:226|201:192,1,83.9999974365235,4|0,3:0|0:0,0:0:0:0:
420,94,102995,6,0,P|336:137|326:224,1,167.999994873047,6|2,3:2|3:2,0:0:0:0:
365,267,103531,1,2,0:0:0:0:
201,192,103709,1,8,0:0:0:0:
262,100,103888,1,2,0:0:0:0:
140,26,104067,2,0,P|168:75|167:119,1,83.9999974365235,2|0,3:2|0:0,0:0:0:0:
165,121,104334,5,0,0:0:0:0:
165,121,104424,1,2,3:2:0:0:
39,104,104602,1,8,0:0:0:0:
57,272,104781,2,0,P|66:233|93:190,1,83.9999974365235,2|0,3:2|0:0,0:0:0:0:
190,316,105138,1,10,0:0:0:0:
245,192,105317,1,2,0:0:0:0:
331,320,105495,2,0,P|368:293|413:295,1,83.9999974365235,0|2,3:0|0:0,0:0:0:0:
462,353,105763,5,0,0:0:0:0:
462,353,105852,2,0,P|445:272|475:178,1,167.999994873047,2|2,3:2|3:2,0:0:0:0:
483,189,106388,1,0,0:0:0:0:
374,65,106567,2,0,L|290:76,1,83.9999974365235,10|0,0:2|0:0,0:0:0:0:
243,233,106924,1,2,3:2:0:0:
162,113,107102,1,2,0:0:0:0:
49,228,107281,6,0,P|88:213|129:213,1,83.9999974365235,2|0,3:2|0:0,0:0:0:0:
228,344,107638,2,0,P|186:344|147:329,1,83.9999974365235,2|0,3:2|0:0,0:0:0:0:
325,243,107995,2,0,L|338:350,1,83.9999974365235,10|0,0:0|0:0,0:0:0:0:
279,159,108352,2,0,L|290:76,1,83.9999974365235,2|0,3:2|0:0,0:0:0:0:
338,19,108620,5,0,0:0:0:0:
346,25,108709,2,0,P|277:51|162:34,1,167.999994873047,2|2,3:2|3:2,0:0:0:0:
123,0,109245,1,2,0:0:0:0:
34,176,109424,1,8,0:0:0:0:
131,123,109602,1,2,0:0:0:0:
190,252,109781,2,0,P|148:251|112:231,1,83.9999974365235,2|0,3:2|0:0,0:0:0:0:
117,209,110049,5,0,0:0:0:0:
117,209,110138,1,0,3:0:0:0:
147,347,110317,1,8,0:0:0:0:
281,275,110495,2,0,L|265:358,1,83.9999974365235,2|0,3:2|0:0,0:0:0:0:
396,265,110852,6,0,P|362:198|406:111,1,167.999994873047,14|0,3:2|3:0,0:0:0:0:
486,50,111388,5,0,0:0:0:0:
486,50,111477,1,0,0:0:0:0:
486,50,111567,2,0,P|411:37|299:29,1,167.999994873047,6|2,3:2|3:2,0:0:0:0:
306,41,112102,1,0,0:0:0:0:
206,158,112281,2,0,P|190:105|154:59,1,83.9999974365235,10|0,0:2|0:0,0:0:0:0:
97,188,112638,1,2,3:2:0:0:
211,290,112817,5,2,0:0:0:0:
211,290,112906,1,0,0:0:0:0:
211,290,112995,1,0,3:0:0:0:
310,177,113174,1,8,0:0:0:0:
313,370,113352,1,8,3:0:0:0:
313,370,113709,5,2,3:0:0:0:
217,199,113888,1,10,0:0:0:0:
58,322,114067,1,6,3:0:0:0:
58,322,114424,6,0,P|54:237|40:156,1,167.999994873047,6|0,3:2|3:0,0:0:0:0:
25,144,114959,1,0,0:0:0:0:
186,68,115138,2,0,P|144:60|105:46,1,83.9999974365235,10|0,0:2|0:0,0:0:0:0:
277,178,115495,2,0,P|235:185|196:199,1,83.9999974365235,2|0,3:2|0:0,0:0:0:0:
192,223,115763,5,0,0:0:0:0:
192,223,115852,1,2,3:2:0:0:
230,340,116031,1,10,0:0:0:0:
341,236,116209,2,0,L|325:319,1,83.9999974365235,0|0,3:2|0:0,0:0:0:0:
499,282,116567,2,0,P|430:219|486:170,1,167.999994873047,8|0,0:0|3:0,0:0:0:0:
288,114,117102,5,0,0:0:0:0:
288,114,117192,1,0,0:0:0:0:
288,114,117281,2,0,P|367:102|456:60,1,167.999994873047,0|0,3:0|3:0,0:0:0:0:
492,2,117817,1,2,0:0:0:0:
465,174,117995,2,0,L|455:273,1,83.9999974365235,8|0,0:0|0:0,0:0:0:0:
355,332,118352,1,2,3:2:0:0:
268,198,118531,5,2,0:0:0:0:
268,198,118620,1,0,0:0:0:0:
268,198,118709,1,0,3:0:0:0:
165,276,118888,1,8,0:0:0:0:
79,154,119067,2,0,P|127:154|180:190,1,83.9999974365235,2|0,3:2|0:0,0:0:0:0:
360,34,119424,2,0,P|312:34|227:119,1,167.999994873047,14|2,0:0|3:2,0:0:0:0:
446,194,119959,5,0,0:0:0:0:
446,194,120049,1,0,0:0:0:0:
446,194,120138,2,0,L|471:27,1,167.999994873047,4|0,3:2|3:0,0:0:0:0:
468,11,120674,1,0,0:0:0:0:
330,115,120852,2,0,P|346:153|354:194,1,83.9999974365235,10|0,0:2|0:0,0:0:0:0:
178,301,121209,2,0,P|186:259|202:221,1,83.9999974365235,2|0,3:2|0:0,0:0:0:0:
275,190,121477,5,0,0:0:0:0:
275,190,121567,2,0,L|91:156,1,167.999994873047,0|2,3:0|3:2,0:0:0:0:
33,176,122102,1,2,0:0:0:0:
99,34,122281,2,0,P|128:63|166:81,1,83.9999974365235,8|0,0:0|0:0,0:0:0:0:
339,55,122638,2,0,P|301:72|271:102,1,83.9999974365235,2|2,3:2|0:0,0:0:0:0:
398,312,122995,6,0,P|381:202|356:134,1,167.999994873047,6|0,3:2|3:0,0:0:0:0:
102,163,123531,5,8,3:0:0:0:
212,196,123709,1,0,3:0:0:0:
271,101,123888,1,4,3:0:0:0:
236,286,124067,5,0,3:0:0:0:
184,115,124245,1,8,0:0:0:0:
82,309,124424,1,0,3:0:0:0:
82,309,124781,6,0,P|93:271|81:159,1,125.999996154785,8|0,0:0|0:0,0:0:0:0:
79,177,125138,1,8,0:0:0:0:
197,239,125317,1,8,3:0:0:0:
275,90,125495,1,4,3:0:0:0:
275,90,125852,6,0,L|441:108,1,140,4|0,3:2|3:0,0:0:0:0:
425,119,126388,1,0,0:0:0:0:
342,190,126567,2,0,P|357:224|363:288,1,70,10|0,0:0|0:0,0:0:0:0:
334,326,126924,1,0,3:0:0:0:
200,195,127102,5,2,0:0:0:0:
200,195,127192,1,0,0:0:0:0:
200,195,127281,1,0,3:0:0:0:
136,146,127459,1,8,0:0:0:0:
79,200,127638,2,0,L|95:280,1,70,2|0,3:2|0:0,0:0:0:0:
255,339,127995,2,0,P|172:325|111:373,1,140,10|0,0:2|3:0,0:0:0:0:
343,301,128531,5,0,0:0:0:0:
343,301,128620,1,0,0:0:0:0:
343,301,128709,2,0,P|392:293|428:257,1,70,2|0,3:2|0:0,0:0:0:0:
279,194,129067,2,0,P|248:177|213:175,1,70,2|0,3:2|0:0,0:0:0:0:
386,125,129424,2,0,P|391:160|412:187,1,70,10|0,0:2|0:0,0:0:0:0:
280,74,129781,2,0,P|301:46|306:12,1,70,2|0,3:2|0:0,0:0:0:0:
213,175,130138,5,0,3:0:0:0:
126,60,130316,1,8,0:0:0:0:
57,188,130495,2,0,L|43:104,1,70,2|0,3:2|0:0,0:0:0:0:
125,283,130852,2,0,L|136:213,1,70,10|0,0:2|0:0,0:0:0:0:
57,378,131209,2,0,L|45:308,1,70,2|0,3:2|0:0,0:0:0:0:
328,362,131567,6,0,P|235:324|171:329,1,140,2|0,3:2|3:0,0:0:0:0:
190,341,132102,1,0,0:0:0:0:
350,264,132281,2,0,L|341:176,1,70,10|0,0:2|0:0,0:0:0:0:
330,117,132638,1,0,3:0:0:0:
134,65,132817,5,2,0:0:0:0:
133,65,132906,1,0,0:0:0:0:
133,65,132995,1,0,3:0:0:0:
211,44,133174,1,8,0:0:0:0:
255,112,133352,2,0,P|250:139|237:187,1,70,2|0,3:2|0:0,0:0:0:0:
60,177,133709,2,0,P|93:154|141:163,1,70,10|0,0:2|0:0,0:0:0:0:
242,312,134067,2,0,P|207:310|180:288,1,70,2|0,3:2|0:0,0:0:0:0:
132,232,134334,5,0,0:0:0:0:
132,232,134424,2,0,P|129:294|117:393,1,140,2|2,3:2|3:2,0:0:0:0:
105,380,134959,1,0,0:0:0:0:
242,312,135138,2,0,P|249:346|259:380,1,70,10|0,0:2|0:0,0:0:0:0:
355,287,135495,2,0,P|365:253|372:219,1,70,2|0,3:2|0:0,0:0:0:0:
362,201,135763,5,0,0:0:0:0:
362,201,135852,1,2,3:2:0:0:
245,168,136031,1,8,0:0:0:0:
319,40,136209,1,2,3:2:0:0:
319,40,136567,5,10,0:2:0:0:
221,90,136745,1,0,0:0:0:0:
138,0,136924,1,2,3:2:0:0:
95,167,137102,5,0,0:0:0:0:
95,167,137192,1,0,0:0:0:0:
95,167,137281,2,0,P|109:242|112:326,1,140,6|2,3:2|3:2,0:0:0:0:
101,320,137817,1,0,0:0:0:0:
204,248,137995,2,0,L|285:256,1,70,10|0,0:2|0:0,0:0:0:0:
338,303,138352,1,0,3:0:0:0:
477,141,138531,5,2,0:0:0:0:
477,141,138620,1,0,0:0:0:0:
477,141,138709,1,0,3:0:0:0:
404,108,138888,1,8,0:0:0:0:
343,159,139067,2,0,P|348:193|374:247,1,70,2|0,3:2|0:0,0:0:0:0:
238,141,139424,2,0,P|250:108|256:73,1,70,10|0,0:2|0:0,0:0:0:0:
223,0,139781,1,2,3:2:0:0:
92,103,139959,5,0,0:0:0:0:
92,103,140049,1,0,0:0:0:0:
92,103,140138,2,0,P|61:87|27:86,1,70,2|0,3:2|0:0,0:0:0:0:
172,158,140495,2,0,P|207:156|238:141,1,70,2|0,3:2|0:0,0:0:0:0:
67,206,140852,2,0,L|79:295,1,70,10|0,0:0|0:0,0:0:0:0:
180,347,141209,2,0,L|189:277,1,70,2|0,3:2|0:0,0:0:0:0:
207,261,141477,5,0,0:0:0:0:
207,261,141567,1,0,3:0:0:0:
299,319,141745,1,8,0:0:0:0:
347,158,141924,1,2,3:2:0:0:
347,158,142281,2,0,P|354:192|379:238,1,70,10|0,0:2|0:0,0:0:0:0:
273,53,142638,2,0,P|266:87|241:133,1,70,2|0,3:2|0:0,0:0:0:0:
56,143,142995,6,0,P|125:145|182:183,1,140,2|0,3:2|3:0,0:0:0:0:
179,203,143531,1,0,0:0:0:0:
120,303,143709,2,0,P|153:293|188:287,1,70,10|0,0:0|0:0,0:0:0:0:
264,308,144067,1,2,3:2:0:0:
432,245,144245,5,2,0:0:0:0:
432,245,144334,1,0,0:0:0:0:
432,245,144424,1,2,3:2:0:0:
451,169,144602,1,8,0:0:0:0:
404,107,144781,2,0,P|367:111|320:138,1,70,2|0,3:2|0:0,0:0:0:0:
193,182,145138,2,0,P|230:186|277:213,1,70,8|0,0:0|0:0,0:0:0:0:
307,261,145495,1,2,3:2:0:0:
140,304,145674,5,0,0:0:0:0:
140,304,145763,1,0,0:0:0:0:
140,304,145852,2,0,L|152:375,1,70,2|0,3:2|0:0,0:0:0:0:
28,294,146209,2,0,L|39:224,1,70,2|0,3:2|0:0,0:0:0:0:
35,84,146567,2,0,P|57:114|103:127,1,70,10|0,0:0|0:0,0:0:0:0:
210,161,146924,2,0,P|178:175|158:203,1,70,2|0,3:2|0:0,0:0:0:0:
167,225,147192,5,0,0:0:0:0:
167,225,147281,1,2,3:2:0:0:
274,243,147459,1,8,0:0:0:0:
297,342,147627,1,8,3:0:0:0:
372,276,147805,5,0,0:0:0:0:
372,276,147894,1,0,0:0:0:0:
372,276,147984,1,8,0:0:0:0:
432,146,148162,1,8,3:0:0:0:
326,52,148329,1,4,3:0:0:0:
326,52,148684,6,0,P|316:125|290:197,1,140,4|2,3:2|3:2,0:0:0:0:
280,195,149246,1,0,0:0:0:0:
370,305,149425,5,10,0:0:0:0:
293,289,149603,1,0,0:0:0:0:
216,309,149782,1,2,3:2:0:0:
172,374,149960,1,0,0:0:0:0:
110,239,150139,6,0,P|135:164|148:95,1,140,2|0,3:2|3:0,0:0:0:0:
110,34,150675,1,0,0:0:0:0:
251,109,150853,2,0,P|323:94|379:141,2,140,10|0|0,0:0|3:0|3:0,0:0:0:0:
251,109,151925,5,2,3:2:0:0:
231,182,152103,1,0,0:0:0:0:
400,271,152282,5,10,0:2:0:0:
379,200,152459,1,0,0:0:0:0:
329,292,152639,1,2,3:2:0:0:
307,221,152818,1,0,0:0:0:0:
217,345,152996,6,0,P|149:326|80:320,1,140,2|2,3:2|3:2,0:0:0:0:
160,229,153532,2,0,P|156:193|148:157,1,70,2|8,0:0|0:0,0:0:0:0:
117,90,153889,1,2,0:0:0:0:
247,181,154068,2,0,P|251:145|259:109,1,70,2|0,3:2|0:0,0:0:0:0:
433,209,154425,6,0,P|372:221|301:262,1,140,0|2,3:0|3:2,0:0:0:0:
274,328,154959,1,0,0:0:0:0:
100,358,155139,5,10,0:2:0:0:
84,281,155318,1,0,0:0:0:0:
161,265,155496,1,2,3:2:0:0:
177,342,155675,1,0,0:0:0:0:
106,172,155853,6,0,L|250:181,1,140,2|2,3:2|3:2,0:0:0:0:
319,202,156389,1,2,0:0:0:0:
380,83,156568,2,0,P|386:117|403:153,1,70,10|0,0:2|0:0,0:0:0:0:
479,239,156925,2,0,P|485:204|499:172,1,70,0|0,3:0|0:0,0:0:0:0:
468,343,157282,6,0,P|413:310|321:326,1,140,0|2,3:0|3:2,0:0:0:0:
281,364,157818,1,0,0:0:0:0:
156,192,157996,5,10,0:2:0:0:
200,255,158175,1,0,0:0:0:0:
182,331,158353,1,2,3:2:0:0:
115,369,158532,1,0,0:0:0:0:
40,250,158698,6,0,P|74:254|113:272,2,70,2|8|2,3:2|0:0|3:2,0:0:0:0:
156,192,159227,2,0,L|149:106,1,70,2|8,0:0|0:0,0:0:0:0:
123,49,159584,1,2,0:0:0:0:
237,125,159762,2,0,L|244:39,1,70,2|0,3:2|0:0,0:0:0:0:
388,203,160133,6,0,P|319:196|255:225,1,140,0|2,3:0|3:2,0:0:0:0:
221,292,160668,1,0,0:0:0:0:
60,353,160847,5,10,0:0:0:0:
109,293,161025,1,0,0:0:0:0:
60,233,161204,1,2,3:2:0:0:
109,173,161383,1,0,0:0:0:0:
24,65,161561,6,0,P|89:86|182:74,1,140,2|2,3:2|3:2,0:0:0:0:
210,20,162096,1,0,0:0:0:0:
266,176,162275,2,0,L|288:21,2,140,10|0|0,0:0|3:0|3:0,0:0:0:0:
266,176,163346,5,2,3:2:0:0:
344,158,163525,1,0,0:0:0:0:
387,334,163704,5,10,0:2:0:0:
403,257,163883,1,0,0:0:0:0:
326,241,164061,1,2,3:2:0:0:
310,318,164240,1,0,0:0:0:0:
223,231,164418,6,0,L|153:242,1,70,2|0,3:2|0:0,0:0:0:0:
91,291,164775,1,2,3:2:0:0:
21,182,164954,2,0,L|90:193,1,70,2|8,0:2|0:0,0:0:0:0:
153,241,165311,1,2,0:0:0:0:
193,137,165489,2,0,P|186:101|151:50,1,70,2|0,3:2|0:0,0:0:0:0:
283,177,165846,6,0,P|304:117|368:54,1,140,0|2,3:0|3:2,0:0:0:0:
432,74,166382,1,0,0:0:0:0:
503,203,166561,2,0,P|475:191|434:185,1,70,10|0,0:0|0:0,0:0:0:0:
367,308,166918,1,2,3:2:0:0:
289,226,167096,1,2,0:0:0:0:
147,353,167275,6,0,P|222:318|307:318,1,140,2|0,3:2|3:0,0:0:0:0:
290,331,167811,1,0,0:0:0:0:
164,230,167989,2,0,P|174:194|178:146,1,70,10|0,0:0|0:0,0:0:0:0:
7,65,168346,2,0,P|11:99|20:133,1,70,2|0,3:2|0:0,0:0:0:0:
93,168,168614,5,0,0:0:0:0:
93,168,168704,2,0,L|76:340,1,140,0|2,3:0|3:2,0:0:0:0:
67,384,169239,1,0,0:0:0:0:
311,347,169418,5,10,0:0:0:0:
256,285,169596,1,0,0:0:0:0:
178,312,169775,1,2,3:2:0:0:
351,257,169954,5,0,0:0:0:0:
351,257,170043,1,0,0:0:0:0:
351,257,170132,2,0,P|358:214|378:158,1,70,10|0,3:0|0:0,0:0:0:0:
435,117,170489,1,10,0:0:0:0:
261,174,170668,2,0,P|254:131|234:75,1,70,6|0,3:0|0:0,0:0:0:0:
177,34,171025,1,10,3:0:0:0:
48,201,171204,2,0,P|80:161|131:155,1,105,6|0,3:0|0:0,0:0:0:0:
144,150,171561,6,0,L|132:298,1,140,6|2,3:2|3:2,0:0:0:0:
233,201,172096,2,0,P|263:217|287:243,1,70,2|8,0:0|0:0,0:0:0:0:
321,316,172454,1,2,0:0:0:0:
426,186,172632,2,0,P|395:202|371:228,1,70,2|0,3:2|0:0,0:0:0:0:
512,221,172990,6,0,L|499:85,1,105,2|0,3:2|0:0,0:0:0:0:
495,106,173346,1,2,3:2:0:0:
375,15,173525,2,0,L|365:110,1,70,2|8,0:0|0:0,0:0:0:0:
296,195,173882,1,2,0:0:0:0:
213,105,174061,1,2,3:2:0:0:
58,209,174239,5,0,0:0:0:0:
58,209,174329,1,0,0:0:0:0:
58,209,174418,2,0,P|132:203|202:188,1,140,2|2,3:2|3:2,0:0:0:0:
290,310,174954,2,0,P|262:302|203:298,1,70,2|8,0:0|0:0,0:0:0:0:
150,330,175311,1,2,0:0:0:0:
196,189,175489,2,0,L|190:119,1,70,2|2,3:2|0:0,0:0:0:0:
210,100,175757,5,0,0:0:0:0:
210,100,175846,1,2,3:2:0:0:
287,32,176025,1,8,0:0:0:0:
332,166,176204,1,2,3:2:0:0:
414,105,176382,1,2,0:0:0:0:
488,210,176561,2,0,P|454:200|419:195,1,70,8|0,0:0|0:0,0:0:0:0:
350,345,176918,2,0,P|384:339|418:330,1,70,0|0,3:2|0:0,0:0:0:0:
284,246,177275,6,0,L|151:232,1,105,2|0,3:2|0:0,0:0:0:0:
168,240,177632,1,0,3:2:0:0:
91,357,177811,2,0,P|88:321|77:270,1,70,2|8,0:0|0:0,0:0:0:0:
0,141,178168,1,2,0:0:0:0:
103,189,178346,1,2,3:2:0:0:
210,98,178525,5,0,0:0:0:0:
210,98,178614,1,0,0:0:0:0:
210,98,178704,2,0,P|277:118|350:125,1,140,2|2,3:2|3:2,0:0:0:0:
469,41,179239,2,0,P|458:65|447:114,1,70,2|8,0:0|0:0,0:0:0:0:
476,181,179596,1,2,0:0:0:0:
389,287,179775,2,0,P|381:252|367:220,1,70,2|0,3:2|0:0,0:0:0:0:
221,347,180132,6,0,P|225:286|314:283,1,140,2|2,3:2|3:2,0:0:0:0:
140,297,180668,2,0,P|109:276|65:269,1,70,2|8,0:0|0:0,0:0:0:0:
27,359,181025,1,2,0:0:0:0:
1,226,181204,1,2,3:2:0:0:
72,169,181382,5,2,0:0:0:0:
72,169,181471,1,0,0:0:0:0:
72,169,181561,1,2,3:2:0:0:
202,192,181739,1,8,0:0:0:0:
200,54,181918,1,2,3:2:0:0:
148,126,182096,1,2,0:0:0:0:
292,267,182275,6,0,P|298:196|315:126,1,140,12|2,0:0|3:2,0:0:0:0:
478,32,182811,5,0,0:0:0:0:
478,32,182900,1,0,0:0:0:0:
478,32,182989,1,4,3:2:0:0:
17,175,188703,6,0,P|54:217|59:270,1,105.000004005432,6|0,0:0|0:0,0:0:0:0:
132,346,189238,2,0,P|139:294|175:256,1,105.000004005432,2|0,0:0|0:0,0:0:0:0:
274,328,189774,2,0,P|240:335|206:328,1,52.5000020027161,0|2,0:0|0:0,0:0:0:0:
329,248,190131,6,0,L|433:260,1,105.000004005432,2|0,0:0|0:0,0:0:0:0:
493,150,190667,2,0,L|388:162,1,105.000004005432,2|0,0:0|0:0,0:0:0:0:
417,15,191203,2,0,L|432:66,1,52.5000020027161,0|2,0:0|0:0,0:0:0:0:
287,47,191560,6,0,P|277:71|271:96,1,52.5000020027161,2|2,0:0|0:0,0:0:0:0:
321,222,191917,1,2,0:0:0:0:
321,222,192095,2,0,P|304:201|285:183,1,52.5000020027161,2|0,0:0|0:0,0:0:0:0:
101,174,192453,1,2,0:0:0:0:
100,174,192631,2,0,P|139:168|198:145,1,78.7500030040742,2|0,0:0|0:0,0:0:0:0:
177,142,192988,5,2,0:0:0:0:
170,121,193167,5,2,0:0:0:0:
125,94,193345,5,2,0:0:0:0:
51,106,193524,5,2,0:0:0:0:
2,191,193703,5,2,0:0:0:0:
2,191,194437,6,0,P|88:200|168:222,1,167.999994873047,2|2,3:2|3:2,0:0:0:0:
231,266,194972,1,2,0:0:0:0:
322,117,195150,1,8,0:0:0:0:
401,200,195329,1,2,0:0:0:0:
504,81,195508,2,0,P|463:83|409:96,1,83.9999974365235,2|0,3:2|0:0,0:0:0:0:
419,117,195776,5,0,0:0:0:0:
419,117,195865,1,0,3:0:0:0:
492,207,196044,1,8,0:0:0:0:
361,284,196223,2,0,P|324:265|267:260,1,83.9999974365235,2|0,3:2|0:0,0:0:0:0:
157,384,196580,2,0,P|198:377|235:358,1,83.9999974365235,10|2,0:2|0:0,0:0:0:0:
72,212,196937,1,0,3:0:0:0:
56,360,197115,1,2,0:0:0:0:
177,221,197294,6,0,P|168:141|143:42,1,167.999994873047,2|2,3:2|3:2,0:0:0:0:
130,49,197830,1,0,0:0:0:0:
271,115,198008,2,0,P|301:98|356:88,1,83.9999974365235,10|0,0:2|0:0,0:0:0:0:
487,220,198365,1,2,3:2:0:0:
433,62,198544,1,2,0:0:0:0:
351,196,198723,6,0,P|364:237|368:309,1,83.9999974365235,2|0,3:2|0:0,0:0:0:0:
204,358,199080,2,0,P|209:316|222:276,1,83.9999974365235,2|0,3:2|0:0,0:0:0:0:
258,130,199437,2,0,P|216:164|161:158,1,83.9999974365235,10|0,0:0|0:0,0:0:0:0:
53,226,199794,2,0,P|93:233|123:262,1,83.9999974365235,2|0,3:2|0:0,0:0:0:0:
290,343,200151,6,0,P|366:309|449:305,1,167.999994873047,2|2,3:2|3:2,0:0:0:0:
498,367,200687,1,2,0:0:0:0:
402,214,200865,1,8,0:0:0:0:
484,139,201044,1,2,0:0:0:0:
365,34,201223,2,0,P|381:79|388:134,1,83.9999974365235,2|0,3:2|0:0,0:0:0:0:
380,138,201490,5,0,0:0:0:0:
380,138,201580,1,0,3:0:0:0:
256,64,201758,1,8,0:0:0:0:
186,206,201937,2,0,L|173:116,1,83.9999974365235,2|0,3:2|0:0,0:0:0:0:
62,244,202294,2,0,L|49:327,1,83.9999974365235,10|0,0:0|0:0,0:0:0:0:
170,286,202651,1,2,3:2:0:0:
310,384,202830,5,0,0:0:0:0:
310,384,202919,1,0,0:0:0:0:
310,384,203008,2,0,L|319:201,1,167.999994873047,2|0,3:2|3:0,0:0:0:0:
326,199,203544,1,0,0:0:0:0:
375,30,203723,2,0,P|381:69|402:114,1,83.9999974365235,8|0,0:0|0:0,0:0:0:0:
508,153,204080,1,2,3:2:0:0:
442,289,204258,5,0,0:0:0:0:
442,289,204348,1,0,0:0:0:0:
442,289,204437,1,2,3:2:0:0:
322,198,204615,1,8,0:0:0:0:
206,291,204794,1,0,3:0:0:0:
206,291,205151,5,14,0:2:0:0:
157,135,205330,1,2,0:0:0:0:
29,264,205508,2,0,P|87:248|103:200,1,104.999996795654,2|8,3:2|0:0,0:0:0:0:
95,196,205870,6,0,L|108:383,1,167.999994873047,6|0,3:2|3:0,0:0:0:0:
101,381,206405,1,0,0:0:0:0:
206,291,206584,2,0,P|249:299|311:340,1,83.9999974365235,10|0,0:2|0:0,0:0:0:0:
388,195,206941,2,0,P|345:203|283:244,1,83.9999974365235,2|0,3:2|0:0,0:0:0:0:
459,357,207298,6,0,P|468:259|481:182,1,167.999994873047,2|2,3:2|3:2,0:0:0:0:
512,117,207834,1,2,0:0:0:0:
362,13,208012,2,0,L|378:113,1,83.9999974365235,8|0,0:0|0:0,0:0:0:0:
468,12,208369,1,0,3:0:0:0:
273,91,208548,5,0,0:0:0:0:
273,91,208637,1,0,0:0:0:0:
273,91,208727,2,0,P|188:85|96:50,1,167.999994873047,2|0,3:2|3:0,0:0:0:0:
62,5,209262,1,2,0:0:0:0:
126,184,209441,2,0,P|82:155|34:244,1,167.999994873047,10|2,0:2|3:2,0:0:0:0:
68,297,209977,1,0,0:0:0:0:
244,228,210155,6,0,P|279:235|348:277,1,83.9999974365235,2|2,3:2|0:0,0:0:0:0:
455,331,210512,2,0,P|419:338|351:380,1,83.9999974365235,2|0,3:2|0:0,0:0:0:0:
443,220,210869,2,0,L|436:123,1,83.9999974365235,10|0,0:2|0:0,0:0:0:0:
313,45,211227,2,0,L|306:128,1,83.9999974365235,2|0,3:2|0:0,0:0:0:0:
85,166,211584,6,0,P|142:96|232:117,1,167.999994873047,6|2,3:2|3:2,0:0:0:0:
212,120,212120,1,0,0:0:0:0:
164,313,212298,2,0,P|157:255|129:204,1,83.9999974365235,10|0,0:2|0:0,0:0:0:0:
295,361,212655,2,0,P|302:303|330:252,1,83.9999974365235,2|0,3:2|0:0,0:0:0:0:
379,249,212923,5,0,0:0:0:0:
388,258,213012,2,0,L|378:84,1,167.999994873047,4|2,3:2|3:2,0:0:0:0:
356,18,213548,1,2,0:0:0:0:
290,166,213727,2,0,P|250:149|194:141,1,83.9999974365235,8|0,0:0|0:0,0:0:0:0:
33,180,214084,1,2,3:2:0:0:
97,21,214262,5,0,0:0:0:0:
97,21,214352,1,0,0:0:0:0:
97,21,214441,2,0,P|117:123|123:200,1,167.999994873047,6|0,3:2|3:0,0:0:0:0:
79,254,214977,1,0,0:0:0:0:
189,355,215155,2,0,P|216:318|270:316,1,83.9999974365235,10|0,0:2|0:0,0:0:0:0:
396,269,215512,1,2,3:2:0:0:
365,357,215691,1,2,0:0:0:0:
303,209,215869,5,2,3:2:0:0:
167,261,216048,1,8,3:0:0:0:
178,69,216227,2,0,L|195:170,1,83.9999974365235,8|0,3:0|0:0,0:0:0:0:
209,173,216494,5,0,0:0:0:0:
209,173,216584,1,8,0:0:0:0:
306,92,216762,1,8,3:0:0:0:
425,182,216941,1,4,3:0:0:0:
425,182,217292,6,0,P|409:260|407:338,1,140,6|2,3:2|3:2,0:0:0:0:
416,336,217827,1,0,0:0:0:0:
326,239,218006,2,0,P|293:257|260:262,1,70,8|0,3:2|0:0,0:0:0:0:
178,83,218363,2,0,P|212:89|242:106,1,70,8|0,0:0|0:0,0:0:0:0:
95,295,218720,5,8,3:0:0:0:
101,276,218839,1,8,0:0:0:0:
93,251,218958,1,8,0:0:0:0:
68,230,219077,5,10,0:0:0:0:
40,203,219196,1,8,0:0:0:0:
35,158,219315,1,8,0:0:0:0:
50,129,219431,5,8,0:0:0:0:
72,113,219536,1,8,0:0:0:0:
95,118,219641,1,8,0:0:0:0:
107,131,219768,5,8,3:0:0:0:
109,145,219880,1,8,3:0:0:0:
104,155,219992,1,4,3:0:0:0:
96,156,220148,6,0,P|162:149|240:132,1,140,6|0,3:2|3:0,0:0:0:0:
233,121,220684,1,0,0:0:0:0:
382,167,220862,2,0,P|367:205|360:257,1,70,2|0,3:2|0:0,0:0:0:0:
273,332,221219,2,0,P|265:297|252:265,1,70,0|0,3:0|0:0,0:0:0:0:
199,216,221486,5,0,0:0:0:0:
199,216,221576,2,0,P|133:220|56:244,1,140,2|0,3:2|3:0,0:0:0:0:
58,255,222112,1,0,0:0:0:0:
151,125,222290,2,0,L|135:29,1,70,2|0,3:2|0:0,0:0:0:0:
50,152,222648,1,0,3:0:0:0:
263,70,222827,5,0,0:0:0:0:
263,70,222916,1,0,0:0:0:0:
263,70,223005,2,0,L|418:87,1,140,6|0,3:2|3:0,0:0:0:0:
411,98,223540,1,0,0:0:0:0:
307,233,223719,2,0,P|292:195|288:150,1,70,0|0,3:0|0:0,0:0:0:0:
455,248,224076,2,0,P|449:282|435:314,1,70,0|0,3:0|0:0,0:0:0:0:
272,348,224433,5,2,3:2:0:0:
184,232,224612,1,8,0:0:0:0:
79,354,224790,1,8,3:0:0:0:
70,278,224969,5,0,0:0:0:0:
70,278,225058,1,0,0:0:0:0:
70,278,225147,1,8,0:0:0:0:
135,136,225327,1,8,3:0:0:0:
6,71,225505,2,0,P|21:107|27:157,1,70,4|0,3:0|0:0,0:0:0:0:
141,32,225859,6,0,P|210:35|278:52,1,140,6|0,3:2|3:0,0:0:0:0:
285,70,226416,1,0,0:0:0:0:
481,112,226581,2,0,P|451:123|422:153,1,70,2|0,3:2|0:0,0:0:0:0:
294,200,226938,2,0,P|326:212|350:237,1,70,0|0,3:0|0:0,0:0:0:0:
450,360,227295,6,0,L|289:339,1,140,2|0,3:2|3:0,0:0:0:0:
301,331,227831,1,0,0:0:0:0:
111,260,228009,2,0,L|125:337,1,70,2|0,3:2|0:0,0:0:0:0:
241,172,228366,2,0,L|227:249,1,70,0|0,3:0|0:0,0:0:0:0:
52,174,228723,6,0,P|89:165|165:86,1,140,6|2,3:2|3:2,0:0:0:0:
128,0,229259,1,8,0:0:0:0:
256,95,229438,2,0,P|286:78|333:75,1,70,2|0,3:2|0:0,0:0:0:0:
421,255,229795,2,0,P|386:250|356:233,1,70,14|0,3:2|0:0,0:0:0:0:
300,184,230063,5,0,0:0:0:0:
300,184,230152,2,0,L|313:149,2,35.0000013351441,8|8|8,3:2|0:0|0:0,0:0:0:0:
252,256,230509,6,0,L|264:288,2,35.0000013351441,8|8|8,3:2|0:0|0:0,0:0:0:0:
219,181,230866,5,8,3:2:0:0:
190,161,230985,1,8,0:0:0:0:
155,161,231104,1,8,0:0:0:0:
126,179,231223,5,8,3:0:0:0:
106,195,231343,1,8,3:0:0:0:
77,193,231462,1,0,3:0:0:0:
40,169,231581,6,0,P|52:95|66:23,1,140,6|0,3:2|3:0,0:0:0:0:
77,15,232116,1,0,0:0:0:0:
267,28,232273,6,0,P|198:41|144:84,1,140,14|0,0:2|0:0,0:0:0:0:
334,135,232809,5,0,0:0:0:0:
334,135,232898,1,0,0:0:0:0:
334,135,232987,1,2,3:2:0:0:
358,281,233165,1,8,0:0:0:0:
468,180,233344,2,0,P|433:185|400:196,1,70,0|0,3:0|0:0,0:0:0:0:
131,306,233701,6,0,P|201:310|261:346,1,140,14|0,0:2|0:0,0:0:0:0:
228,222,234237,1,2,0:0:0:0:
39,348,234452,5,14,3:2:0:0:
29,275,234803,1,2,0:0:0:0:
51,187,235160,1,2,0:0:0:0:
129,131,235517,1,2,0:0:0:0:
230,156,235874,1,2,0:0:0:0:
402,247,236231,5,2,0:0:0:0:
267,235,236588,1,2,0:0:0:0:
210,357,236945,1,2,0:0:0:0:
357,127,237303,5,2,0:0:0:0:
256,192,237392,12,0,238731,0:0:0:0:
371,52,240158,6,0,L|389:235,1,181.999991668702,6|2,3:2|3:2,0:0:0:0:
395,311,240693,1,2,0:0:0:0:
255,181,240872,1,8,0:0:0:0:
209,290,241051,1,2,0:0:0:0:
68,207,241230,2,0,P|111:191|156:190,1,90.9999958343508,2|0,3:2|0:0,0:0:0:0:
170,210,241497,5,0,0:0:0:0:
170,210,241587,1,0,3:0:0:0:
97,50,241765,1,8,0:0:0:0:
217,113,241944,2,0,P|225:63|246:17,1,90.9999958343508,2|0,3:2|0:0,0:0:0:0:
376,189,242301,2,0,P|368:139|347:93,1,90.9999958343508,10|2,0:2|0:0,0:0:0:0:
254,218,242658,1,0,3:0:0:0:
381,307,242837,1,2,0:0:0:0:
106,346,243015,6,0,P|215:308|298:316,1,181.999991668702,2|2,3:2|3:2,0:0:0:0:
287,328,243551,1,0,0:0:0:0:
154,231,243730,2,0,L|168:133,1,90.9999958343508,10|0,0:0|0:0,0:0:0:0:
252,50,244087,1,2,3:2:0:0:
289,163,244265,1,2,0:0:0:0:
451,0,244444,5,0,3:0:0:0:
347,70,244622,1,8,0:0:0:0:
429,193,244801,2,0,L|440:92,1,90.9999958343508,2|0,3:2|0:0,0:0:0:0:
431,346,245158,6,0,P|475:317|555:313,1,90.9999958343508,14|0,0:2|0:0,0:0:0:0:
320,279,245515,2,0,P|276:250|196:246,1,90.9999958343508,2|0,3:2|0:0,0:0:0:0:
111,372,245872,6,0,L|95:162,1,181.999991668702,6|2,3:2|3:2,0:0:0:0:
67,118,246408,1,2,0:0:0:0:
244,75,246587,2,0,P|200:62|165:34,1,90.9999958343508,8|2,0:0|0:0,0:0:0:0:
329,160,246944,2,0,P|372:147|407:119,1,90.9999958343508,2|0,3:2|0:0,0:0:0:0:
410,99,247212,5,0,0:0:0:0:
410,99,247301,1,0,3:0:0:0:
312,25,247480,1,8,0:0:0:0:
243,169,247658,2,0,L|257:272,1,90.9999958343508,2|0,3:2|0:0,0:0:0:0:
392,335,248015,2,0,L|404:244,1,90.9999958343508,10|0,0:2|0:0,0:0:0:0:
505,313,248372,1,2,3:2:0:0:
273,357,248551,5,0,0:0:0:0:
273,357,248640,1,0,0:0:0:0:
273,357,248730,2,0,P|180:337|68:341,1,181.999991668702,2|0,3:2|3:0,0:0:0:0:
84,357,249265,1,0,0:0:0:0:
162,204,249444,2,0,P|149:163|142:113,1,90.9999958343508,12|0,0:0|0:0,0:0:0:0:
199,0,249801,1,2,3:2:0:0:
354,68,249980,5,2,0:0:0:0:
354,68,250069,1,0,0:0:0:0:
354,68,250158,1,2,3:2:0:0:
275,193,250337,1,8,0:0:0:0:
385,271,250515,1,8,3:0:0:0:
372,192,250694,5,0,0:0:0:0:
372,192,250783,1,0,0:0:0:0:
372,192,250872,1,10,0:0:0:0:
273,289,251051,1,2,3:2:0:0:
154,169,251230,1,6,3:0:0:0:
154,169,251587,6,0,P|149:275|68:263,1,181.999991668702,4|0,3:2|3:0,0:0:0:0:
27,238,252122,1,2,0:0:0:0:
147,370,252301,2,0,P|194:352|245:345,1,90.9999958343508,8|0,0:0|0:0,0:0:0:0:
373,384,252658,1,2,3:2:0:0:
333,247,252837,5,2,0:0:0:0:
333,247,252926,1,0,0:0:0:0:
333,247,253015,1,2,3:2:0:0:
478,303,253194,1,8,0:0:0:0:
445,132,253372,2,0,P|426:177|418:224,1,90.9999958343508,2|2,3:2|0:0,0:0:0:0:
217,123,253730,2,0,P|329:116|337:163,1,181.999991668702,8|0,0:0|3:0,0:0:0:0:
157,293,254265,5,0,0:0:0:0:
157,293,254355,1,0,0:0:0:0:
157,293,254444,2,0,P|142:195|116:106,1,181.999991668702,0|0,3:0|3:0,0:0:0:0:
58,67,254980,1,2,0:0:0:0:
227,120,255158,2,0,P|262:106|314:72,1,90.9999958343508,10|0,0:0|0:0,0:0:0:0:
490,170,255515,2,0,P|452:144|409:128,1,90.9999958343508,2|2,3:2|0:0,0:0:0:0:
391,142,255783,5,0,0:0:0:0:
391,142,255872,1,0,3:0:0:0:
423,250,256051,1,8,0:0:0:0:
313,310,256230,2,0,P|318:259|335:218,1,90.9999958343508,2|0,3:2|0:0,0:0:0:0:
163,159,256587,6,0,P|189:195|233:196,1,90.9999958343508,14|0,0:0|0:0,0:0:0:0:
102,257,256944,2,0,P|76:293|33:295,1,90.9999958343508,2|0,3:2|0:0,0:0:0:0:
12,23,257301,6,0,P|33:119|40:204,1,181.999991668702,4|2,3:2|3:2,0:0:0:0:
27,217,257837,1,0,0:0:0:0:
133,119,258015,2,0,P|178:125|239:156,1,90.9999958343508,10|0,0:0|0:0,0:0:0:0:
357,26,258372,2,0,P|315:43|270:49,1,90.9999958343508,2|0,3:2|0:0,0:0:0:0:
434,224,258730,6,0,L|468:13,1,181.999991668702,0|2,3:0|3:2,0:0:0:0:
455,28,259265,1,2,0:0:0:0:
318,167,259444,2,0,P|333:207|335:257,1,90.9999958343508,8|0,0:0|0:0,0:0:0:0:
256,363,259801,1,2,3:2:0:0:
59,282,259980,5,0,0:0:0:0:
59,282,260069,1,0,0:0:0:0:
59,282,260158,2,0,P|148:266|232:233,1,181.999991668702,6|0,3:2|3:0,0:0:0:0:
235,214,260694,1,0,0:0:0:0:
93,68,260872,2,0,P|100:118|131:176,1,90.9999958343508,8|0,0:0|0:0,0:0:0:0:
248,75,261230,1,2,3:2:0:0:
368,187,261408,5,10,3:0:0:0:
368,187,261497,1,0,0:0:0:0:
368,187,261587,1,0,3:0:0:0:
473,93,261765,1,8,3:0:0:0:
338,4,261944,2,0,P|343:43|372:105,1,90.9999958343508,2|0,3:2|0:0,0:0:0:0:
487,202,262301,1,10,0:2:0:0:
241,313,262539,5,10,0:2:0:0:
262,295,262658,1,8,3:0:0:0:
304,292,262777,1,4,3:0:0:0:
343,320,262896,1,4,3:0:0:0:
357,368,263015,6,0,L|369:160,1,181.999991668702,6|2,3:2|3:2,0:0:0:0:
376,107,263551,1,2,0:0:0:0:
268,212,263730,2,0,P|227:190|183:183,1,90.9999958343508,8|2,0:0|0:0,0:0:0:0:
27,138,264087,2,0,P|71:130|111:108,1,90.9999958343508,2|0,3:2|0:0,0:0:0:0:
119,88,264355,5,0,0:0:0:0:
119,88,264444,1,0,3:0:0:0:
28,16,264622,1,8,0:0:0:0:
106,211,264801,2,0,L|95:304,1,90.9999958343508,2|0,3:2|0:0,0:0:0:0:
251,384,265158,2,0,L|240:293,1,90.9999958343508,10|2,0:0|0:0,0:0:0:0:
291,155,265515,1,0,3:0:0:0:
356,309,265694,1,2,0:0:0:0:
456,179,265872,6,0,P|443:91|421:-12,1,181.999991668702,6|0,3:2|3:0,0:0:0:0:
404,0,266408,1,0,0:0:0:0:
295,97,266587,2,0,P|252:81|207:73,1,90.9999958343508,10|0,0:2|0:0,0:0:0:0:
93,238,266944,2,0,P|137:230|180:214,1,90.9999958343508,2|0,3:2|0:0,0:0:0:0:
192,195,267212,5,0,0:0:0:0:
192,195,267301,1,2,3:2:0:0:
220,305,267480,1,8,0:0:0:0:
365,243,267658,2,0,L|353:352,1,90.9999958343508,2|0,3:2|0:0,0:0:0:0:
405,124,268015,6,0,P|435:155|480:154,1,90.9999958343508,10|0,0:0|0:0,0:0:0:0:
326,41,268372,2,0,P|295:72|250:71,1,90.9999958343508,2|0,3:2|0:0,0:0:0:0:
186,35,268640,5,0,0:0:0:0:
185,24,268730,2,0,P|170:81|153:212,1,181.999991668702,6|2,3:2|3:2,0:0:0:0:
193,272,269265,1,2,0:0:0:0:
373,324,269444,1,8,0:0:0:0:
301,220,269622,1,2,0:0:0:0:
426,136,269801,2,0,L|404:236,1,90.9999958343508,2|0,3:2|0:0,0:0:0:0:
397,242,270069,5,0,0:0:0:0:
397,242,270158,1,0,3:0:0:0:
324,126,270337,1,8,0:0:0:0:
236,235,270515,2,0,P|197:211|152:202,1,90.9999958343508,2|0,3:2|0:0,0:0:0:0:
54,335,270872,6,0,L|32:136,1,181.999991668702,14|0,0:2|3:0,0:0:0:0:
227,66,271408,5,0,0:0:0:0:
227,66,271497,1,0,0:0:0:0:
227,66,271587,2,0,P|134:59|129:148,1,181.999991668702,6|0,3:2|3:0,0:0:0:0:
131,143,272122,1,0,0:0:0:0:
321,40,272301,6,0,L|310:146,1,90.9999958343508,12|0,0:2|0:0,0:0:0:0:
281,270,272658,1,0,3:0:0:0:
405,152,272837,1,8,0:0:0:0:
511,287,273015,1,0,3:0:0:0:
410,343,273194,5,8,0:0:0:0:
413,325,273283,1,0,0:0:0:0:
416,307,273372,1,8,3:0:0:0:
416,307,273730,6,0,P|375:314|327:377,1,90.9999958343508,10|2,0:2|0:0,0:0:0:0:
176,183,274087,2,0,P|217:190|265:253,1,90.9999958343508,6|0,3:0|0:0,0:0:0:0:
70,352,274444,6,0,P|59:269|41:166,1,181.999991668702,4|0,3:2|3:0,0:0:0:0:
26,164,274980,1,0,0:0:0:0:
131,48,275158,2,0,P|179:55|204:91,1,90.9999958343508,10|0,0:0|0:0,0:0:0:0:
227,243,275515,2,0,P|182:238|154:203,1,90.9999958343508,2|0,3:2|0:0,0:0:0:0:
159,183,275783,5,0,0:0:0:0:
159,183,275872,1,2,3:2:0:0:
262,147,276051,1,8,0:0:0:0:
319,305,276230,2,0,P|325:259|342:212,1,90.9999958343508,2|2,3:2|0:0,0:0:0:0:
473,115,276587,2,0,P|487:157|493:202,1,90.9999958343508,8|0,0:2|0:0,0:0:0:0:
370,130,276944,1,0,3:0:0:0:
234,238,277122,5,0,0:0:0:0:
234,238,277212,1,0,0:0:0:0:
234,238,277301,2,0,P|142:220|30:182,1,181.999991668702,4|0,3:2|3:0,0:0:0:0:
16,131,277837,1,2,0:0:0:0:
78,289,278015,2,0,L|65:382,1,90.9999958343508,10|0,0:2|0:0,0:0:0:0:
188,321,278372,1,2,3:2:0:0:
343,384,278551,5,0,0:0:0:0:
343,384,278640,1,0,0:0:0:0:
343,384,278730,1,2,3:2:0:0:
369,229,278908,1,8,0:0:0:0:
500,336,279087,2,0,P|440:325|395:306,1,90.9999958343508,2|0,3:2|0:0,0:0:0:0:
461,128,279444,6,0,L|477:234,1,90.9999958343508,12|0,0:0|0:0,0:0:0:0:
311,34,279801,2,0,L|295:140,1,90.9999958343508,0|2,3:0|0:0,0:0:0:0:
64,204,280158,5,6,3:2:0:0:
157,123,280337,1,8,0:0:0:0:
233,260,280515,2,0,P|197:257|149:228,1,90.9999958343508,2|0,3:2|0:0,0:0:0:0:
361,227,280872,2,0,P|350:270|347:332,1,90.9999958343508,10|0,0:0|0:0,0:0:0:0:
496,196,281230,2,0,P|492:150|481:106,1,90.9999958343508,2|0,3:2|0:0,0:0:0:0:
416,69,281497,5,0,0:0:0:0:
408,76,281587,2,0,P|305:72|212:45,1,181.999991668702,4|2,3:2|3:2,0:0:0:0:
166,4,282122,1,2,0:0:0:0:
27,151,282301,6,0,P|106:120|137:197,1,181.999991668702,12|0,0:0|3:0,0:0:0:0:
99,261,282837,1,0,0:0:0:0:
218,357,283015,2,0,P|255:329|302:324,1,90.9999958343508,12|0,0:0|0:0,0:0:0:0:
467,292,283372,2,0,P|422:286|383:242,1,90.9999958343508,0|0,3:0|0:0,0:0:0:0:
399,185,283582,5,8,3:0:0:0:
410,154,283735,1,0,3:0:0:0:
317,114,283904,5,8,3:0:0:0:
306,83,284082,1,0,3:0:0:0:
201,222,284307,5,8,0:0:0:0:
225,152,284426,1,4,3:0:0:0:
102,75,284640,5,8,0:0:0:0:
126,145,284791,1,4,3:0:0:0:
126,145,285153,5,8,3:0:0:0:
224,45,285331,1,8,3:0:0:0:
358,154,285500,2,0,P|398:137|428:233,1,136.499993751526,4|0,3:0|0:0,0:0:0:0:
439,213,285872,6,0,L|448:101,1,112,4|0,3:2|0:0,0:0:0:0:
306,136,286586,2,0,P|330:149|357:153,1,56,2|0,0:0|0:0,0:0:0:0:
286,40,286943,2,0,P|258:44|227:64,1,56,2|0,0:0|0:0,0:0:0:0:
157,175,287300,6,0,P|151:129|109:57,1,112,2|2,0:0|0:0,0:0:0:0:
38,118,287836,1,2,0:0:0:0:
32,128,288014,2,0,P|39:176|75:232,1,112,0|2,0:0|0:0,0:0:0:0:
186,299,288729,6,0,L|296:283,1,112,2|0,0:0|0:0,0:0:0:0:
396,352,289264,1,2,0:0:0:0:
396,352,289443,2,0,L|404:277,1,56,2|0,0:0|0:0,0:0:0:0:
411,204,289800,1,2,0:0:0:0:
411,204,289979,1,2,0:0:0:0:
322,85,290157,6,0,P|332:121|335:159,1,56,2|0,0:0|0:0,0:0:0:0:
206,184,290514,2,0,P|210:156|218:129,1,56,2|0,0:0|0:0,0:0:0:0:
325,231,290872,2,0,P|293:238|267:266,1,56,2|0,0:0|0:0,0:0:0:0:
161,290,291229,2,0,P|193:297|219:325,1,56,2|2,0:0|0:0,0:0:0:0:
69,153,291586,5,8,3:2:0:0:
206,184,291764,1,8,3:0:0:0:
237,47,291943,1,8,3:0:0:0:
100,15,292122,1,4,3:0:0:0:
302,133,292300,5,12,0:0:0:0:
302,133,292925,5,0,0:0:0:0:
304,146,293014,1,8,3:2:0:0:
413,121,293193,1,8,3:0:0:0:
437,230,293372,1,8,3:0:0:0:
328,255,293550,1,8,3:0:0:0:
511,148,293729,5,12,0:0:0:0:
511,148,294443,6,0,P|469:121|410:113,1,94.5000003604889,12|0,0:0|0:0,0:0:0:0:
321,300,294800,2,0,P|366:290|406:264,1,94.5000003604889,0|0,3:0|0:0,0:0:0:0:
248,55,295157,2,0,P|267:107|275:166,1,94.5000003604889,0|0,3:0|0:0,0:0:0:0:
134,308,295514,2,0,P|147:255|162:218,1,94.5000003604889,8|0,3:2|0:0,0:0:0:0:
364,39,295872,5,2,3:2:0:0:
364,39,297300,6,0,P|289:60|161:72,1,189.000000720978,6|0,3:2|3:0,0:0:0:0:
166,55,297836,1,0,0:0:0:0:
299,153,298014,2,0,P|281:194|275:257,1,94.5000003604889,10|0,0:2|0:0,0:0:0:0:
325,357,298371,1,0,3:0:0:0:
174,302,298550,5,0,0:0:0:0:
174,302,298639,1,0,0:0:0:0:
174,302,298729,1,2,3:0:0:0:
42,358,298907,1,8,0:0:0:0:
64,189,299086,2,0,P|82:230|88:293,1,94.5000003604889,0|0,3:0|0:0,0:0:0:0:
244,65,299443,2,0,P|172:129|174:218,1,189.000000720978,8|0,0:0|3:0,0:0:0:0:
465,244,299979,5,0,0:0:0:0:
465,244,300068,1,0,0:0:0:0:
465,244,300157,2,0,P|421:219|354:207,1,94.5000003604889,2|0,3:2|0:0,0:0:0:0:
277,360,300514,2,0,P|322:347|363:324,1,94.5000003604889,2|0,3:2|0:0,0:0:0:0:
270,162,300871,2,0,P|276:209|292:275,1,94.5000003604889,10|0,0:0|0:0,0:0:0:0:
400,125,301229,2,0,P|410:79|417:33,1,94.5000003604889,2|0,3:2|0:0,0:0:0:0:
266,70,301586,5,0,3:0:0:0:
141,120,301764,1,8,0:0:0:0:
68,5,301943,2,0,P|106:9|169:39,1,94.5000003604889,2|0,3:0|0:0,0:0:0:0:
155,308,302300,6,0,L|139:103,1,189.000000720978,14|2,0:0|3:0,0:0:0:0:
378,176,302836,5,0,0:0:0:0:
378,176,302925,1,0,0:0:0:0:
378,176,303014,2,0,P|279:168|266:256,1,189.000000720978,6|0,3:2|3:0,0:0:0:0:
267,252,303550,1,0,0:0:0:0:
418,384,303729,2,0,P|415:342|385:292,1,94.5000003604889,10|0,0:2|0:0,0:0:0:0:
290,353,304086,1,0,3:0:0:0:
457,224,304264,5,0,0:0:0:0:
457,224,304354,1,0,0:0:0:0:
457,224,304443,1,0,3:0:0:0:
415,66,304621,1,8,0:0:0:0:
273,134,304800,2,0,P|313:157|360:162,1,94.5000003604889,0|0,3:0|0:0,0:0:0:0:
137,62,305157,6,0,L|160:272,1,189.000000720978,12|0,0:0|3:0,0:0:0:0:
389,256,305693,5,2,0:0:0:0:
389,256,305782,1,0,0:0:0:0:
390,256,305882,1,2,3:0:0:0:
302,206,306059,1,0,3:0:0:0:
252,294,306238,1,2,3:0:0:0:
339,343,306416,1,4,3:0:0:0:
377,170,306572,5,2,3:0:0:0:
222,217,306750,1,8,0:0:0:0:
179,70,306929,1,2,3:0:0:0:
83,219,307171,5,8,0:0:0:0:
83,219,307290,2,0,L|94:112,1,93.3333333333333,8|0,3:0|0:0,0:0:0:0:
179,70,307674,2,0,L|187:139,1,70,10|0,0:0|0:0,0:0:0:0:
344,134,308072,6,0,P|317:112|282:111,1,70,10|8,0:0|3:0,0:0:0:0:
222,217,308501,2,0,P|257:216|289:181,1,70,6|0,3:0|0:0,0:0:0:0:
187,139,308975,5,6,3:2:0:0:
256,192,309019,12,0,315582,0:0:0:0:
