osu file format v14

[General]
AudioFilename: audio.mp3
AudioLeadIn: 0
PreviewTime: 59206
Countdown: 0
SampleSet: Soft
StackLeniency: 0.3
Mode: 2
LetterboxInBreaks: 0
WidescreenStoryboard: 1

[Editor]
Bookmarks: 214,20214,40214,60214,79276,80214,97714,100214
DistanceSpacing: 0.8
BeatDivisor: 4
GridSize: 32
TimelineZoom: 1.6

[Metadata]
Title:marie (Cut Ver.)
TitleUnicode:marie (Cut Ver.)
Artist:Aimer
ArtistUnicode:Aimer
Creator:Secre
Version:tell me everything
Source:
Tags:chickenbible SeaRasp エメ Antoinette 春はゆく Haru wa Yuku spring song album Sony Music Entertainment japanese j-pop short version Habsburg Exhibition image song aimerrythm Female Vocal edit SME Jpop Pop
BeatmapID:3184132
BeatmapSetID:1558827

[Difficulty]
HPDrainRate:5
CircleSize:4.8
OverallDifficulty:8.3
ApproachRate:8.3
SliderMultiplier:2.9
SliderTickRate:2

[Events]
//Background and Video events
0,0,"MARInE.jpg",0,0
//Break Periods
//Storyboard Layer 0 (Background)
//Storyboard Layer 1 (Fail)
//Storyboard Layer 2 (Pass)
//Storyboard Layer 3 (Foreground)
//Storyboard Layer 4 (Overlay)
//Storyboard Sound Samples

[TimingPoints]
222,625,4,2,1,40,1,0
20222,-100,4,2,1,40,0,0
21472,-100,4,2,1,30,0,0
22095,-100,4,2,1,20,0,0
22643,-100,4,2,1,40,0,0
22722,-100,4,2,1,40,0,0
23034,-100,4,2,1,40,0,0
23347,-100,4,2,1,40,0,0
23972,-100,4,2,1,30,0,0
24909,-100,4,2,1,40,0,0
25222,-100,4,2,1,40,0,0
25534,-100,4,2,1,40,0,0
25847,-100,4,2,1,40,0,0
26472,-100,4,2,1,30,0,0
27097,-100,4,2,1,20,0,0
27643,-100,4,2,1,40,0,0
27722,-100,4,2,1,40,0,0
28034,-100,4,2,1,40,0,0
28347,-100,4,2,1,40,0,0
28972,-100,4,2,1,30,0,0
29909,-100,4,2,1,40,0,0
30222,-100,4,2,1,40,0,0
30534,-100,4,2,1,40,0,0
30847,-100,4,2,1,40,0,0
31393,-100,4,2,1,40,0,0
31472,-100,4,2,1,30,0,0
32097,-100,4,2,1,20,0,0
32565,-100,4,2,1,20,0,0
32643,-100,4,2,1,40,0,0
32722,-100,4,2,1,40,0,0
33034,-100,4,2,1,40,0,0
33347,-100,4,2,1,40,0,0
33972,-100,4,2,1,30,0,0
34597,-100,4,2,1,20,0,0
35222,-100,4,2,1,40,0,0
35534,-100,4,2,1,40,0,0
35847,-100,4,2,1,40,0,0
36472,-100,4,2,1,30,0,0
37097,-100,4,2,1,20,0,0
37565,-100,4,2,1,20,0,0
37643,-100,4,2,1,40,0,0
37722,-100,4,2,1,25,0,0
38034,-100,4,2,1,30,0,0
38347,-100,4,2,1,35,0,0
38659,-100,4,2,1,40,0,0
38972,-100,4,2,1,45,0,0
39597,-100,4,2,1,40,0,0
40222,-100,4,2,1,25,0,0
40534,-100,4,2,1,30,0,0
40847,-100,4,2,1,35,0,0
41159,-100,4,2,1,40,0,0
41472,-100,4,2,1,45,0,0
41784,-100,4,2,1,45,0,0
42409,-100,4,2,1,45,0,0
42722,-100,4,2,1,25,0,0
43034,-100,4,2,1,30,0,0
43347,-100,4,2,1,35,0,0
43659,-100,4,2,1,40,0,0
43972,-100,4,2,1,45,0,0
44284,-100,4,2,1,45,0,0
44909,-100,4,2,1,45,0,0
45222,-100,4,2,1,25,0,0
45534,-100,4,2,1,30,0,0
45847,-100,4,2,1,35,0,0
46159,-100,4,2,1,40,0,0
46472,-100,4,2,1,45,0,0
47722,-100,4,2,1,25,0,0
48034,-100,4,2,1,30,0,0
48347,-100,4,2,1,35,0,0
48659,-100,4,2,1,40,0,0
48972,-100,4,2,1,45,0,0
49284,-100,4,2,1,45,0,0
50222,-100,4,2,1,25,0,0
50534,-100,4,2,1,30,0,0
50847,-100,4,2,1,35,0,0
51159,-100,4,2,1,40,0,0
51472,-100,4,2,1,45,0,0
51784,-100,4,2,1,45,0,0
52409,-100,4,2,1,45,0,0
52643,-100,4,2,1,45,0,0
52722,-100,4,2,1,25,0,0
53034,-100,4,2,1,30,0,0
53347,-100,4,2,1,35,0,0
53659,-100,4,2,1,40,0,0
53972,-100,4,2,1,45,0,0
54284,-100,4,2,1,45,0,0
55222,-100,4,2,1,25,0,0
55534,-100,4,2,1,30,0,0
55847,-100,4,2,1,35,0,0
56159,-100,4,2,1,40,0,0
56472,-100,4,2,1,45,0,0
57722,-100,4,2,1,25,0,0
58034,-100,4,2,1,40,0,0
58347,-100,4,2,1,55,0,0
58659,-100,4,2,1,70,0,0
58972,-100,4,2,1,85,0,0
59597,-100,4,2,1,40,0,0
60222,-100,4,2,1,70,0,1
79284,-100,4,2,1,70,0,0
80222,-100,4,2,1,70,0,1
96472,-100,4,2,1,40,0,1
96784,-100,4,2,1,50,0,1
97097,-100,4,2,1,60,0,1
97409,-100,4,2,1,70,0,1
97643,-100,4,2,1,70,0,1
97722,-100,4,2,1,80,0,0
97800,-100,4,2,1,50,0,0
99597,-100,4,2,1,30,0,0
102097,-100,4,2,1,5,0,0

[Colours]
Combo1 : 183,219,219
Combo2 : 224,193,255
Combo3 : 255,228,202

[HitObjects]
387,208,19909,6,0,L|312:208,1,72.5000000000001,2|2,0:0|0:0,0:0:0:0:
88,277,20222,6,0,P|44:219|107:214,1,145,2|2,3:2|3:0,3:0:0:0:
217,138,20847,1,2,0:0:0:0:
446,228,21472,2,0,L|288:226,1,145,2|0,0:3|0:0,0:0:0:0:
446,228,22097,2,0,P|453:86|435:39,1,145,2|0,0:0|0:0,0:0:0:0:
77,136,22722,6,0,L|255:68,1,145,2|2,3:0|3:0,0:0:0:0:
355,140,23347,2,0,L|206:177,1,145,2|0,0:0|0:0,0:0:0:0:
440,275,23972,2,0,P|475:209|330:47,1,290,2|0,0:0|0:0,0:0:0:0:
238,135,24909,2,0,L|357:137,1,72.5000000000001,2|2,0:0|0:0,0:0:0:0:
95,260,25222,6,0,L|82:87,1,145,2|2,3:0|3:0,0:0:0:0:
332,132,25847,2,0,L|128:129,1,145,2|0,0:0|0:0,0:0:0:0:
435,235,26472,2,0,P|495:191|348:84,1,290,2|2,0:3|0:0,0:0:0:0:
263,97,27409,1,0,0:0:0:0:
487,105,27722,6,0,L|499:264,1,145,2|2,3:0|3:0,0:0:0:0:
359,253,28347,2,0,L|501:221,1,145,2|2,0:2|0:3,0:0:0:0:
361,150,28972,2,0,L|232:235,1,145,2|0,0:0|0:0,0:0:0:0:
240,230,29597,2,0,L|82:321,1,145,0|2,0:0|0:0,0:0:0:0:
185,89,30065,1,0,0:0:0:0:
445,186,30222,6,0,L|457:14,1,145,2|2,3:0|3:0,0:0:0:0:
209,121,30847,2,0,L|388:115,1,145,2|0,0:0|0:0,0:0:0:0:
112,225,31472,2,0,P|55:177|163:85,1,217.5,2|0,0:3|0:0,0:0:0:0:
203,74,32097,2,0,L|352:73,1,145,2|0,0:0|0:0,0:0:0:0:
81,233,32722,6,0,L|66:28,1,145,2|2,3:0|3:0,0:0:0:0:
203,89,33347,2,0,L|45:92,1,145,2|0,0:0|0:0,0:0:0:0:
302,212,33972,2,0,P|301:131|93:75,1,290,2|0,0:3|0:0,0:0:0:0:
128,55,34909,1,0,0:0:0:0:
397,223,35222,6,0,L|404:64,1,145,2|2,3:0|3:0,0:0:0:0:
275,97,35847,2,0,L|261:-64,1,145,2|0,0:0|0:0,0:0:0:0:
133,96,36472,2,0,L|286:54,1,145,2|0,3:0|0:0,0:0:0:0:
273,62,37097,2,0,L|432:10,1,145,2|0,0:0|0:0,0:0:0:0:
153,221,37722,6,0,P|99:160|196:95,1,217.5,2|0,3:0|0:0,0:0:0:0:
329,91,38347,2,0,L|331:259,1,145,2|2,3:0|3:0,0:0:0:0:
192,192,38972,2,0,L|40:193,1,145,2|0,3:0|0:0,0:0:0:0:
302,190,39597,2,0,L|319:98,1,72.5000000000001,2|2,0:0|0:0,0:0:0:0:
180,109,39909,2,0,L|167:21,1,72.5000000000001,2|2,0:0|0:0,0:0:0:0:
390,59,40222,6,0,P|441:130|446:205,1,145,2|2,3:0|3:0,0:0:0:0:
369,201,40690,1,0,0:0:0:0:
447,193,40847,2,0,L|458:34,1,145,2|2,3:0|3:0,0:0:0:0:
328,39,41315,1,2,0:0:0:0:
456,31,41472,1,2,3:0:0:0:
233,216,41784,2,0,P|165:178|260:83,1,217.5,2|0,0:0|0:0,0:0:0:0:
300,73,42409,2,0,L|393:71,1,72.5000000000001,2|0,0:0|0:0,0:0:0:0:
129,230,42722,6,0,L|127:33,1,145,2|2,3:0|3:0,0:0:0:0:
208,67,43190,1,0,0:0:0:0:
130,65,43347,2,0,P|84:121|152:128,1,145,2|2,3:0|3:0,0:0:0:0:
390,141,43972,1,2,3:0:0:0:
246,196,44284,2,0,L|443:194,1,145,2|0,0:0|0:0,0:0:0:0:
319,131,44753,1,0,0:0:0:0:
391,125,44909,1,2,0:0:0:0:
124,210,45222,6,0,L|112:19,1,145,2|2,3:0|3:0,0:0:0:0:
194,33,45690,1,0,0:0:0:0:
115,43,45847,2,0,L|295:44,1,145,2|2,3:0|3:2,0:0:0:0:
493,193,46472,2,0,L|313:189,2,145,2|2|2,0:0|0:0|0:0,0:0:0:0:
242,174,47409,1,2,0:0:0:0:
493,179,47722,5,2,3:0:0:0:
393,169,47878,1,2,0:0:0:0:
294,158,48034,1,2,3:2:0:0:
51,219,48347,2,0,L|48:44,1,145,2|2,3:0|3:0,0:0:0:0:
417,108,48972,1,2,3:0:0:0:
157,104,49284,1,2,0:3:0:0:
285,102,49597,2,0,L|211:101,1,72.5000000000001,2|2,0:0|0:0,0:0:0:0:
282,188,49909,2,0,L|187:184,1,72.5000000000001,2|2,0:0|3:2,0:0:0:0:
436,282,50222,6,0,P|477:223|427:146,1,145,2|2,3:0|3:0,0:0:0:0:
377,155,50690,1,0,0:0:0:0:
451,157,50847,2,0,L|462:-5,1,145,2|2,3:0|3:0,0:0:0:0:
336,7,51315,1,2,0:0:0:0:
462,0,51472,1,2,3:0:0:0:
83,258,51784,2,0,P|31:197|150:104,1,217.5,2|0,0:0|0:0,0:0:0:0:
174,99,52409,2,0,L|90:96,1,72.5000000000001,2|0,0:0|0:0,0:0:0:0:
319,212,52722,6,0,L|516:214,1,145,2|0,3:0|3:0,0:0:0:0:
225,124,53347,1,2,3:2:0:0:
474,112,53659,1,2,3:2:0:0:
401,111,53815,1,0,0:0:0:0:
474,112,53972,1,2,3:0:0:0:
217,230,54284,2,0,L|361:231,1,145,2|0,0:0|0:0,0:0:0:0:
130,122,54909,2,0,L|40:120,1,72.5000000000001,2|0,3:2|3:0,3:0:0:0:
296,131,55222,6,0,L|448:132,1,145,2|2,3:0|3:0,0:0:0:0:
163,278,55847,2,0,L|354:269,1,145,2|2,3:0|3:0,0:0:0:0:
31,215,56472,2,0,P|14:141|75:60,1,145,2|0,3:2|0:0,0:0:0:0:
122,60,56940,2,0,P|208:69|237:116,1,145,2|0,0:0|0:0,0:0:0:0:
158,153,57409,2,0,L|52:154,1,72.5000000000001,2|0,0:0|0:0,0:0:0:0:
299,244,57722,6,0,L|300:82,1,145,2|2,3:0|3:0,0:0:0:0:
220,73,58190,1,0,0:0:0:0:
429,86,58347,1,2,3:0:0:0:
139,152,58659,1,2,3:0:0:0:
504,184,58972,5,2,3:0:0:0:
256,192,59284,12,0,59909,0:0:0:0:
136,254,60222,6,0,P|73:215|151:131,1,217.5,6|0,3:2|0:0,0:0:0:0:
282,154,60847,2,0,L|292:70,1,72.5,10|0,3:2|0:0,0:0:0:0:
153,88,61159,2,0,L|149:13,1,72.5,2|0,3:2|0:0,0:0:0:0:
383,161,61472,2,0,L|210:160,2,145,0|2|8,3:0|3:2|3:2,0:0:0:0:
121,210,62409,2,0,L|244:211,1,72.5,2|0,3:2|0:0,0:0:0:0:
407,182,62722,6,0,P|475:143|460:57,1,145,0|2,3:0|3:2,0:0:0:0:
106,171,63347,2,0,P|120:98|351:71,1,290,10|0,3:2|3:0,0:0:0:0:
165,103,64284,1,2,3:2:0:0:
444,78,64597,2,0,L|451:247,1,145,10|2,3:2|3:2,0:0:0:0:
81,265,65222,6,0,L|337:246,1,217.5,2|0,3:2|0:0,0:0:0:0:
171,187,65847,2,0,L|73:186,1,72.5,10|0,3:2|0:0,0:0:0:0:
231,123,66159,2,0,L|331:119,1,72.5,2|0,3:2|0:0,0:0:0:0:
85,110,66472,2,0,L|72:-38,1,145,0|2,3:0|3:2,0:0:0:0:
446,156,67097,1,10,3:2:0:0:
152,140,67409,1,2,3:2:0:0:
237,138,67565,1,0,0:0:0:0:
446,156,67722,6,0,L|461:312,1,145,2|2,3:2|3:2,0:0:0:0:
79,310,68347,2,0,P|80:229|295:187,1,290,10|0,3:2|3:0,0:0:0:0:
442,192,69284,1,2,3:2:0:0:
166,132,69597,2,0,L|5:132,1,145,10|2,3:2|3:2,0:0:0:0:
394,264,70222,6,0,P|447:207|370:115,1,217.5,2|0,3:2|0:0,0:0:0:0:
227,117,70847,2,0,L|220:19,1,72.5,10|0,3:2|0:0,0:0:0:0:
352,20,71159,2,0,L|366:123,1,72.5,2|0,3:2|0:0,0:0:0:0:
151,173,71472,2,0,L|3:167,1,145,0|2,3:0|3:2,0:0:0:0:
275,243,72097,1,8,3:2:0:0:
16,238,72409,1,2,3:2:0:0:
99,236,72565,1,0,0:0:0:0:
340,158,72722,5,0,3:0:0:0:
106,172,73034,2,0,L|92:-35,1,145,2|8,3:2|3:2,0:0:0:0:
236,17,73503,1,0,0:0:0:0:
97,21,73659,1,2,3:2:0:0:
360,133,73972,1,0,3:0:0:0:
95,141,74284,2,0,L|275:141,2,145,2|8|2,3:2|3:2|3:2,0:0:0:0:
475,258,75222,6,0,L|469:46,1,145,2|0,3:2|3:0,3:0:0:0:
390,102,75690,1,0,0:0:0:0:
475,93,75847,1,8,3:2:0:0:
221,98,76159,1,2,3:2:0:0:
475,93,76472,2,0,L|480:277,1,145,2|0,3:2|3:2,3:2:0:0:
348,244,76940,1,0,0:0:0:0:
483,248,77097,1,8,3:2:0:0:
231,130,77409,2,0,L|125:126,1,72.5,0|0,3:0|0:0,0:0:0:0:
386,119,77722,6,0,P|444:162|379:204,1,145,2|0,3:0|0:0,0:0:0:0:
147,222,78347,2,0,L|355:215,1,145
57,208,78972,2,0,L|51:24,1,145,2|2,3:0|3:2,0:0:0:0:
303,41,79597,1,10,3:2:0:0:
36,47,79909,1,2,3:2:0:0:
119,46,80065,1,0,0:0:0:0:
372,252,80222,6,0,P|427:201|340:84,1,217.5,6|0,3:2|0:0,0:0:0:0:
234,137,80847,2,0,L|149:137,1,72.5,10|0,3:2|0:0,0:0:0:0:
299,222,81159,2,0,L|400:228,1,72.5,2|0,3:2|0:0,0:0:0:0:
95,257,81472,2,0,P|35:154|73:87,1,145,0|2,3:0|3:2,0:0:0:0:
302,102,82097,1,10,3:2:0:0:
39,96,82409,1,2,3:2:0:0:
411,233,82722,6,0,L|423:55,1,145,2|2,3:2|3:2,0:0:0:0:
278,63,83190,1,0,0:0:0:0:
501,89,83347,2,0,L|506:290,1,145,10|0,3:2|3:0,0:0:0:0:
258,263,83972,2,0,L|443:263,1,145,0|0,3:0|3:0,0:0:0:0:
124,150,84597,1,10,3:2:0:0:
404,140,84909,1,2,3:2:0:0:
15,254,85222,6,0,P|14:166|154:102,1,217.5,2|0,3:2|0:0,0:0:0:0:
344,229,85847,2,0,P|393:180|327:133,1,145,10|0,3:2|3:0,0:0:0:0:
212,121,86315,1,2,3:2:0:0:
463,138,86472,2,0,L|291:137,1,145,2|2,3:2|3:2,0:0:0:0:
57,210,87097,1,10,3:2:0:0:
324,208,87409,1,2,3:2:0:0:
234,193,87565,1,0,3:2:0:0:
21,169,87722,6,0,L|8:-8,1,145,2|0,3:0|3:0,0:0:0:0:
275,52,88347,1,10,3:2:0:0:
22,53,88659,1,2,3:0:0:0:
448,151,88972,2,0,L|461:342,1,145,2|0,3:0|3:0,0:0:0:0:
205,255,89597,2,0,L|28:252,1,145,10|0,3:2|3:0,0:0:0:0:
435,263,90222,6,0,P|499:226|418:142,1,217.5,2|0,3:2|0:0,0:0:0:0:
293,143,90847,2,0,L|283:35,1,72.5,10|0,3:2|0:0,0:0:0:0:
423,42,91159,2,0,L|343:42,1,72.5,2|0,3:2|0:0,0:0:0:0:
106,161,91472,2,0,P|65:91|115:43,1,145,0|2,3:0|3:2,0:0:0:0:
370,52,92097,1,8,3:2:0:0:
94,50,92409,1,2,3:2:0:0:
471,192,92722,6,0,L|276:189,1,145,2|0,3:2|3:0,0:0:0:0:
70,155,93347,1,10,3:2:0:0:
309,199,93659,2,0,P|311:121|101:65,1,290,2|2,3:2|3:2,0:0:0:0:
414,62,94597,2,0,L|425:221,1,145,10|2,3:2|3:2,0:0:0:0:
46,254,95222,6,0,L|352:236,1,290,2|10,3:0|3:2,0:0:0:0:
115,164,96159,1,0,3:0:0:0:
494,282,96472,2,0,L|493:116,1,145,2|2,3:0|3:0,0:0:0:0:
122,107,97097,1,10,3:2:0:0:
402,94,97409,1,2,3:0:0:0:
19,60,97722,5,2,3:0:0:0:
256,192,97878,12,0,100222,0:0:0:0:
