osu file format v14

[General]
AudioFilename: audio.mp3
AudioLeadIn: 0
PreviewTime: 59206
Countdown: 0
SampleSet: Soft
StackLeniency: 0.3
Mode: 2
LetterboxInBreaks: 0
WidescreenStoryboard: 1

[Editor]
Bookmarks: 214,20214,40214,60214,79276,80214,97714,100214
DistanceSpacing: 0.8
BeatDivisor: 4
GridSize: 32
TimelineZoom: 1.6

[Metadata]
Title:marie (Cut Ver.)
TitleUnicode:marie (Cut Ver.)
Artist:Aimer
ArtistUnicode:Aimer
Creator:Secre
Version:salad
Source:
Tags:chickenbible SeaRasp エメ Antoinette 春はゆく Haru wa Yuku spring song album Sony Music Entertainment japanese j-pop short version Habsburg Exhibition image song aimerrythm Female Vocal edit SME Jpop Pop
BeatmapID:3202806
BeatmapSetID:1558827

[Difficulty]
HPDrainRate:3
CircleSize:4
OverallDifficulty:6.5
ApproachRate:6.5
SliderMultiplier:2.6
SliderTickRate:2

[Events]
//Background and Video events
0,0,"MARInE.jpg",0,0
//Break Periods
//Storyboard Layer 0 (Background)
//Storyboard Layer 1 (Fail)
//Storyboard Layer 2 (Pass)
//Storyboard Layer 3 (Foreground)
//Storyboard Layer 4 (Overlay)
//Storyboard Sound Samples

[TimingPoints]
222,625,4,2,1,40,1,0
20222,-100,4,2,1,40,0,0
21472,-100,4,2,1,30,0,0
22095,-100,4,2,1,20,0,0
22643,-100,4,2,1,40,0,0
22722,-100,4,2,1,40,0,0
23034,-100,4,2,1,40,0,0
23347,-100,4,2,1,40,0,0
23972,-100,4,2,1,30,0,0
24909,-100,4,2,1,40,0,0
25222,-100,4,2,1,40,0,0
25534,-100,4,2,1,40,0,0
25847,-100,4,2,1,40,0,0
26472,-100,4,2,1,30,0,0
27097,-100,4,2,1,20,0,0
27643,-100,4,2,1,40,0,0
27722,-100,4,2,1,40,0,0
28034,-100,4,2,1,40,0,0
28347,-100,4,2,1,40,0,0
28972,-100,4,2,1,30,0,0
29909,-100,4,2,1,40,0,0
30222,-100,4,2,1,40,0,0
30534,-100,4,2,1,40,0,0
30847,-100,4,2,1,40,0,0
31393,-100,4,2,1,40,0,0
31472,-100,4,2,1,30,0,0
32097,-100,4,2,1,20,0,0
32565,-100,4,2,1,20,0,0
32643,-100,4,2,1,40,0,0
32722,-100,4,2,1,40,0,0
33034,-100,4,2,1,40,0,0
33347,-100,4,2,1,40,0,0
33972,-100,4,2,1,30,0,0
34597,-100,4,2,1,20,0,0
35222,-100,4,2,1,40,0,0
35534,-100,4,2,1,40,0,0
35847,-100,4,2,1,40,0,0
36472,-100,4,2,1,30,0,0
37097,-100,4,2,1,20,0,0
37565,-100,4,2,1,20,0,0
37643,-100,4,2,1,40,0,0
37722,-100,4,2,1,25,0,0
38034,-100,4,2,1,30,0,0
38347,-100,4,2,1,35,0,0
38659,-100,4,2,1,40,0,0
38972,-100,4,2,1,45,0,0
39597,-100,4,2,1,40,0,0
40222,-100,4,2,1,25,0,0
40534,-100,4,2,1,30,0,0
40847,-100,4,2,1,35,0,0
41159,-100,4,2,1,40,0,0
41472,-100,4,2,1,45,0,0
41784,-100,4,2,1,45,0,0
42409,-100,4,2,1,45,0,0
42722,-100,4,2,1,25,0,0
43034,-100,4,2,1,30,0,0
43347,-100,4,2,1,35,0,0
43659,-100,4,2,1,40,0,0
43972,-100,4,2,1,45,0,0
44284,-100,4,2,1,45,0,0
44909,-100,4,2,1,45,0,0
45222,-100,4,2,1,25,0,0
45534,-100,4,2,1,30,0,0
45847,-100,4,2,1,35,0,0
46159,-100,4,2,1,40,0,0
46472,-100,4,2,1,45,0,0
47722,-100,4,2,1,25,0,0
48034,-100,4,2,1,30,0,0
48347,-100,4,2,1,35,0,0
48659,-100,4,2,1,40,0,0
48972,-100,4,2,1,45,0,0
49284,-100,4,2,1,45,0,0
50222,-100,4,2,1,25,0,0
50534,-100,4,2,1,30,0,0
50847,-100,4,2,1,35,0,0
51159,-100,4,2,1,40,0,0
51472,-100,4,2,1,45,0,0
51784,-100,4,2,1,45,0,0
52409,-100,4,2,1,45,0,0
52643,-100,4,2,1,45,0,0
52722,-100,4,2,1,25,0,0
53034,-100,4,2,1,30,0,0
53347,-100,4,2,1,35,0,0
53659,-100,4,2,1,40,0,0
53972,-100,4,2,1,45,0,0
54284,-100,4,2,1,45,0,0
55222,-100,4,2,1,25,0,0
55534,-100,4,2,1,30,0,0
55847,-100,4,2,1,35,0,0
56159,-100,4,2,1,40,0,0
56472,-100,4,2,1,45,0,0
57722,-100,4,2,1,25,0,0
58034,-100,4,2,1,40,0,0
58347,-100,4,2,1,55,0,0
58659,-100,4,2,1,70,0,0
58972,-100,4,2,1,85,0,0
59597,-100,4,2,1,40,0,0
60222,-100,4,2,1,70,0,1
79284,-100,4,2,1,70,0,0
80222,-100,4,2,1,70,0,1
96472,-100,4,2,1,40,0,1
96784,-100,4,2,1,50,0,1
97097,-100,4,2,1,60,0,1
97409,-100,4,2,1,70,0,1
97643,-100,4,2,1,70,0,1
97722,-100,4,2,1,80,0,0
97800,-100,4,2,1,50,0,0
99597,-100,4,2,1,30,0,0
102097,-100,4,2,1,5,0,0

[Colours]
Combo1 : 183,219,219
Combo2 : 224,193,255
Combo3 : 255,228,202

[HitObjects]
377,178,19909,6,0,L|303:178,1,65,2|2,0:0|0:0,0:0:0:0:
166,248,20222,6,0,L|153:83,1,130,2|2,3:2|3:0,3:0:0:0:
394,74,20847,1,2,0:0:0:0:
166,170,21472,2,0,L|441:171,1,260,2|2,0:3|0:0,0:0:0:0:
60,308,22722,6,0,L|56:157,1,130,2|2,3:0|3:0,0:0:0:0:
192,156,23347,2,0,L|40:152,1,130,2|0,0:0|0:0,0:0:0:0:
292,280,23972,2,0,P|362:258|268:147,1,260,2|0,0:0|0:0,0:0:0:0:
169,179,24909,2,0,L|166:83,1,65,2|2,0:0|0:0,0:0:0:0:
302,95,25222,6,0,L|478:102,1,130,2|2,3:0|3:0,0:0:0:0:
207,207,25847,1,2,0:0:0:0:
415,205,26472,2,0,L|413:62,1,130,2|0,0:3|0:0,0:0:0:0:
291,78,27097,2,0,L|446:77,1,130,2|0,0:0|0:0,0:0:0:0:
191,246,27722,6,0,P|131:222|234:105,1,260,2|2,3:0|0:2,0:0:0:0:
320,85,28659,1,2,0:3:0:0:
99,125,28972,1,2,0:0:0:0:
303,137,29909,2,0,L|311:229,1,65,2|0,0:0|0:0,0:0:0:0:
159,267,30222,6,0,L|12:260,1,130,2|2,3:0|3:0,0:0:0:0:
256,155,30847,1,2,0:0:0:0:
468,188,31472,2,0,L|472:51,1,130,2|0,0:3|0:0,0:0:0:0:
346,76,32097,2,0,L|191:78,1,130,2|0,0:0|0:0,0:0:0:0:
436,250,32722,6,0,P|491:206|395:91,1,260,2|2,3:0|0:0,0:0:0:0:
272,137,33659,1,0,0:0:0:0:
147,241,33972,2,0,P|66:202|167:105,1,260,2|0,0:3|0:0,0:0:0:0:
484,115,35222,6,0,L|491:248,1,130,2|2,3:0|3:0,0:0:0:0:
371,273,35847,2,0,L|499:244,1,130,2|0,0:0|0:0,0:0:0:0:
270,207,36472,2,0,L|11:204,1,260,2|2,3:0|0:0,0:0:0:0:
138,118,37409,1,0,0:0:0:0:
374,132,37722,6,0,L|380:299,1,130,2|2,3:0|3:0,0:0:0:0:
254,262,38347,2,0,L|99:265,1,130,2|2,3:0|3:0,0:0:0:0:
364,132,38972,1,2,3:0:0:0:
144,209,39597,1,2,0:0:0:0:
85,191,39753,1,2,0:0:0:0:
83,130,39909,1,2,0:0:0:0:
140,110,40065,1,2,0:0:0:0:
283,108,40222,6,0,L|455:105,1,130,2|2,3:0|3:0,0:0:0:0:
283,108,40847,2,0,L|137:113,2,130,2|2|2,3:0|3:0|3:0,0:0:0:0:
68,277,41784,2,0,L|61:95,1,130,2|0,0:0|0:0,0:0:0:0:
188,116,42409,1,2,0:0:0:0:
446,207,42722,6,0,L|453:35,1,130,2|2,3:0|3:0,0:0:0:0:
323,78,43347,2,0,L|490:74,2,130,2|2|2,3:0|3:0|3:0,0:0:0:0:
95,238,44284,2,0,P|25:202|129:90,1,260,2|2,0:0|0:0,0:0:0:0:
344,153,45222,6,0,L|347:11,1,130,2|2,3:0|3:0,0:0:0:0:
223,107,45847,2,0,L|217:-42,1,130,2|2,3:0|3:2,0:0:0:0:
450,84,46472,2,0,L|296:81,3,130,2|2|2|2,0:0|0:0|0:0|0:0,0:0:0:0:
81,247,47722,6,0,L|74:133,1,65,2|2,3:0|0:0,0:0:0:0:
142,154,48034,2,0,L|306:148,2,130,2|2|2,3:2|3:0|3:0,0:0:0:0:
387,211,48972,2,0,L|393:39,1,130,2|2,3:0|0:3,0:0:0:0:
265,126,49597,1,2,0:0:0:0:
205,115,49753,1,2,0:0:0:0:
203,53,49909,1,2,0:0:0:0:
260,31,50065,1,2,3:2:0:0:
411,48,50222,6,0,L|416:229,1,130,2|2,3:0|3:0,0:0:0:0:
295,238,50847,2,0,L|474:239,1,130,2|2,3:0|3:0,0:0:0:0:
361,176,51315,1,2,0:0:0:0:
298,177,51472,1,2,3:0:0:0:
56,246,51784,2,0,L|46:56,1,130,2|0,0:0|0:0,0:0:0:0:
172,87,52409,1,2,0:0:0:0:
432,68,52722,6,0,L|440:238,1,130,2|0,3:0|3:0,0:0:0:0:
180,223,53347,1,2,3:2:0:0:
66,225,53659,2,0,L|63:84,1,130,2|2,3:2|3:0,0:0:0:0:
296,104,54284,2,0,L|134:105,2,130,2|0|2,0:0|0:0|3:2,0:0:0:0:
62,240,55222,6,0,L|49:82,1,130,2|2,3:0|3:0,0:0:0:0:
187,83,55847,2,0,L|347:83,1,130,2|2,3:0|3:0,0:0:0:0:
80,198,56472,2,0,L|311:197,2,195,2|2|2,3:2|0:0|0:0,0:0:0:0:
321,273,57722,6,0,L|476:274,1,130,2|2,3:0|3:0,0:0:0:0:
211,161,58347,2,0,L|63:163,1,130,2|2,3:0|3:0,0:0:0:0:
348,97,58972,5,2,3:0:0:0:
131,237,60222,6,0,P|68:199|162:88,1,260,6|10,3:2|3:2,0:0:0:0:
283,210,61159,2,0,L|432:212,1,130,2|0,3:2|3:0,0:0:0:0:
156,246,61784,2,0,L|150:94,1,130,2|8,3:2|3:2,0:0:0:0:
296,95,62409,1,2,3:2:0:0:
67,184,62722,6,0,L|56:50,1,130,0|2,3:0|3:2,0:0:0:0:
296,71,63347,2,0,P|369:89|282:204,1,260,10|0,3:2|3:0,0:0:0:0:
180,199,64284,1,2,3:2:0:0:
416,199,64597,2,0,L|423:59,1,130,10|2,3:2|3:2,0:0:0:0:
169,100,65222,6,0,L|443:100,1,260,2|10,3:2|3:2,0:0:0:0:
311,237,66159,2,0,L|148:240,1,130,2|0,3:2|3:0,0:0:0:0:
318,97,66784,1,2,3:2:0:0:
90,153,67097,2,0,L|86:14,1,130,10|2,3:2|3:2,0:0:0:0:
325,52,67722,6,0,L|477:58,1,130,2|2,3:2|3:2,0:0:0:0:
207,260,68347,2,0,P|141:230|235:110,1,260,10|0,3:2|3:0,0:0:0:0:
335,103,69284,1,2,3:2:0:0:
95,170,69597,2,0,L|87:17,1,130,10|2,3:2|3:2,0:0:0:0:
341,66,70222,6,0,L|75:62,1,260,2|10,3:2|3:2,0:0:0:0:
206,219,71159,2,0,L|344:222,1,130,2|0,3:2|3:0,0:0:0:0:
81,115,71784,2,0,L|254:113,2,130,2|8|2,3:2|3:2|3:2,0:0:0:0:
307,191,72722,5,0,3:0:0:0:
81,193,73034,2,0,L|71:27,1,130,2|8,3:2|3:2,0:0:0:0:
311,68,73659,2,0,L|493:70,1,130,2|0,3:2|3:0,0:0:0:0:
186,195,74284,2,0,L|183:49,1,130,2|8,3:2|3:2,0:0:0:0:
414,45,74909,1,2,3:2:0:0:
195,64,75222,6,0,L|27:63,1,130,2|0,3:2|3:0,3:0:0:0:
283,194,75847,2,0,L|432:194,1,130,8|2,3:2|3:2,0:0:0:0:
169,280,76472,1,2,3:2:0:0:
55,232,76784,1,0,3:2:0:0:
54,110,77097,1,8,3:2:0:0:
166,60,77409,1,0,3:0:0:0:
415,189,77722,6,0,L|418:37,1,130,2|0,3:0|0:0,0:0:0:0:
298,60,78347,2,0,L|454:61,1,130
200,194,78972,2,0,L|36:191,1,130,2|2,3:0|3:2,0:0:0:0:
294,273,79597,2,0,L|445:277,1,130,10|2,3:2|3:2,0:0:0:0:
173,275,80222,6,0,P|102:245|202:139,1,260,6|10,3:2|3:2,0:0:0:0:
304,226,81159,2,0,L|445:221,1,130,2|0,3:2|3:0,0:0:0:0:
189,110,81784,2,0,L|329:111,2,130,2|10|2,3:2|3:2|3:2,0:0:0:0:
429,217,82722,6,0,L|442:62,1,130,2|2,3:2|3:2,0:0:0:0:
195,99,83347,2,0,L|470:96,1,260,10|0,3:2|3:0,0:0:0:0:
333,163,84284,1,0,3:0:0:0:
105,192,84597,2,0,L|99:50,1,130,10|2,3:2|3:2,0:0:0:0:
330,74,85222,6,0,L|43:71,1,260,2|10,3:2|3:2,0:0:0:0:
197,170,86159,1,0,3:0:0:0:
266,166,86315,1,2,3:2:0:0:
334,168,86472,2,0,L|336:17,1,130,2|2,3:2|3:2,0:0:0:0:
101,89,87097,2,0,L|95:250,1,130,10|2,3:2|3:2,0:0:0:0:
334,257,87722,6,0,L|55:258,1,260,2|10,3:0|3:2,0:0:0:0:
194,184,88659,1,2,3:0:0:0:
426,207,88972,2,0,L|434:56,1,130,2|0,3:0|3:0,0:0:0:0:
304,70,89597,2,0,L|462:71,1,130,10|0,3:2|3:0,0:0:0:0:
199,257,90222,6,0,P|137:237|220:130,1,260,2|10,3:2|3:2,0:0:0:0:
352,235,91159,2,0,L|489:232,1,130,2|0,3:2|3:0,0:0:0:0:
236,127,91784,2,0,L|224:-30,1,130,2|8,3:2|3:2,0:0:0:0:
352,4,92409,1,2,3:2:0:0:
106,252,92722,6,0,L|101:122,1,130,2|0,3:2|3:0,0:0:0:0:
239,98,93347,1,10,3:2:0:0:
374,284,93659,2,0,P|369:186|230:106,1,260,2|2,3:2|3:2,0:0:0:0:
371,188,94597,2,0,L|503:188,1,130,10|2,3:2|3:2,0:0:0:0:
263,231,95222,6,0,L|-7:230,1,260,2|10,3:0|3:2,0:0:0:0:
130,152,96159,1,0,3:0:0:0:
357,197,96472,2,0,L|358:45,1,130,2|2,3:0|3:0,0:0:0:0:
120,91,97097,2,0,L|286:93,1,130,10|2,3:2|3:0,0:0:0:0:
500,203,97722,5,2,3:0:0:0:
256,192,98034,12,0,100222,0:0:0:0:
