osu file format v14

[General]
AudioFilename: audio.mp3
AudioLeadIn: 0
PreviewTime: 59206
Countdown: 0
SampleSet: Soft
StackLeniency: 0.3
Mode: 0
LetterboxInBreaks: 0
WidescreenStoryboard: 0

[Editor]
Bookmarks: 214,20214,40214,60214,79276,80214,97714,100214
DistanceSpacing: 0.8
BeatDivisor: 8
GridSize: 32
TimelineZoom: 1.6

[Metadata]
Title:marie (Cut Ver.)
TitleUnicode:marie (Cut Ver.)
Artist:Aimer
ArtistUnicode:Aimer
Creator:SeaRasp
Version:Portrait
Source:
Tags:エメ Marie Antoinette 春はゆく Haru wa Yuku spring song album Sony Music Entertainment japanese j-pop short version Habsburg Exhibition image song aimerrythm Female Vocal edit SME Jpop Pop
BeatmapID:2721242
BeatmapSetID:1313084

[Difficulty]
HPDrainRate:6
CircleSize:4
OverallDifficulty:8
ApproachRate:8.5
SliderMultiplier:3
SliderTickRate:1

[Events]
//Background and Video events
0,0,"BG.jpg",0,0
//Break Periods
//Storyboard Layer 0 (Background)
//Storyboard Layer 1 (Fail)
//Storyboard Layer 2 (Pass)
//Storyboard Layer 3 (Foreground)
//Storyboard Layer 4 (Overlay)
//Storyboard Sound Samples

[TimingPoints]
222,625,4,2,1,40,1,0
20222,-133.333333333333,4,2,1,40,0,0
21315,-133.333333333333,4,2,1,5,0,0
21472,-166.666666666667,4,2,1,30,0,0
21940,-133.333333333333,4,2,1,5,0,0
22095,-250,4,2,1,20,0,0
22565,-250,4,2,1,5,0,0
22643,-250,4,2,1,40,0,0
22722,-133.333333333333,4,2,1,40,0,0
22878,-133.333333333333,4,2,1,5,0,0
23034,-133.333333333333,4,2,1,40,0,0
23190,-133.333333333333,4,2,1,5,0,0
23347,-133.333333333333,4,2,1,40,0,0
23815,-133.333333333333,4,2,1,5,0,0
23972,-166.666666666667,4,2,1,30,0,0
24597,-166.666666666667,4,2,1,5,0,0
24909,-166.666666666667,4,2,1,40,0,0
25222,-133.333333333333,4,2,1,40,0,0
25378,-133.333333333333,4,2,1,5,0,0
25534,-133.333333333333,4,2,1,40,0,0
25690,-133.333333333333,4,2,1,5,0,0
25847,-133.333333333333,4,2,1,40,0,0
26315,-133.333333333333,4,2,1,5,0,0
26472,-133.333333333333,4,2,1,30,0,0
26940,-133.333333333333,4,2,1,5,0,0
27097,-250,4,2,1,20,0,0
27565,-250,4,2,1,5,0,0
27643,-250,4,2,1,40,0,0
27722,-133.333333333333,4,2,1,40,0,0
27878,-133.333333333333,4,2,1,5,0,0
28034,-133.333333333333,4,2,1,40,0,0
28190,-133.333333333333,4,2,1,5,0,0
28347,-133.333333333333,4,2,1,40,0,0
28972,-166.666666666667,4,2,1,30,0,0
29597,-166.666666666667,4,2,1,5,0,0
29909,-166.666666666667,4,2,1,40,0,0
30222,-133.333333333333,4,2,1,40,0,0
30378,-133.333333333333,4,2,1,5,0,0
30534,-133.333333333333,4,2,1,40,0,0
30690,-133.333333333333,4,2,1,5,0,0
30847,-133.333333333333,4,2,1,40,0,0
31315,-133.333333333333,4,2,1,5,0,0
31393,-133.333333333333,4,2,1,40,0,0
31472,-166.666666666667,4,2,1,30,0,0
31940,-166.666666666667,4,2,1,5,0,0
32097,-250,4,2,1,20,0,0
32565,-250,4,2,1,20,0,0
32643,-250,4,2,1,40,0,0
32722,-133.333333333333,4,2,1,40,0,0
32878,-133.333333333333,4,2,1,5,0,0
33034,-133.333333333333,4,2,1,40,0,0
33190,-133.333333333333,4,2,1,5,0,0
33347,-133.333333333333,4,2,1,40,0,0
33815,-133.333333333333,4,2,1,5,0,0
33972,-166.666666666667,4,2,1,30,0,0
34597,-166.666666666667,4,2,1,20,0,0
35222,-133.333333333333,4,2,1,40,0,0
35378,-133.333333333333,4,2,1,5,0,0
35534,-133.333333333333,4,2,1,40,0,0
35690,-133.333333333333,4,2,1,5,0,0
35847,-133.333333333333,4,2,1,40,0,0
36315,-133.333333333333,4,2,1,5,0,0
36472,-166.666666666667,4,2,1,30,0,0
36940,-166.666666666667,4,2,1,5,0,0
37097,-250,4,2,1,20,0,0
37565,-250,4,2,1,20,0,0
37643,-250,4,2,1,40,0,0
37722,-133.333333333333,4,2,1,25,0,0
37878,-133.333333333333,4,2,1,5,0,0
38034,-133.333333333333,4,2,1,30,0,0
38190,-133.333333333333,4,2,1,5,0,0
38347,-133.333333333333,4,2,1,35,0,0
38503,-133.333333333333,4,2,1,5,0,0
38659,-133.333333333333,4,2,1,40,0,0
38815,-133.333333333333,4,2,1,5,0,0
38972,-166.666666666667,4,2,1,45,0,0
39440,-166.666666666667,4,2,1,5,0,0
39597,-166.666666666667,4,2,1,40,0,0
40222,-111.111111111111,4,2,1,25,0,0
40378,-111.111111111111,4,2,1,5,0,0
40534,-111.111111111111,4,2,1,30,0,0
40690,-111.111111111111,4,2,1,5,0,0
40847,-111.111111111111,4,2,1,35,0,0
41003,-111.111111111111,4,2,1,5,0,0
41159,-111.111111111111,4,2,1,40,0,0
41472,-111.111111111111,4,2,1,45,0,0
41784,-133.333333333333,4,2,1,45,0,0
42253,-133.333333333333,4,2,1,5,0,0
42409,-133.333333333333,4,2,1,45,0,0
42565,-111.111111111111,4,2,1,5,0,0
42722,-111.111111111111,4,2,1,25,0,0
42878,-111.111111111111,4,2,1,5,0,0
43034,-111.111111111111,4,2,1,30,0,0
43190,-111.111111111111,4,2,1,5,0,0
43347,-111.111111111111,4,2,1,35,0,0
43503,-111.111111111111,4,2,1,5,0,0
43659,-111.111111111111,4,2,1,40,0,0
43815,-111.111111111111,4,2,1,5,0,0
43972,-111.111111111111,4,2,1,45,0,0
44284,-166.666666666667,4,2,1,45,0,0
44753,-166.666666666667,4,2,1,5,0,0
44909,-166.666666666667,4,2,1,45,0,0
45065,-166.666666666667,4,2,1,5,0,0
45222,-111.111111111111,4,2,1,25,0,0
45378,-111.111111111111,4,2,1,5,0,0
45534,-111.111111111111,4,2,1,30,0,0
45690,-111.111111111111,4,2,1,5,0,0
45847,-111.111111111111,4,2,1,35,0,0
46003,-111.111111111111,4,2,1,5,0,0
46159,-111.111111111111,4,2,1,40,0,0
46315,-111.111111111111,4,2,1,5,0,0
46472,-166.666666666667,4,2,1,45,0,0
47722,-111.111111111111,4,2,1,25,0,0
48034,-111.111111111111,4,2,1,30,0,0
48190,-111.111111111111,4,2,1,5,0,0
48347,-111.111111111111,4,2,1,35,0,0
48503,-111.111111111111,4,2,1,5,0,0
48659,-111.111111111111,4,2,1,40,0,0
48815,-111.111111111111,4,2,1,5,0,0
48972,-111.111111111111,4,2,1,45,0,0
49284,-166.666666666667,4,2,1,45,0,0
50222,-111.111111111111,4,2,1,25,0,0
50378,-111.111111111111,4,2,1,5,0,0
50534,-111.111111111111,4,2,1,30,0,0
50690,-111.111111111111,4,2,1,5,0,0
50847,-111.111111111111,4,2,1,35,0,0
51003,-111.111111111111,4,2,1,5,0,0
51159,-111.111111111111,4,2,1,40,0,0
51472,-111.111111111111,4,2,1,45,0,0
51784,-166.666666666667,4,2,1,45,0,0
52253,-166.666666666667,4,2,1,5,0,0
52409,-166.666666666667,4,2,1,45,0,0
52565,-166.666666666667,4,2,1,5,0,0
52643,-166.666666666667,4,2,1,45,0,0
52722,-111.111111111111,4,2,1,25,0,0
52878,-111.111111111111,4,2,1,5,0,0
53034,-111.111111111111,4,2,1,30,0,0
53190,-111.111111111111,4,2,1,5,0,0
53347,-111.111111111111,4,2,1,35,0,0
53503,-111.111111111111,4,2,1,5,0,0
53659,-111.111111111111,4,2,1,40,0,0
53815,-111.111111111111,4,2,1,5,0,0
53972,-111.111111111111,4,2,1,45,0,0
54284,-166.666666666667,4,2,1,45,0,0
55222,-111.111111111111,4,2,1,25,0,0
55378,-111.111111111111,4,2,1,5,0,0
55534,-111.111111111111,4,2,1,30,0,0
55690,-111.111111111111,4,2,1,5,0,0
55847,-111.111111111111,4,2,1,35,0,0
56003,-111.111111111111,4,2,1,5,0,0
56159,-111.111111111111,4,2,1,40,0,0
56315,-111.111111111111,4,2,1,5,0,0
56472,-166.666666666667,4,2,1,45,0,0
57722,-125,4,2,1,25,0,0
57956,-125,4,2,1,5,0,0
58034,-100,4,2,1,40,0,0
58268,-100,4,2,1,5,0,0
58347,-86.9565217391304,4,2,1,55,0,0
58581,-86.9565217391304,4,2,1,5,0,0
58659,-76.9230769230769,4,2,1,70,0,0
58893,-76.9230769230769,4,2,1,5,0,0
58972,-76.9230769230769,4,2,1,85,0,0
59597,-1000,4,2,1,40,0,0
60143,-1000,4,2,1,5,0,0
60222,-83.3333333333333,4,2,1,70,0,1
60456,-83.3333333333333,4,2,1,5,0,1
60534,-83.3333333333333,4,2,1,70,0,1
61081,-83.3333333333333,4,2,1,5,0,1
61159,-83.3333333333333,4,2,1,70,0,1
61393,-83.3333333333333,4,2,1,5,0,1
61472,-83.3333333333333,4,2,1,70,0,1
62018,-83.3333333333333,4,2,1,5,0,1
62097,-83.3333333333333,4,2,1,70,0,1
62643,-83.3333333333333,4,2,1,5,0,1
62722,-83.3333333333333,4,2,1,70,0,1
63268,-83.3333333333333,4,2,1,5,0,1
63347,-83.3333333333333,4,2,1,70,0,1
63581,-83.3333333333333,4,2,1,5,0,1
63659,-83.3333333333333,4,2,1,70,0,1
64518,-83.3333333333333,4,2,1,5,0,1
64597,-83.3333333333333,4,2,1,70,0,1
64831,-83.3333333333333,4,2,1,5,0,1
64909,-83.3333333333333,4,2,1,70,0,1
65456,-83.3333333333333,4,2,1,5,0,1
65534,-83.3333333333333,4,2,1,70,0,1
66081,-83.3333333333333,4,2,1,5,0,1
66159,-83.3333333333333,4,2,1,70,0,1
66393,-83.3333333333333,4,2,1,5,0,1
66472,-83.3333333333333,4,2,1,70,0,1
67018,-83.3333333333333,4,2,1,5,0,1
67097,-83.3333333333333,4,2,1,70,0,1
67331,-83.3333333333333,4,2,1,5,0,1
67409,-83.3333333333333,4,2,1,70,0,1
67643,-83.3333333333333,4,2,1,5,0,1
67722,-83.3333333333333,4,2,1,70,0,1
67956,-83.3333333333333,4,2,1,5,0,1
68034,-83.3333333333333,4,2,1,70,0,1
68268,-83.3333333333333,4,2,1,5,0,1
68347,-83.3333333333333,4,2,1,70,0,1
68581,-83.3333333333333,4,2,1,5,0,1
68659,-83.3333333333333,4,2,1,70,0,1
69518,-83.3333333333333,4,2,1,5,0,1
69597,-83.3333333333333,4,2,1,70,0,1
69831,-83.3333333333333,4,2,1,5,0,1
69909,-83.3333333333333,4,2,1,70,0,1
70456,-83.3333333333333,4,2,1,5,0,1
70534,-83.3333333333333,4,2,1,70,0,1
71081,-83.3333333333333,4,2,1,5,0,1
71159,-83.3333333333333,4,2,1,70,0,1
71393,-83.3333333333333,4,2,1,5,0,1
71472,-83.3333333333333,4,2,1,70,0,1
72018,-83.3333333333333,4,2,1,5,0,1
72097,-83.3333333333333,4,2,1,70,0,1
72643,-83.3333333333333,4,2,1,5,0,1
72722,-83.3333333333333,4,2,1,70,0,1
73268,-83.3333333333333,4,2,1,5,0,1
73347,-83.3333333333333,4,2,1,70,0,1
73893,-83.3333333333333,4,2,1,5,0,1
73972,-83.3333333333333,4,2,1,70,0,1
74518,-83.3333333333333,4,2,1,5,0,1
74597,-83.3333333333333,4,2,1,70,0,1
75143,-83.3333333333333,4,2,1,5,0,1
75222,-83.3333333333333,4,2,1,70,0,1
76393,-83.3333333333333,4,2,1,5,0,1
76472,-83.3333333333333,4,2,1,70,0,1
79284,-83.3333333333333,4,2,1,70,0,0
79440,-83.3333333333333,4,2,1,5,0,0
79597,-83.3333333333333,4,2,1,70,0,0
79753,-83.3333333333333,4,2,1,5,0,0
79909,-83.3333333333333,4,2,1,70,0,0
80065,-83.3333333333333,4,2,1,5,0,0
80222,-83.3333333333333,4,2,1,70,0,1
80456,-83.3333333333333,4,2,1,5,0,1
80534,-83.3333333333333,4,2,1,70,0,1
81081,-83.3333333333333,4,2,1,5,0,1
81159,-83.3333333333333,4,2,1,70,0,1
81393,-83.3333333333333,4,2,1,5,0,1
81472,-83.3333333333333,4,2,1,70,0,1
82018,-83.3333333333333,4,2,1,5,0,1
82097,-83.3333333333333,4,2,1,70,0,1
82331,-83.3333333333333,4,2,1,5,0,1
82409,-83.3333333333333,4,2,1,70,0,1
82956,-83.3333333333333,4,2,1,5,0,1
83034,-83.3333333333333,4,2,1,70,0,1
83268,-83.3333333333333,4,2,1,5,0,1
83347,-83.3333333333333,4,2,1,70,0,1
83581,-83.3333333333333,4,2,1,5,0,1
83659,-83.3333333333333,4,2,1,70,0,1
84206,-83.3333333333333,4,2,1,5,0,1
84284,-83.3333333333333,4,2,1,70,0,1
84831,-83.3333333333333,4,2,1,5,0,1
84909,-83.3333333333333,4,2,1,70,0,1
85143,-83.3333333333333,4,2,1,5,0,1
85222,-83.3333333333333,4,2,1,70,0,1
85456,-83.3333333333333,4,2,1,5,0,1
85534,-83.3333333333333,4,2,1,70,0,1
86081,-83.3333333333333,4,2,1,5,0,1
86159,-83.3333333333333,4,2,1,70,0,1
86237,-83.3333333333333,4,2,1,5,0,1
86315,-83.3333333333333,4,2,1,70,0,1
86393,-83.3333333333333,4,2,1,5,0,1
86472,-83.3333333333333,4,2,1,70,0,1
86706,-83.3333333333333,4,2,1,5,0,1
86784,-83.3333333333333,4,2,1,70,0,1
87018,-83.3333333333333,4,2,1,5,0,1
87097,-83.3333333333333,4,2,1,70,0,1
87331,-83.3333333333333,4,2,1,5,0,1
87409,-83.3333333333333,4,2,1,70,0,1
88503,-83.3333333333333,4,2,1,5,0,1
88659,-83.3333333333333,4,2,1,70,0,1
88815,-83.3333333333333,4,2,1,5,0,1
88972,-83.3333333333333,4,2,1,70,0,1
89831,-83.3333333333333,4,2,1,5,0,1
89909,-83.3333333333333,4,2,1,70,0,1
90456,-83.3333333333333,4,2,1,5,0,1
90534,-83.3333333333333,4,2,1,70,0,1
91081,-83.3333333333333,4,2,1,5,0,1
91159,-83.3333333333333,4,2,1,70,0,1
91393,-83.3333333333333,4,2,1,5,0,1
91472,-83.3333333333333,4,2,1,70,0,1
92018,-83.3333333333333,4,2,1,5,0,1
92097,-83.3333333333333,4,2,1,70,0,1
92956,-83.3333333333333,4,2,1,5,0,1
93034,-83.3333333333333,4,2,1,70,0,1
93581,-83.3333333333333,4,2,1,5,0,1
93659,-83.3333333333333,4,2,1,70,0,1
93893,-83.3333333333333,4,2,1,5,0,1
93972,-83.3333333333333,4,2,1,70,0,1
94518,-83.3333333333333,4,2,1,5,0,1
94597,-83.3333333333333,4,2,1,70,0,1
94831,-83.3333333333333,4,2,1,5,0,1
94909,-83.3333333333333,4,2,1,70,0,1
95456,-83.3333333333333,4,2,1,5,0,1
95534,-83.3333333333333,4,2,1,70,0,1
96081,-83.3333333333333,4,2,1,5,0,1
96159,-83.3333333333333,4,2,1,70,0,1
96472,-133.333333333333,4,2,1,40,0,1
96706,-133.333333333333,4,2,1,5,0,1
96784,-117.647058823529,4,2,1,50,0,1
97018,-117.647058823529,4,2,1,5,0,1
97097,-105.263157894737,4,2,1,60,0,1
97331,-105.263157894737,4,2,1,5,0,1
97409,-95.2380952380952,4,2,1,70,0,1
97643,-95.2380952380952,4,2,1,5,0,1
97722,-133.333333333333,4,2,1,80,0,0
97800,-133.333333333333,4,2,1,50,0,0
99597,-1000,4,2,1,30,0,0
102097,-1000,4,2,1,5,0,0

[Colours]
Combo1 : 183,219,219
Combo2 : 224,193,255
Combo3 : 255,228,202

[HitObjects]
59,140,19909,5,2,0:0:0:0:
120,87,20065,1,2,0:0:0:0:
181,34,20222,6,0,L|164:165,1,112.500004291535,2|2,3:2|3:0,3:0:0:0:
229,222,20690,1,2,0:0:0:0:
229,222,20847,2,0,B|277:221|311:195|311:195|350:214|415:199,1,168.750006437302,2|0,0:0|0:0,0:0:0:0:
429,311,21472,2,0,P|381:268|389:204,1,134.999995880127,2|0,0:3|0:0,0:0:0:0:
470,133,22097,2,0,P|485:88|472:44,1,90,2|0,0:0|0:0,0:0:0:0:
400,16,22643,1,2,0:3:0:0:
394,22,22722,6,0,L|321:35,1,56.2500021457673,2|0,3:0|0:0,0:0:0:0:
269,85,23034,2,0,L|196:72,1,56.2500021457673,2|0,3:0|0:0,0:0:0:0:
63,67,23347,6,0,B|80:27|80:27|135:63|128:152,1,168.750006437302,2|0,0:0|0:0,0:0:0:0:
225,213,23972,2,0,B|168:213|128:171|128:171|81:179|69:221,1,179.999994506836,2|0,0:0|0:0,0:0:0:0:
10,371,24909,5,2,0:0:0:0:
75,304,25065,1,2,0:0:0:0:
72,210,25222,6,0,P|58:178|36:149,1,56.2500021457673,2|0,3:0|0:0,0:0:0:0:
179,106,25534,2,0,P|163:129|153:155,1,56.2500021457673,2|0,3:0|0:0,0:0:0:0:
170,337,25847,6,0,B|216:316|256:341|247:351|286:370|340:349,1,168.750006437302,2|0,0:0|0:0,0:0:0:0:
448,367,26472,2,0,P|391:364|399:269,1,168.750006437302,2|0,0:3|0:0,0:0:0:0:
478,221,27097,2,0,B|492:176|492:176|477:135,1,90,2|0,0:0|0:0,0:0:0:0:
331,166,27643,1,0,0:0:0:0:
334,173,27722,6,0,L|410:176,1,56.2500021457673,2|0,3:0|0:0,0:0:0:0:
427,57,28034,2,0,L|351:54,1,56.2500021457673,2|0,3:0|0:0,0:0:0:0:
239,134,28347,5,2,0:2:0:0:
234,147,28425,1,0,0:0:0:0:
231,161,28503,1,0,0:0:0:0:
230,175,28581,1,0,0:0:0:0:
231,189,28659,1,2,0:3:0:0:
231,189,28972,6,0,B|306:195|306:195|324:212|324:212|414:221,1,179.999994506836,2|0,0:0|0:0,0:0:0:0:
215,371,29909,5,2,0:0:0:0:
294,331,30065,1,0,0:0:0:0:
220,283,30222,6,0,L|144:276,1,56.2500021457673,2|0,3:0|0:0,0:0:0:0:
57,366,30534,2,0,L|113:360,1,56.2500021457673,2|0,3:0|0:0,0:0:0:0:
65,263,30847,6,0,P|24:213|64:117,1,168.750006437302,2|0,0:0|0:0,0:0:0:0:
32,35,31393,1,0,3:0:0:0:
41,30,31472,2,0,B|80:18|110:40|104:45|135:67|187:53,1,134.999995880127,2|0,0:3|0:0,0:0:0:0:
339,132,32097,2,0,L|250:148,1,90,2|0,0:0|0:0,0:0:0:0:
177,202,32643,1,2,0:3:0:0:
169,206,32722,6,0,P|162:233|162:261,1,56.2500021457673,2|0,3:0|0:0,0:0:0:0:
300,284,33034,2,0,P|306:256|306:228,1,56.2500021457673,2|0,3:0|0:0,0:0:0:0:
251,148,33347,6,0,P|267:69|341:36,1,168.750006437302,2|0,0:0|0:0,0:0:0:0:
454,147,33972,2,0,L|441:254,1,89.9999972534181,2|0,0:3|3:0,0:0:0:0:
357,40,34597,1,8,3:0:0:0:
357,40,34753,1,0,3:0:0:0:
443,236,35065,5,0,3:0:0:0:
443,236,35222,2,0,L|434:303,1,56.2500021457673,2|0,3:0|0:0,0:0:0:0:
333,178,35534,2,0,L|342:245,1,56.2500021457673,2|0,3:0|0:0,0:0:0:0:
355,364,35847,6,0,B|318:330|259:333|259:333|237:373|186:377,1,168.750006437302,2|0,0:0|0:0,0:0:0:0:
173,277,36472,2,0,L|155:143,1,134.999995880127,2|0,3:0|0:0,0:0:0:0:
26,340,37097,2,0,L|36:247,1,90,2|0,0:0|0:0,0:0:0:0:
75,173,37643,1,2,0:3:0:0:
68,167,37722,6,0,L|56:99,1,56.2500021457673,2|0,3:0|0:0,0:0:0:0:
164,199,38034,2,0,L|152:131,1,56.2500021457673,2|0,3:0|0:0,0:0:0:0:
246,56,38347,2,0,L|234:124,1,56.2500021457673,2|0,3:0|0:0,0:0:0:0:
342,24,38659,2,0,L|330:92,1,56.2500021457673,2|0,3:0|0:0,0:0:0:0:
445,0,38972,2,0,B|421:147,1,134.999995880127,2|0,3:0|0:0,0:0:0:0:
223,30,39597,5,2,0:0:0:0:
244,129,39753,1,2,0:0:0:0:
412,243,39909,5,2,0:0:0:0:
433,144,40065,1,2,0:0:0:0:
256,241,40222,6,0,L|172:275,1,67.4999979400635,2|0,3:0|0:0,0:0:0:0:
71,138,40534,2,0,L|133:163,1,67.4999979400635,2|0,3:0|0:0,0:0:0:0:
113,333,40847,2,0,P|91:284|97:245,1,67.4999979400635,2|0,3:0|0:0,0:0:0:0:
210,93,41159,2,0,P|232:142|226:181,1,67.4999979400635,2|2,3:0|0:0,0:0:0:0:
213,364,41472,5,2,3:0:0:0:
213,364,41784,2,0,B|251:331|299:359|289:368|331:391|388:345,1,168.750006437302,2|0,0:0|0:0,0:0:0:0:
372,356,42409,2,0,L|385:288,1,56.2500021457673,2|0,0:0|0:0,0:0:0:0:
426,122,42722,6,0,L|438:55,1,67.4999979400635,2|0,3:0|0:0,0:0:0:0:
377,198,43034,2,0,P|413:213|464:202,1,67.4999979400635,2|0,3:0|0:0,0:0:0:0:
283,97,43347,2,0,P|249:96|219:110,1,67.4999979400635,2|0,3:0|0:0,0:0:0:0:
281,253,43659,2,0,L|268:186,1,67.4999979400635,2|0,3:0|0:0,0:0:0:0:
134,37,43972,5,2,3:0:0:0:
134,37,44284,2,0,L|109:169,1,134.999995880127,2|0,0:0|0:0,0:0:0:0:
109,169,44909,2,0,L|100:215,1,44.999998626709,2|0,0:0|0:0,0:0:0:0:
50,290,45222,6,0,P|97:306|141:294,1,67.4999979400635,2|0,3:0|0:0,0:0:0:0:
158,384,45534,2,0,P|195:351|206:307,1,67.4999979400635,2|0,3:0|0:0,0:0:0:0:
216,104,45847,2,0,P|178:136|167:180,1,67.4999979400635,2|0,3:0|0:0,0:0:0:0:
80,150,46159,2,0,P|90:198|122:230,1,67.4999979400635,2|0,3:2|0:0,0:0:0:0:
285,268,46472,6,0,L|380:254,1,89.9999972534181,2|2,0:0|0:0,0:0:0:0:
507,112,47097,2,0,L|412:126,1,89.9999972534181,2|2,0:0|0:0,0:0:0:0:
317,114,47565,1,0,3:0:0:0:
317,114,47643,1,0,3:0:0:0:
317,114,47722,6,0,P|300:76|303:34,1,67.4999979400635,2|2,3:0|0:0,0:0:0:0:
400,61,48034,2,0,P|416:98|413:140,1,67.4999979400635,2|0,3:2|0:0,0:0:0:0:
285,268,48347,2,0,L|301:187,1,67.4999979400635,2|0,3:0|0:0,0:0:0:0:
398,222,48659,2,0,L|382:303,1,67.4999979400635,2|0,3:0|0:0,0:0:0:0:
316,370,48972,5,2,3:0:0:0:
316,370,49284,2,0,L|210:350,1,89.9999972534181,2|2,0:3|0:0,0:0:0:0:
26,309,49753,1,2,0:0:0:0:
190,201,49909,1,2,0:0:0:0:
50,79,50065,2,0,L|55:118,1,22.4999993133545,2|0,3:2|3:2,3:2:0:0:
103,167,50222,6,0,L|92:257,1,67.4999979400635,2|0,3:0|0:0,0:0:0:0:
202,113,50534,2,0,L|191:203,1,67.4999979400635,2|0,3:0|0:0,0:0:0:0:
383,64,50847,2,0,L|394:154,1,67.4999979400635,2|0,3:0|0:0,0:0:0:0:
284,10,51159,2,0,L|295:100,1,67.4999979400635,2|2,3:0|0:0,0:0:0:0:
478,177,51472,5,2,3:0:0:0:
478,177,51784,2,0,P|412:166|355:222,1,134.999995880127,2|0,0:0|0:0,0:0:0:0:
361,205,52409,2,0,L|354:266,1,44.999998626709,2|0,0:0|0:0,0:0:0:0:
438,346,52643,1,0,3:0:0:0:
451,335,52722,6,0,L|459:268,1,67.4999979400635,2|0,3:0|0:0,0:0:0:0:
271,225,53034,2,0,L|279:292,1,67.4999979400635,0|0,3:0|0:0,0:0:0:0:
283,381,53347,2,0,P|328:370|354:336,1,67.4999979400635,2|0,3:2|0:0,0:0:0:0:
264,133,53659,2,0,P|219:144|193:178,1,67.4999979400635,2|0,3:2|0:0,0:0:0:0:
157,294,53972,5,2,3:0:0:0:
157,294,54284,2,0,L|11:283,1,134.999995880127,2|0,0:0|0:0,0:0:0:0:
22,283,54909,2,0,L|16:245,1,22.4999993133545,2|0,3:2|3:0,3:0:0:0:
105,209,55065,2,0,L|108:186,1,22.4999993133545,0|0,3:0|3:0,3:0:0:0:
3,63,55222,6,0,L|12:129,1,67.4999979400635,2|0,3:0|0:0,0:0:0:0:
97,15,55534,2,0,L|107:82,1,67.4999979400635,2|0,3:0|0:0,0:0:0:0:
225,179,55847,2,0,L|215:112,1,67.4999979400635,2|0,3:0|0:0,0:0:0:0:
321,132,56159,2,0,L|311:65,1,67.4999979400635,2|0,3:0|0:0,0:0:0:0:
486,284,56472,6,0,L|393:262,1,89.9999972534181,2|0,3:2|0:0,0:0:0:0:
466,185,56940,1,2,0:0:0:0:
305,227,57097,2,0,P|295:268|317:323,1,89.9999972534181,0|2,0:0|0:0,0:0:0:0:
308,312,57722,6,0,P|318:271|296:216,1,89.9999972534181,2|2,3:0|0:0,0:0:0:0:
307,209,58034,6,0,B|165:236,1,112.5,2|0,3:0|0:0,0:0:0:0:
12,339,58347,6,0,B|139:314,1,129.375002467632,2|0,3:0|0:0,0:0:0:0:
122,305,58659,6,0,P|91:255|129:160,1,146.249993305207,2|0,3:0|0:0,0:0:0:0:
256,47,58972,5,2,3:0:0:0:
256,47,59597,2,0,L|283:47,1,26.25,2|0,0:0|0:0,0:0:0:0:
378,49,60222,6,0,B|378:84|354:108|354:108|380:143|370:199,1,134.999995880127,6|0,3:2|0:0,0:0:0:0:
281,166,60534,1,0,3:0:0:0:
509,334,60847,6,0,P|461:294|377:318,1,134.999995880127,10|0,3:2|0:0,0:0:0:0:
336,361,61159,2,0,B|310:347|264:342|264:342|239:377|185:376,1,134.999995880127,2|0,3:2|0:0,0:0:0:0:
194,290,61472,1,0,3:0:0:0:
110,38,61784,6,0,B|98:86|98:86|109:113|109:113|94:181,1,134.999995880127,2|0,3:2|0:0,0:0:0:0:
23,127,62097,1,8,3:2:0:0:
0,323,62409,6,0,P|41:271|128:284,1,134.999995880127,2|0,3:2|0:0,0:0:0:0:
76,344,62722,1,0,3:0:0:0:
440,214,63034,6,0,B|465:57,1,134.999995880127,2|0,3:2|0:0,0:0:0:0:
380,107,63347,2,0,P|314:104|274:53,1,134.999995880127,10|0,3:2|0:0,0:0:0:0:
354,32,63659,5,0,3:0:0:0:
162,146,63972,1,0,3:0:0:0:
162,146,64284,6,0,B|183:279,1,134.999995880127,2|0,3:2|0:0,0:0:0:0:
193,367,64597,2,0,B|230:363|254:337|254:337|295:341|325:371,1,134.999995880127,10|0,3:2|0:0,0:0:0:0:
500,295,64909,1,2,3:2:0:0:
509,274,64987,1,0,3:0:0:0:
512,252,65065,1,0,3:0:0:0:
508,230,65143,1,0,3:0:0:0:
499,209,65222,6,0,B|444:215|444:215|425:231|425:231|351:242,1,134.999995880127,2|0,3:2|0:0,0:0:0:0:
380,152,65534,1,0,3:0:0:0:
88,377,65847,6,0,P|135:331|127:255,1,134.999995880127,10|0,3:2|0:0,0:0:0:0:
85,200,66159,2,0,B|67:157|72:124|72:124|107:103|117:52,1,134.999995880127,2|0,3:2|0:0,0:0:0:0:
34,48,66472,1,0,3:0:0:0:
197,171,66784,6,0,B|236:172|268:154|268:154|303:175|344:161,1,134.999995880127,2|0,3:2|0:0,0:0:0:0:
444,75,67097,2,0,B|405:74|373:92|373:92|338:71|297:85,1,134.999995880127,10|0,3:2|0:0,0:0:0:0:
326,165,67409,6,0,L|342:313,1,134.999995880127,2|0,3:2|0:0,0:0:0:0:
367,374,67722,2,0,P|329:319|254:344,1,134.999995880127,2|0,3:2|0:0,0:0:0:0:
58,360,68034,6,0,B|101:371|101:371|143:359|143:359|190:367,1,134.999995880127,2|0,3:2|0:0,0:0:0:0:
189,277,68347,2,0,B|142:269|142:269|100:281|100:281|57:270,1,134.999995880127,10|0,3:2|0:0,0:0:0:0:
98,186,68659,5,0,3:0:0:0:
364,236,68972,1,0,3:0:0:0:
364,236,69284,6,0,B|440:250|440:250|472:245|502:209,1,134.999995880127,2|0,3:2|0:0,0:0:0:0:
430,170,69597,2,0,L|411:303,1,134.999995880127,10|0,3:2|0:0,0:0:0:0:
288,377,69909,1,2,3:2:0:0:
284,354,69987,1,0,3:0:0:0:
281,332,70065,1,0,3:0:0:0:
278,310,70143,1,0,3:0:0:0:
275,287,70222,6,0,L|293:153,1,134.999995880127,2|0,3:2|0:0,0:0:0:0:
368,96,70534,1,0,3:0:0:0:
24,91,70847,6,0,P|73:38|142:53,1,134.999995880127,10|0,3:2|0:0,0:0:0:0:
186,106,71159,2,0,P|235:159|304:144,1,134.999995880127,2|0,3:2|0:0,0:0:0:0:
368,96,71472,1,0,3:0:0:0:
108,216,71784,6,0,B|114:248|102:279|102:279|134:308|127:354,1,134.999995880127,2|0,3:2|0:0,0:0:0:0:
44,341,72097,1,8,3:2:0:0:
404,28,72409,2,0,B|398:60|410:91|410:91|378:120|385:166,1,134.999995880127,2|0,3:2|0:0,0:0:0:0:
468,153,72722,1,0,3:0:0:0:
28,100,73034,6,0,P|119:97|149:45,1,134.999995880127,2|0,3:2|0:0,0:0:0:0:
71,34,73347,1,8,3:2:0:0:
480,320,73659,2,0,P|430:277|365:287,1,134.999995880127,2|0,3:2|0:0,0:0:0:0:
409,354,73972,1,0,3:0:0:0:
244,120,74284,6,0,L|272:276,1,134.999995880127,2|0,3:2|0:0,0:0:0:0:
264,264,74597,1,8,3:2:0:0:
480,32,74909,6,0,B|433:23|400:49|418:52|381:76|330:65,1,134.999995880127,2|0,3:2|0:0,0:0:0:0:
321,65,75222,2,0,P|422:65|477:153,2,179.999994506836,2|0|8,3:2|3:0|3:2,3:0:0:0:
44,348,76159,2,0,B|90:356|123:330|105:327|143:304|193:314,1,134.999995880127,2|0,3:2|0:0,0:0:0:0:
203,315,76472,2,0,P|102:315|47:227,2,179.999994506836,2|0|8,3:2|3:2|3:2,3:2:0:0:
200,6,77409,5,0,3:0:0:0:
312,378,77722,1,2,3:0:0:0:
256,192,77800,12,2,78972,3:0:0:0:
205,298,79284,6,0,P|142:310|91:295,1,89.9999972534181,2|0,3:2|0:0,0:0:0:0:
360,192,79597,2,0,P|401:240|414:292,1,89.9999972534181,10|0,3:2|0:0,0:0:0:0:
190,110,79909,2,0,P|211:49|249:12,1,89.9999972534181,2|0,3:2|0:0,0:0:0:0:
227,30,80222,6,0,P|273:79|257:166,1,134.999995880127,6|0,3:2|0:0,0:0:0:0:
190,110,80534,1,0,3:0:0:0:
257,355,80847,6,0,B|296:321|334:319|334:319|345:354|381:366,1,134.999995880127,10|0,3:2|0:0,0:0:0:0:
408,293,81159,2,0,B|423:144,1,134.999995880127,2|0,3:2|0:0,0:0:0:0:
434,81,81472,1,0,3:0:0:0:
204,196,81784,6,0,B|161:186|161:186|112:201|112:201|66:188,1,134.999995880127,2|0,3:2|0:0,0:0:0:0:
20,131,82097,2,0,L|43:288,1,134.999995880127,10|0,3:2|0:0,0:0:0:0:
164,381,82409,1,2,3:2:0:0:
167,358,82487,1,0,3:0:0:0:
170,336,82565,1,0,3:0:0:0:
174,314,82643,1,0,3:0:0:0:
177,291,82722,6,0,B|212:299|247:283|247:283|274:312|318:310,1,134.999995880127,2|0,3:2|0:0,0:0:0:0:
402,151,83034,2,0,P|339:170|309:229,1,134.999995880127,2|0,3:2|0:0,0:0:0:0:
382,367,83347,6,0,B|395:312|395:312|388:286|388:286|402:228,1,134.999995880127,10|0,3:2|0:0,0:0:0:0:
475,279,83659,1,0,3:0:0:0:
343,50,83972,6,0,P|310:91|215:84,1,134.999995880127,0|0,3:0|0:0,0:0:0:0:
269,25,84284,1,0,3:0:0:0:
16,212,84597,6,0,B|51:189|95:186|95:186|105:217|134:234,1,134.999995880127,10|0,3:2|0:0,0:0:0:0:
175,168,84909,2,0,L|143:329,1,134.999995880127,2|0,3:2|0:0,0:0:0:0:
225,364,85222,6,0,B|302:341|302:341|325:367|361:369,1,134.999995880127,2|0,3:2|0:0,0:0:0:0:
364,288,85534,1,0,3:0:0:0:
477,30,85847,6,0,B|466:71|466:71|478:113|478:113|462:180,1,134.999995880127,10|0,3:2|0:0,0:0:0:0:
374,171,86159,2,0,L|389:106,1,44.999998626709,0|0,3:0|0:0,0:0:0:0:
300,20,86315,2,0,L|315:85,1,44.999998626709,2|0,3:2|0:0,0:0:0:0:
246,133,86472,6,0,L|109:120,1,134.999995880127,2|0,3:2|0:0,0:0:0:0:
35,80,86784,6,0,B|31:105|16:122|16:122|43:164|34:247,1,134.999995880127,2|0,3:2|0:0,0:0:0:0:
128,261,87097,6,0,P|92:200|29:211,1,134.999995880127,10|0,3:2|0:0,0:0:0:0:
77,334,87409,1,2,3:2:0:0:
95,346,87487,1,0,3:2:0:0:
116,353,87565,1,0,3:2:0:0:
139,352,87643,1,0,3:2:0:0:
160,346,87722,6,0,B|211:320|251:341|241:352|287:370|344:336,1,179.999994506836,2|0,3:0|3:0,0:0:0:0:
407,280,88190,1,0,0:0:0:0:
316,255,88347,6,0,P|314:300|333:341,1,89.9999972534181,10|0,3:2|0:0,0:0:0:0:
498,304,88659,2,0,P|500:259|481:218,1,89.9999972534181,2|0,3:0|0:0,0:0:0:0:
296,154,88972,6,0,B|333:149|364:168|364:168|422:171|456:101,1,179.999994506836,2|0,3:0|3:0,0:0:0:0:
366,73,89440,1,0,0:0:0:0:
237,223,89597,6,0,B|200:227|172:209|172:209|129:202|93:231,1,134.999995880127,10|0,3:2|0:0,0:0:0:0:
24,368,89909,1,0,3:0:0:0:
42,355,89987,1,0,3:0:0:0:
54,336,90065,1,0,3:0:0:0:
60,314,90143,1,0,3:0:0:0:
57,292,90222,6,0,P|20:227|49:158,1,134.999995880127,2|0,3:2|0:0,0:0:0:0:
107,221,90534,1,0,3:0:0:0:
320,341,90847,6,0,B|355:325|391:340|386:347|421:361|457:344,1,134.999995880127,10|0,3:2|0:0,0:0:0:0:
423,268,91159,2,0,B|452:126,1,134.999995880127,2|0,3:2|0:0,0:0:0:0:
396,74,91472,1,0,3:0:0:0:
234,190,91784,6,0,B|184:197|184:197|158:216|158:216|106:220,1,134.999995880127,2|0,3:2|0:0,0:0:0:0:
31,185,92097,2,0,P|23:129|14:86,1,89.9999972534181,8|0,3:2|0:0,0:0:0:0:
210,15,92409,1,2,3:2:0:0:
206,37,92488,1,0,3:0:0:0:
202,59,92566,1,0,3:0:0:0:
198,81,92643,1,0,3:0:0:0:
196,104,92722,6,0,B|247:92|285:117|285:117|344:93,1,134.999995880127,2|0,3:2|0:0,0:0:0:0:
288,30,93034,1,0,3:0:0:0:
450,135,93347,6,0,B|423:268,1,134.999995880127,10|0,3:2|0:0,0:0:0:0:
473,350,93659,2,0,P|439:314|333:327,1,134.999995880127,2|0,3:2|0:0,0:0:0:0:
294,371,93972,1,0,3:0:0:0:
10,258,94284,6,0,B|59:250|59:250|90:264|90:264|152:251,1,134.999995880127,2|0,3:2|0:0,0:0:0:0:
119,358,94597,2,0,P|94:308|145:252,1,134.999995880127,10|0,3:2|0:0,0:0:0:0:
211,186,94909,1,2,3:2:0:0:
218,165,94987,1,0,3:0:0:0:
218,142,95065,1,0,3:0:0:0:
210,121,95143,1,0,3:0:0:0:
196,104,95222,6,0,B|160:88|122:80|122:80|102:108|68:117,1,134.999995880127,2|0,3:0|0:0,0:0:0:0:
51,39,95534,1,0,3:0:0:0:
318,191,95847,2,0,B|354:175|392:167|392:167|412:195|446:204,1,134.999995880127,10|0,3:2|0:0,0:0:0:0:
463,126,96159,1,0,3:0:0:0:
119,358,96472,6,0,L|201:344,1,84.3750032186509,2|0,3:0|0:0,0:0:0:0:
407,307,96784,2,0,L|312:291,1,95.6250018239022,2|0,3:0|0:0,0:0:0:0:
97,215,97097,2,0,L|202:197,1,106.87499714613,10|0,3:2|0:0,0:0:0:0:
436,156,97409,2,0,L|319:136,1,118.124996395111,2|0,3:0|0:0,0:0:0:0:
256,0,97722,5,2,3:0:0:0:
256,192,97800,12,2,99284,0:0:0:0:
256,0,99597,6,0,L|256:30,1,30,2|2,0:0|3:0,0:0:0:0:
256,192,100300,12,0,102097,0:0:0:0:
