osu file format v14

[General]
AudioFilename: audio.mp3
AudioLeadIn: 0
PreviewTime: 59206
Countdown: 0
SampleSet: Soft
StackLeniency: 0.3
Mode: 0
LetterboxInBreaks: 0
WidescreenStoryboard: 1

[Editor]
Bookmarks: 214,20214,40214,60214,79276,80214,97714,100214
DistanceSpacing: 1
BeatDivisor: 8
GridSize: 32
TimelineZoom: 1.6

[Metadata]
Title:marie (Cut Ver.)
TitleUnicode:marie (Cut Ver.)
Artist:Aimer
ArtistUnicode:Aimer
Creator:SeaRasp
Version:Normal
Source:
Tags:エメ Marie Antoinette 春はゆく Haru wa Yuku spring song album Sony Music Entertainment japanese j-pop short version Habsburg Exhibition image song aimerrythm Female Vocal edit SME Jpop Pop
BeatmapID:2722863
BeatmapSetID:1313084

[Difficulty]
HPDrainRate:4
CircleSize:3.5
OverallDifficulty:4
ApproachRate:5
SliderMultiplier:1.9
SliderTickRate:1

[Events]
//Background and Video events
0,0,"BG.jpg",0,0
//Break Periods
//Storyboard Layer 0 (Background)
//Storyboard Layer 1 (Fail)
//Storyboard Layer 2 (Pass)
//Storyboard Layer 3 (Foreground)
//Storyboard Layer 4 (Overlay)
//Storyboard Sound Samples

[TimingPoints]
222,625,4,2,1,40,1,0
20222,-100,4,2,1,40,0,0
21315,-100,4,2,1,5,0,0
21472,-100,4,2,1,30,0,0
21940,-100,4,2,1,5,0,0
22095,-100,4,2,1,20,0,0
22643,-100,4,2,1,40,0,0
22722,-100,4,2,1,40,0,0
22878,-100,4,2,1,5,0,0
23034,-100,4,2,1,40,0,0
23190,-100,4,2,1,5,0,0
23347,-100,4,2,1,40,0,0
23815,-100,4,2,1,5,0,0
23972,-100,4,2,1,30,0,0
24597,-100,4,2,1,5,0,0
24909,-100,4,2,1,40,0,0
25222,-100,4,2,1,40,0,0
25378,-100,4,2,1,5,0,0
25534,-100,4,2,1,40,0,0
25690,-100,4,2,1,5,0,0
25847,-100,4,2,1,40,0,0
26315,-100,4,2,1,5,0,0
26472,-100,4,2,1,30,0,0
26940,-100,4,2,1,5,0,0
27097,-100,4,2,1,20,0,0
27643,-100,4,2,1,40,0,0
27722,-100,4,2,1,40,0,0
27878,-100,4,2,1,5,0,0
28034,-100,4,2,1,40,0,0
28190,-100,4,2,1,5,0,0
28347,-100,4,2,1,40,0,0
28972,-100,4,2,1,30,0,0
29597,-100,4,2,1,5,0,0
29909,-100,4,2,1,40,0,0
30222,-100,4,2,1,40,0,0
30378,-100,4,2,1,5,0,0
30534,-100,4,2,1,40,0,0
30690,-100,4,2,1,5,0,0
30847,-100,4,2,1,40,0,0
31315,-100,4,2,1,5,0,0
31393,-100,4,2,1,40,0,0
31472,-100,4,2,1,30,0,0
31940,-100,4,2,1,5,0,0
32097,-100,4,2,1,20,0,0
32565,-100,4,2,1,20,0,0
32643,-100,4,2,1,40,0,0
32722,-100,4,2,1,40,0,0
32878,-100,4,2,1,5,0,0
33034,-100,4,2,1,40,0,0
33190,-100,4,2,1,5,0,0
33347,-100,4,2,1,40,0,0
33815,-100,4,2,1,5,0,0
33972,-100,4,2,1,30,0,0
34597,-100,4,2,1,20,0,0
35222,-100,4,2,1,40,0,0
35378,-100,4,2,1,5,0,0
35534,-100,4,2,1,40,0,0
35690,-100,4,2,1,5,0,0
35847,-100,4,2,1,40,0,0
36315,-100,4,2,1,5,0,0
36472,-100,4,2,1,30,0,0
36940,-100,4,2,1,5,0,0
37097,-100,4,2,1,20,0,0
37565,-100,4,2,1,20,0,0
37643,-100,4,2,1,40,0,0
37722,-100,4,2,1,25,0,0
37878,-100,4,2,1,5,0,0
38034,-100,4,2,1,30,0,0
38190,-100,4,2,1,5,0,0
38347,-100,4,2,1,35,0,0
38503,-100,4,2,1,5,0,0
38659,-100,4,2,1,40,0,0
38815,-100,4,2,1,5,0,0
38972,-100,4,2,1,45,0,0
39440,-100,4,2,1,5,0,0
39597,-100,4,2,1,40,0,0
40222,-100,4,2,1,25,0,0
40378,-100,4,2,1,5,0,0
40534,-100,4,2,1,30,0,0
40690,-100,4,2,1,5,0,0
40847,-100,4,2,1,35,0,0
41003,-100,4,2,1,5,0,0
41159,-100,4,2,1,40,0,0
41472,-100,4,2,1,45,0,0
41784,-100,4,2,1,45,0,0
42253,-100,4,2,1,5,0,0
42409,-100,4,2,1,45,0,0
42565,-100,4,2,1,5,0,0
42722,-100,4,2,1,25,0,0
42878,-100,4,2,1,5,0,0
43034,-100,4,2,1,30,0,0
43190,-100,4,2,1,5,0,0
43347,-100,4,2,1,35,0,0
43503,-100,4,2,1,5,0,0
43659,-100,4,2,1,40,0,0
43815,-100,4,2,1,5,0,0
43972,-100,4,2,1,45,0,0
44284,-100,4,2,1,45,0,0
44753,-100,4,2,1,5,0,0
44909,-100,4,2,1,45,0,0
45065,-100,4,2,1,5,0,0
45222,-100,4,2,1,25,0,0
45378,-100,4,2,1,5,0,0
45534,-100,4,2,1,30,0,0
45690,-100,4,2,1,5,0,0
45847,-100,4,2,1,35,0,0
46003,-100,4,2,1,5,0,0
46159,-100,4,2,1,40,0,0
46315,-100,4,2,1,5,0,0
46472,-100,4,2,1,45,0,0
47722,-100,4,2,1,25,0,0
48034,-100,4,2,1,30,0,0
48190,-100,4,2,1,5,0,0
48347,-100,4,2,1,35,0,0
48503,-100,4,2,1,5,0,0
48659,-100,4,2,1,40,0,0
48815,-100,4,2,1,5,0,0
48972,-100,4,2,1,45,0,0
49284,-100,4,2,1,45,0,0
50222,-100,4,2,1,25,0,0
50378,-100,4,2,1,5,0,0
50534,-100,4,2,1,30,0,0
50690,-100,4,2,1,5,0,0
50847,-100,4,2,1,35,0,0
51003,-100,4,2,1,5,0,0
51159,-100,4,2,1,40,0,0
51472,-100,4,2,1,45,0,0
51784,-100,4,2,1,45,0,0
52253,-100,4,2,1,5,0,0
52409,-100,4,2,1,45,0,0
52565,-100,4,2,1,5,0,0
52643,-100,4,2,1,45,0,0
52722,-100,4,2,1,25,0,0
52878,-100,4,2,1,5,0,0
53034,-100,4,2,1,30,0,0
53190,-100,4,2,1,5,0,0
53347,-100,4,2,1,35,0,0
53503,-100,4,2,1,5,0,0
53659,-100,4,2,1,40,0,0
53815,-100,4,2,1,5,0,0
53972,-100,4,2,1,45,0,0
54284,-100,4,2,1,45,0,0
57722,-100,4,2,1,25,0,0
57956,-100,4,2,1,5,0,0
58034,-100,4,2,1,40,0,0
58268,-100,4,2,1,5,0,0
58347,-100,4,2,1,55,0,0
58581,-100,4,2,1,5,0,0
58659,-100,4,2,1,70,0,0
58893,-100,4,2,1,5,0,0
58972,-100,4,2,1,85,0,0
59284,-100,4,2,1,60,0,0
59597,-100,4,2,1,60,0,0
60143,-100,4,2,1,5,0,0
60222,-100,4,2,1,70,0,1
60456,-100,4,2,1,5,0,1
60534,-100,4,2,1,70,0,1
61081,-100,4,2,1,5,0,1
61159,-100,4,2,1,70,0,1
61393,-100,4,2,1,5,0,1
61472,-100,4,2,1,70,0,1
62018,-100,4,2,1,5,0,1
62097,-100,4,2,1,70,0,1
62643,-100,4,2,1,5,0,1
62722,-100,4,2,1,70,0,1
63268,-100,4,2,1,5,0,1
63347,-100,4,2,1,70,0,1
63581,-100,4,2,1,5,0,1
63659,-100,4,2,1,70,0,1
64440,-100,4,2,1,5,0,1
64518,-100,4,2,1,5,0,1
64597,-100,4,2,1,70,0,1
64753,-100,4,2,1,5,0,1
64831,-100,4,2,1,5,0,1
64909,-100,4,2,1,70,0,1
65065,-100,4,2,1,5,0,1
65222,-100,4,2,1,70,0,1
65456,-100,4,2,1,70,0,1
65534,-100,4,2,1,70,0,1
66081,-100,4,2,1,5,0,1
66159,-100,4,2,1,70,0,1
66393,-100,4,2,1,5,0,1
66472,-100,4,2,1,70,0,1
66940,-100,4,2,1,5,0,1
67018,-100,4,2,1,5,0,1
67097,-100,4,2,1,70,0,1
67253,-100,4,2,1,5,0,1
67331,-100,4,2,1,5,0,1
67409,-100,4,2,1,70,0,1
67643,-100,4,2,1,5,0,1
67722,-100,4,2,1,70,0,1
67878,-100,4,2,1,5,0,1
67956,-100,4,2,1,5,0,1
68034,-100,4,2,1,70,0,1
68190,-100,4,2,1,5,0,1
68268,-100,4,2,1,5,0,1
68347,-100,4,2,1,70,0,1
68581,-100,4,2,1,5,0,1
68659,-100,4,2,1,70,0,1
69440,-100,4,2,1,5,0,1
69518,-100,4,2,1,5,0,1
69597,-100,4,2,1,70,0,1
69753,-100,4,2,1,5,0,1
69831,-100,4,2,1,5,0,1
69909,-100,4,2,1,70,0,1
70456,-100,4,2,1,5,0,1
70534,-100,4,2,1,70,0,1
71081,-100,4,2,1,5,0,1
71159,-100,4,2,1,70,0,1
71393,-100,4,2,1,5,0,1
71472,-100,4,2,1,70,0,1
72018,-100,4,2,1,5,0,1
72097,-100,4,2,1,70,0,1
72643,-100,4,2,1,5,0,1
72722,-100,4,2,1,70,0,1
73268,-100,4,2,1,5,0,1
73347,-100,4,2,1,70,0,1
73893,-100,4,2,1,5,0,1
73972,-100,4,2,1,70,0,1
75143,-100,4,2,1,5,0,1
75222,-100,4,2,1,70,0,1
76393,-100,4,2,1,5,0,1
76472,-100,4,2,1,70,0,1
79284,-100,4,2,1,70,0,0
79440,-100,4,2,1,5,0,0
79597,-100,4,2,1,70,0,0
79753,-100,4,2,1,5,0,0
79909,-100,4,2,1,70,0,0
80065,-100,4,2,1,5,0,0
80222,-100,4,2,1,70,0,1
80456,-100,4,2,1,5,0,1
80534,-100,4,2,1,70,0,1
81081,-100,4,2,1,5,0,1
81159,-100,4,2,1,70,0,1
81393,-100,4,2,1,5,0,1
81472,-100,4,2,1,70,0,1
81940,-100,4,2,1,5,0,1
82018,-100,4,2,1,5,0,1
82097,-100,4,2,1,70,0,1
82253,-100,4,2,1,5,0,1
82331,-100,4,2,1,5,0,1
82409,-100,4,2,1,70,0,1
82878,-100,4,2,1,5,0,1
82956,-100,4,2,1,5,0,1
83034,-100,4,2,1,70,0,1
83190,-100,4,2,1,5,0,1
83268,-100,4,2,1,5,0,1
83347,-100,4,2,1,70,0,1
83581,-100,4,2,1,5,0,1
83659,-100,4,2,1,70,0,1
84206,-100,4,2,1,5,0,1
84284,-100,4,2,1,70,0,1
84753,-100,4,2,1,5,0,1
84831,-100,4,2,1,5,0,1
84909,-100,4,2,1,70,0,1
85065,-100,4,2,1,5,0,1
85143,-100,4,2,1,5,0,1
85222,-100,4,2,1,70,0,1
85456,-100,4,2,1,5,0,1
85534,-100,4,2,1,70,0,1
86081,-100,4,2,1,5,0,1
86159,-100,4,2,1,70,0,1
86237,-100,4,2,1,5,0,1
86315,-100,4,2,1,70,0,1
86393,-100,4,2,1,5,0,1
86472,-100,4,2,1,70,0,1
86628,-100,4,2,1,5,0,1
86706,-100,4,2,1,5,0,1
86784,-100,4,2,1,70,0,1
86940,-100,4,2,1,5,0,1
87018,-100,4,2,1,5,0,1
87097,-100,4,2,1,70,0,1
87253,-100,4,2,1,5,0,1
87331,-100,4,2,1,5,0,1
87409,-100,4,2,1,70,0,1
88503,-100,4,2,1,5,0,1
88659,-100,4,2,1,70,0,1
88815,-100,4,2,1,5,0,1
88972,-100,4,2,1,70,0,1
89831,-100,4,2,1,5,0,1
89909,-100,4,2,1,70,0,1
90456,-100,4,2,1,5,0,1
90534,-100,4,2,1,70,0,1
91081,-100,4,2,1,5,0,1
91159,-100,4,2,1,70,0,1
91393,-100,4,2,1,5,0,1
91472,-100,4,2,1,70,0,1
92018,-100,4,2,1,5,0,1
92097,-100,4,2,1,70,0,1
92956,-100,4,2,1,5,0,1
93034,-100,4,2,1,70,0,1
93581,-100,4,2,1,5,0,1
93659,-100,4,2,1,70,0,1
93893,-100,4,2,1,5,0,1
93972,-100,4,2,1,70,0,1
94518,-100,4,2,1,5,0,1
94597,-100,4,2,1,70,0,1
94831,-100,4,2,1,5,0,1
94909,-100,4,2,1,70,0,1
95456,-100,4,2,1,5,0,1
95534,-100,4,2,1,70,0,1
96081,-100,4,2,1,5,0,1
96159,-100,4,2,1,70,0,1
96472,-100,4,2,1,40,0,1
96628,-100,4,2,1,5,0,1
96706,-100,4,2,1,5,0,1
96784,-100,4,2,1,50,0,1
96940,-100,4,2,1,5,0,1
97018,-100,4,2,1,5,0,1
97097,-100,4,2,1,60,0,1
97253,-100,4,2,1,5,0,1
97331,-100,4,2,1,5,0,1
97409,-100,4,2,1,70,0,1
97565,-100,4,2,1,5,0,1
97643,-100,4,2,1,5,0,1
97722,-100,4,2,1,80,0,0
98034,-100,4,2,1,30,0,0
99597,-100,4,2,1,30,0,0
100222,-200,4,2,1,30,0,0
102097,-100,4,2,1,5,0,0

[Colours]
Combo1 : 183,219,219
Combo2 : 224,193,255
Combo3 : 255,228,202

[HitObjects]
80,94,19909,5,2,0:0:0:0:
80,94,20065,1,2,0:0:0:0:
80,94,20222,2,0,L|195:80,1,95,2|2,3:2|3:0,0:0:0:0:
260,41,20847,2,0,P|214:91|219:173,1,142.5,2|0,0:0|0:0,0:0:0:0:
244,199,21472,2,0,P|265:239|258:295,1,95,2|0,0:3|0:0,0:0:0:0:
313,367,22097,2,0,L|425:355,1,95,2|0,0:0|0:0,0:0:0:0:
485,302,22722,5,2,3:0:0:0:
507,209,23034,1,2,0:3:0:0:
416,178,23347,2,0,P|395:127|399:77,1,95,2|0,0:0|0:0,0:0:0:0:
479,37,23972,2,0,B|439:75|382:59|391:45|336:29|286:72,1,190,2|0,0:0|0:0,0:0:0:0:
227,125,24909,1,2,0:0:0:0:
227,125,25065,1,2,0:0:0:0:
227,125,25222,6,0,P|164:130|117:109,1,95,2|2,3:0|3:0,0:0:0:0:
51,73,25847,2,0,L|68:227,1,142.5,2|0,0:0|0:0,0:0:0:0:
94,253,26472,2,0,L|80:359,1,95,2|0,0:3|0:0,0:0:0:0:
175,364,27097,2,0,L|187:269,1,95,2|0,0:0|0:0,0:0:0:0:
234,187,27722,5,2,3:0:0:0:
310,243,28034,1,2,0:3:0:0:
362,163,28347,2,0,P|418:142|465:148,1,95,2|2,0:2|0:3,0:0:0:0:
510,69,28972,2,0,P|462:168|470:264,1,190,2|0,0:0|0:0,0:0:0:0:
495,349,29909,1,2,0:0:0:0:
495,349,30065,1,0,0:0:0:0:
495,349,30222,6,0,L|393:337,1,95,2|2,3:0|3:0,0:0:0:0:
331,272,30847,2,0,L|229:284,1,95,2|0,0:0|0:0,0:0:0:0:
173,353,31472,2,0,P|144:317|157:225,1,142.5,2|0,0:3|0:0,0:0:0:0:
190,194,32097,2,0,P|211:159|207:97,1,95,2|0,0:0|0:0,0:0:0:0:
142,39,32722,5,2,3:0:0:0:
47,49,33034,1,2,0:3:0:0:
23,141,33347,2,0,L|117:129,1,95,2|0,0:0|0:0,0:0:0:0:
210,106,33972,2,0,B|268:99|268:99|331:128|331:128|408:113,1,190,2|0,0:3|3:0,0:0:0:0:
472,288,35222,6,0,P|489:242|479:185,1,95,2|2,3:0|3:0,0:0:0:0:
391,218,35847,2,0,P|374:264|384:321,1,95,2|0,0:0|0:0,0:0:0:0:
311,376,36472,2,0,L|200:366,1,95,2|0,3:0|0:0,0:0:0:0:
176,281,37097,2,0,L|65:291,1,95,2|0,0:0|0:0,0:0:0:0:
45,201,37722,1,2,3:3:0:0:
94,118,38034,1,2,0:3:0:0:
190,120,38347,2,0,B|293:97|270:180|387:134,1,190,2|2,3:0|3:0,0:0:0:0:
459,307,39597,2,0,L|468:255,1,47.5,2|2,0:0|0:0,0:0:0:0:
425,238,39909,2,0,L|434:186,1,47.5,2|2,0:0|0:0,0:0:0:0:
474,166,40222,6,0,L|499:64,1,95,2|2,3:0|3:0,0:0:0:0:
409,34,40847,2,0,L|386:126,1,95,2|2,3:0|3:0,0:0:0:0:
352,159,41315,1,2,0:0:0:0:
352,159,41472,1,2,3:0:0:0:
265,197,41784,2,0,B|213:188|213:188|180:201|180:201|123:192,1,142.5,2|0,0:0|0:0,0:0:0:0:
88,163,42409,1,2,0:0:0:0:
33,240,42722,6,0,P|22:290|47:346,1,95,2|2,3:0|3:0,0:0:0:0:
119,374,43347,2,0,L|216:361,1,95,2|2,3:0|3:0,0:0:0:0:
289,303,43972,1,2,3:0:0:0:
372,348,44284,2,0,P|413:337|451:239,1,142.5,2|0,0:0|0:0,0:0:0:0:
436,208,44909,1,2,0:0:0:0:
367,142,45222,6,0,L|263:162,1,95,2|2,3:0|3:0,0:0:0:0:
210,230,45847,2,0,L|106:210,1,95,2|2,3:0|3:2,0:0:0:0:
36,160,46472,1,2,0:0:0:0:
57,67,46784,1,2,0:0:0:0:
151,55,47097,2,0,P|215:51|250:22,1,95,2|2,0:0|0:0,0:0:0:0:
319,88,47722,6,0,P|340:73|380:63,2,47.5,2|2|2,3:0|0:0|3:2,0:0:0:0:
381,162,48347,2,0,L|364:260,1,95,2|2,3:0|3:0,0:0:0:0:
405,341,48972,1,2,3:0:0:0:
319,382,49284,1,2,0:3:0:0:
261,305,49597,2,0,P|223:299|205:302,1,47.5,2|2,0:0|0:0,0:0:0:0:
182,335,49909,2,0,P|144:341|126:338,1,47.5,2|2,0:0|3:2,0:0:0:0:
107,302,50222,6,0,L|93:202,1,95,2|2,3:0|3:0,0:0:0:0:
31,136,50847,2,0,P|70:115|131:118,1,95,2|2,3:0|3:0,0:0:0:0:
160,139,51315,1,2,0:0:0:0:
160,139,51472,1,2,3:0:0:0:
225,70,51784,2,0,L|208:232,1,142.5,2|0,0:0|0:0,0:0:0:0:
206,259,52409,1,2,0:0:0:0:
269,330,52722,6,0,P|322:331|364:312,1,95,2|0,3:0|3:0,0:0:0:0:
449,347,53347,1,2,3:2:0:0:
494,263,53659,2,0,L|492:157,1,95,2|2,3:2|3:0,0:0:0:0:
401,138,54284,2,0,L|402:232,1,95,2|0,0:0|0:0,0:0:0:0:
361,319,54909,1,2,3:2:0:0:
279,270,55222,6,0,B|233:257|180:282|205:294|147:321|94:297,2,190,2|2|2,3:0|0:3|0:0,0:0:0:0:
138,217,56940,1,2,0:0:0:0:
138,217,57097,2,0,L|123:119,1,95,0|2,0:0|0:0,0:0:0:0:
108,29,57722,5,2,3:0:0:0:
200,6,58034,1,2,3:0:0:0:
255,83,58347,1,2,3:0:0:0:
345,54,58659,1,2,3:0:0:0:
406,126,58972,1,2,3:0:0:0:
495,95,59284,2,0,P|508:53|498:2,2,95,2|2|2,0:0|0:0|0:0,0:0:0:0:
426,161,60222,6,0,P|413:203|423:254,1,95,6|0,3:2|3:0,0:0:0:0:
509,292,60847,1,10,3:2:0:0:
466,377,61159,2,0,L|371:379,1,95,2|0,3:2|3:0,0:0:0:0:
291,330,61784,2,0,L|196:332,1,95,2|8,3:2|3:2,0:0:0:0:
115,383,62409,2,0,P|100:337|114:283,1,95,2|0,3:2|3:0,0:0:0:0:
186,237,63034,1,2,3:2:0:0:
267,187,63347,2,0,B|318:177|318:177|392:205|392:205|455:190,1,190,10|0,3:2|3:0,0:0:0:0:
499,110,64284,1,2,3:2:0:0:
437,37,64597,2,0,P|397:38|349:71,1,95,10|2,3:2|3:2,0:0:0:0:
262,100,65222,6,0,L|163:86,1,95,2|0,3:2|3:0,0:0:0:0:
93,27,65847,1,10,3:2:0:0:
33,101,66159,2,0,P|21:154|34:205,1,95,2|0,3:2|3:0,0:0:0:0:
116,229,66784,2,0,L|224:219,2,95,2|10|2,3:2|3:2|3:2,0:0:0:0:
81,317,67722,1,2,3:2:0:0:
157,372,68034,1,2,3:2:0:0:
234,317,68347,2,0,B|288:296|334:320|319:330|370:358|435:324,1,190,10|0,3:2|3:0,0:0:0:0:
475,257,69284,1,2,3:2:0:0:
383,231,69597,2,0,L|375:123,1,95,10|2,3:2|3:2,0:0:0:0:
443,69,70222,6,0,P|402:46|356:45,1,95,2|0,3:2|3:0,0:0:0:0:
288,112,70847,1,10,3:2:0:0:
226,184,71159,2,0,L|115:194,1,95,2|0,3:2|3:0,0:0:0:0:
102,102,71784,2,0,L|196:93,1,95,2|8,3:2|3:2,0:0:0:0:
288,112,72409,2,0,P|316:152|310:218,1,95,2|0,3:2|3:0,0:0:0:0:
268,278,73034,2,0,P|270:324|297:362,1,95,2|8,3:2|3:2,0:0:0:0:
364,294,73659,2,0,L|468:307,1,95,2|0,3:2|3:0,0:0:0:0:
497,219,74284,2,0,L|402:207,1,95,2|8,3:2|3:2,0:0:0:0:
340,135,74909,1,2,3:2:0:0:
264,192,75222,6,0,B|205:208|150:163|150:163|124:196|84:206,1,190,2|8,3:2|3:2,0:0:0:0:
67,111,76159,1,2,3:2:0:0:
15,190,76472,2,0,P|56:223|82:354,1,190,2|8,3:2|3:2,0:0:0:0:
173,380,77409,1,0,3:0:0:0:
250,324,77722,2,0,B|301:316|301:316|371:345|371:345|445:331,2,190,2|10|2,3:0|3:2|3:0,0:0:0:0:
168,275,79284,1,2,3:2:0:0:
247,222,79597,2,0,P|262:183|254:117,1,95,10|2,3:2|3:2,0:0:0:0:
329,66,80222,6,0,L|434:52,1,95,6|0,3:2|3:0,0:0:0:0:
498,111,80847,1,10,3:2:0:0:
413,153,81159,2,0,P|401:214|415:261,1,95,2|0,3:2|3:0,0:0:0:0:
492,288,81784,2,0,P|498:334|486:380,2,95,2|10|2,3:2|3:2|3:2,0:0:0:0:
407,245,82722,1,2,3:2:0:0:
344,316,83034,1,2,3:2:0:0:
275,249,83347,2,0,B|227:235|179:257|199:269|148:295|83:263,1,190,10|0,3:2|3:0,0:0:0:0:
51,182,84284,1,0,3:0:0:0:
145,171,84597,2,0,L|165:58,1,95,10|2,3:2|3:2,0:0:0:0:
241,27,85222,6,0,P|292:51|332:47,1,95,2|0,3:2|3:0,0:0:0:0:
419,18,85847,2,0,L|402:111,1,95,10|0,3:2|3:0,0:0:0:0:
373,149,86315,1,2,3:2:0:0:
373,149,86472,1,2,3:2:0:0:
389,242,86784,1,2,3:2:0:0:
367,335,87097,2,0,P|432:330|464:302,1,95,10|2,3:2|3:2,0:0:0:0:
389,242,87722,6,0,B|340:228|297:262|297:262|245:270|211:220,1,190,2|10,3:0|3:2,0:0:0:0:
131,185,88659,1,2,3:0:0:0:
59,247,88972,2,0,P|50:304|64:343,1,95,2|0,3:0|3:0,0:0:0:0:
150,372,89597,2,0,P|159:315|145:276,1,95,10|0,3:2|3:0,0:0:0:0:
59,247,90222,6,0,B|39:194|39:194|35:146|77:109,1,142.5,2|0,3:2|0:0,0:0:0:0:
109,90,90847,1,10,3:2:0:0:
178,24,91159,2,0,L|290:41,1,95,2|0,3:2|3:0,0:0:0:0:
337,107,91784,2,0,L|430:92,1,95,2|8,3:2|3:2,0:0:0:0:
492,165,92409,1,2,3:2:0:0:
433,240,92722,2,0,L|339:225,1,95,2|0,3:2|3:0,0:0:0:0:
260,172,93347,1,10,3:2:0:0:
179,222,93659,2,0,P|157:274|167:323,1,95,2|0,3:2|3:0,0:0:0:0:
242,361,94284,1,2,3:2:0:0:
327,319,94597,2,0,L|420:333,1,95,10|2,3:2|3:2,0:0:0:0:
488,265,95222,6,0,B|499:198|499:198|482:150|482:150|499:71,2,190,2|10|2,3:0|3:2|3:0,0:0:0:0:
420,333,96784,1,2,3:0:0:0:
383,244,97097,2,0,P|339:227|281:239,1,95,10|2,3:2|3:0,0:0:0:0:
235,309,97722,1,2,3:0:0:0:
144,281,98034,6,0,L|132:184,1,95,2|2,0:0|0:0,0:0:0:0:
165,97,98659,1,2,0:0:0:0:
250,139,98972,2,0,P|304:143|347:120,1,95,2|2,0:0|0:0,0:0:0:0:
410,62,99597,1,2,0:0:0:0:
478,128,99909,1,2,0:0:0:0:
256,192,100222,12,0,102097,0:0:0:0:
