osu file format v14

[General]
AudioFilename: audio.mp3
AudioLeadIn: 0
PreviewTime: 59206
Countdown: 0
SampleSet: Soft
StackLeniency: 0.6
Mode: 0
LetterboxInBreaks: 0
WidescreenStoryboard: 1

[Editor]
Bookmarks: 214,20214,40214,60214,79276,80214,97714,100214
DistanceSpacing: 1
BeatDivisor: 8
GridSize: 32
TimelineZoom: 1.6

[Metadata]
Title:marie (Cut Ver.)
TitleUnicode:marie (Cut Ver.)
Artist:Aimer
ArtistUnicode:Aimer
Creator:SeaRasp
Version:Hard
Source:
Tags:エメ Marie Antoinette 春はゆく Haru wa Yuku spring song album Sony Music Entertainment japanese j-pop short version Habsburg Exhibition image song aimerrythm Female Vocal edit SME Jpop Pop
BeatmapID:2722818
BeatmapSetID:1313084

[Difficulty]
HPDrainRate:5
CircleSize:3.8
OverallDifficulty:6
ApproachRate:7.5
SliderMultiplier:2.7
SliderTickRate:1

[Events]
//Background and Video events
0,0,"BG.jpg",0,0
//Break Periods
//Storyboard Layer 0 (Background)
//Storyboard Layer 1 (Fail)
//Storyboard Layer 2 (Pass)
//Storyboard Layer 3 (Foreground)
//Storyboard Layer 4 (Overlay)
//Storyboard Sound Samples

[TimingPoints]
222,625,4,2,1,40,1,0
20222,-133.333333333333,4,2,1,40,0,0
21315,-133.333333333333,4,2,1,5,0,0
21472,-166.666666666667,4,2,1,30,0,0
21940,-133.333333333333,4,2,1,5,0,0
22095,-250,4,2,1,20,0,0
22565,-250,4,2,1,5,0,0
22643,-250,4,2,1,40,0,0
22722,-133.333333333333,4,2,1,40,0,0
22878,-133.333333333333,4,2,1,5,0,0
23034,-133.333333333333,4,2,1,40,0,0
23190,-133.333333333333,4,2,1,5,0,0
23347,-133.333333333333,4,2,1,40,0,0
23815,-133.333333333333,4,2,1,5,0,0
23972,-166.666666666667,4,2,1,30,0,0
24597,-166.666666666667,4,2,1,5,0,0
24909,-166.666666666667,4,2,1,40,0,0
25222,-133.333333333333,4,2,1,40,0,0
25378,-133.333333333333,4,2,1,5,0,0
25534,-133.333333333333,4,2,1,40,0,0
25690,-133.333333333333,4,2,1,5,0,0
25847,-133.333333333333,4,2,1,40,0,0
26315,-133.333333333333,4,2,1,5,0,0
26472,-133.333333333333,4,2,1,30,0,0
26940,-133.333333333333,4,2,1,5,0,0
27097,-250,4,2,1,20,0,0
27565,-250,4,2,1,5,0,0
27643,-250,4,2,1,40,0,0
27722,-133.333333333333,4,2,1,40,0,0
27878,-133.333333333333,4,2,1,5,0,0
28034,-133.333333333333,4,2,1,40,0,0
28190,-133.333333333333,4,2,1,5,0,0
28347,-133.333333333333,4,2,1,40,0,0
28972,-166.666666666667,4,2,1,30,0,0
29597,-166.666666666667,4,2,1,5,0,0
29909,-166.666666666667,4,2,1,40,0,0
30222,-133.333333333333,4,2,1,40,0,0
30378,-133.333333333333,4,2,1,5,0,0
30534,-133.333333333333,4,2,1,40,0,0
30690,-133.333333333333,4,2,1,5,0,0
30847,-133.333333333333,4,2,1,40,0,0
31315,-133.333333333333,4,2,1,5,0,0
31393,-133.333333333333,4,2,1,40,0,0
31472,-166.666666666667,4,2,1,30,0,0
31940,-166.666666666667,4,2,1,5,0,0
32097,-250,4,2,1,20,0,0
32565,-250,4,2,1,20,0,0
32643,-250,4,2,1,40,0,0
32722,-133.333333333333,4,2,1,40,0,0
32878,-133.333333333333,4,2,1,5,0,0
33034,-133.333333333333,4,2,1,40,0,0
33190,-133.333333333333,4,2,1,5,0,0
33347,-133.333333333333,4,2,1,40,0,0
33815,-133.333333333333,4,2,1,5,0,0
33972,-166.666666666667,4,2,1,30,0,0
34597,-166.666666666667,4,2,1,20,0,0
35222,-133.333333333333,4,2,1,40,0,0
35378,-133.333333333333,4,2,1,5,0,0
35534,-133.333333333333,4,2,1,40,0,0
35690,-133.333333333333,4,2,1,5,0,0
35847,-133.333333333333,4,2,1,40,0,0
36315,-133.333333333333,4,2,1,5,0,0
36472,-166.666666666667,4,2,1,30,0,0
36940,-166.666666666667,4,2,1,5,0,0
37097,-250,4,2,1,20,0,0
37565,-250,4,2,1,20,0,0
37643,-250,4,2,1,40,0,0
37722,-133.333333333333,4,2,1,25,0,0
37878,-133.333333333333,4,2,1,5,0,0
38034,-133.333333333333,4,2,1,30,0,0
38190,-133.333333333333,4,2,1,5,0,0
38347,-133.333333333333,4,2,1,35,0,0
38503,-133.333333333333,4,2,1,5,0,0
38659,-133.333333333333,4,2,1,40,0,0
38815,-133.333333333333,4,2,1,5,0,0
38972,-166.666666666667,4,2,1,45,0,0
39440,-166.666666666667,4,2,1,5,0,0
39597,-166.666666666667,4,2,1,40,0,0
40222,-111.111111111111,4,2,1,25,0,0
40378,-111.111111111111,4,2,1,5,0,0
40534,-111.111111111111,4,2,1,30,0,0
40690,-111.111111111111,4,2,1,5,0,0
40847,-111.111111111111,4,2,1,35,0,0
41003,-111.111111111111,4,2,1,5,0,0
41159,-111.111111111111,4,2,1,40,0,0
41472,-111.111111111111,4,2,1,45,0,0
41784,-133.333333333333,4,2,1,45,0,0
42253,-133.333333333333,4,2,1,5,0,0
42409,-133.333333333333,4,2,1,45,0,0
42565,-111.111111111111,4,2,1,5,0,0
42722,-111.111111111111,4,2,1,25,0,0
42878,-111.111111111111,4,2,1,5,0,0
43034,-111.111111111111,4,2,1,30,0,0
43190,-111.111111111111,4,2,1,5,0,0
43347,-111.111111111111,4,2,1,35,0,0
43503,-111.111111111111,4,2,1,5,0,0
43659,-111.111111111111,4,2,1,40,0,0
43815,-111.111111111111,4,2,1,5,0,0
43972,-111.111111111111,4,2,1,45,0,0
44284,-166.666666666667,4,2,1,45,0,0
44753,-166.666666666667,4,2,1,5,0,0
44909,-166.666666666667,4,2,1,45,0,0
45065,-166.666666666667,4,2,1,5,0,0
45222,-111.111111111111,4,2,1,25,0,0
45378,-111.111111111111,4,2,1,5,0,0
45534,-111.111111111111,4,2,1,30,0,0
45690,-111.111111111111,4,2,1,5,0,0
45847,-111.111111111111,4,2,1,35,0,0
46003,-111.111111111111,4,2,1,5,0,0
46159,-111.111111111111,4,2,1,40,0,0
46315,-111.111111111111,4,2,1,5,0,0
46472,-166.666666666667,4,2,1,45,0,0
47722,-111.111111111111,4,2,1,25,0,0
48034,-111.111111111111,4,2,1,30,0,0
48190,-111.111111111111,4,2,1,5,0,0
48347,-111.111111111111,4,2,1,35,0,0
48503,-111.111111111111,4,2,1,5,0,0
48659,-111.111111111111,4,2,1,40,0,0
48815,-111.111111111111,4,2,1,5,0,0
48972,-111.111111111111,4,2,1,45,0,0
49284,-166.666666666667,4,2,1,45,0,0
50222,-111.111111111111,4,2,1,25,0,0
50378,-111.111111111111,4,2,1,5,0,0
50534,-111.111111111111,4,2,1,30,0,0
50690,-111.111111111111,4,2,1,5,0,0
50847,-111.111111111111,4,2,1,35,0,0
51003,-111.111111111111,4,2,1,5,0,0
51159,-111.111111111111,4,2,1,40,0,0
51472,-111.111111111111,4,2,1,45,0,0
51784,-166.666666666667,4,2,1,45,0,0
52253,-166.666666666667,4,2,1,5,0,0
52409,-166.666666666667,4,2,1,45,0,0
52565,-166.666666666667,4,2,1,5,0,0
52643,-166.666666666667,4,2,1,45,0,0
52722,-111.111111111111,4,2,1,25,0,0
52878,-111.111111111111,4,2,1,5,0,0
53034,-111.111111111111,4,2,1,30,0,0
53190,-111.111111111111,4,2,1,5,0,0
53347,-111.111111111111,4,2,1,35,0,0
53503,-111.111111111111,4,2,1,5,0,0
53659,-111.111111111111,4,2,1,40,0,0
53815,-111.111111111111,4,2,1,5,0,0
53972,-111.111111111111,4,2,1,45,0,0
54284,-166.666666666667,4,2,1,45,0,0
55222,-111.111111111111,4,2,1,25,0,0
55378,-111.111111111111,4,2,1,5,0,0
55534,-111.111111111111,4,2,1,30,0,0
55690,-111.111111111111,4,2,1,5,0,0
55847,-111.111111111111,4,2,1,35,0,0
56003,-111.111111111111,4,2,1,5,0,0
56159,-111.111111111111,4,2,1,40,0,0
56315,-111.111111111111,4,2,1,5,0,0
56472,-166.666666666667,4,2,1,45,0,0
57722,-125,4,2,1,25,0,0
57878,-125,4,2,1,5,0,0
58034,-100,4,2,1,40,0,0
58190,-100,4,2,1,5,0,0
58347,-86.9565217391304,4,2,1,55,0,0
58503,-86.9565217391304,4,2,1,5,0,0
58659,-76.9230769230769,4,2,1,70,0,0
58815,-76.9230769230769,4,2,1,5,0,0
58972,-76.9230769230769,4,2,1,85,0,0
59284,-166.666666666667,4,2,1,60,0,0
59597,-166.666666666667,4,2,1,60,0,0
60143,-166.666666666667,4,2,1,5,0,0
60222,-100,4,2,1,70,0,1
60456,-100,4,2,1,5,0,1
60534,-100,4,2,1,70,0,1
61003,-100,4,2,1,5,0,1
61159,-100,4,2,1,70,0,1
61315,-100,4,2,1,5,0,1
61472,-100,4,2,1,70,0,1
62018,-100,4,2,1,5,0,1
62097,-100,4,2,1,70,0,1
62643,-100,4,2,1,5,0,1
62722,-100,4,2,1,70,0,1
63268,-100,4,2,1,5,0,1
63347,-100,4,2,1,70,0,1
63581,-100,4,2,1,5,0,1
63659,-100,4,2,1,70,0,1
64440,-100,4,2,1,5,0,1
64597,-100,4,2,1,70,0,1
64753,-100,4,2,1,5,0,1
64909,-100,4,2,1,70,0,1
65065,-100,4,2,1,5,0,1
65222,-100,4,2,1,70,0,1
65534,-100,4,2,1,70,0,1
66081,-100,4,2,1,5,0,1
66159,-100,4,2,1,70,0,1
66393,-100,4,2,1,5,0,1
66472,-100,4,2,1,70,0,1
66940,-100,4,2,1,5,0,1
67097,-100,4,2,1,70,0,1
67253,-100,4,2,1,5,0,1
67409,-100,4,2,1,70,0,1
67643,-100,4,2,1,5,0,1
67722,-100,4,2,1,70,0,1
67878,-100,4,2,1,5,0,1
68034,-100,4,2,1,70,0,1
68190,-100,4,2,1,5,0,1
68347,-100,4,2,1,70,0,1
68581,-100,4,2,1,5,0,1
68659,-100,4,2,1,70,0,1
69440,-100,4,2,1,5,0,1
69597,-100,4,2,1,70,0,1
69753,-100,4,2,1,5,0,1
69909,-100,4,2,1,70,0,1
70456,-100,4,2,1,5,0,1
70534,-100,4,2,1,70,0,1
71003,-100,4,2,1,5,0,1
71159,-100,4,2,1,70,0,1
71315,-100,4,2,1,5,0,1
71472,-100,4,2,1,70,0,1
72018,-100,4,2,1,5,0,1
72097,-100,4,2,1,70,0,1
72643,-100,4,2,1,5,0,1
72722,-100,4,2,1,70,0,1
73268,-100,4,2,1,5,0,1
73347,-100,4,2,1,70,0,1
73893,-100,4,2,1,5,0,1
73972,-100,4,2,1,70,0,1
75143,-100,4,2,1,5,0,1
75222,-100,4,2,1,70,0,1
76393,-100,4,2,1,5,0,1
76472,-100,4,2,1,70,0,1
79284,-100,4,2,1,70,0,0
79440,-100,4,2,1,5,0,0
79597,-100,4,2,1,70,0,0
79753,-100,4,2,1,5,0,0
79909,-100,4,2,1,70,0,0
80065,-100,4,2,1,5,0,0
80222,-100,4,2,1,70,0,1
80456,-100,4,2,1,5,0,1
80534,-100,4,2,1,70,0,1
81081,-100,4,2,1,5,0,1
81159,-100,4,2,1,70,0,1
81393,-100,4,2,1,5,0,1
81472,-100,4,2,1,70,0,1
81940,-100,4,2,1,5,0,1
82097,-100,4,2,1,70,0,1
82253,-100,4,2,1,5,0,1
82409,-100,4,2,1,70,0,1
82878,-100,4,2,1,5,0,1
83034,-100,4,2,1,70,0,1
83190,-100,4,2,1,5,0,1
83347,-100,4,2,1,70,0,1
83581,-100,4,2,1,5,0,1
83659,-100,4,2,1,70,0,1
84206,-100,4,2,1,5,0,1
84284,-100,4,2,1,70,0,1
84753,-100,4,2,1,5,0,1
84909,-100,4,2,1,70,0,1
85065,-100,4,2,1,5,0,1
85222,-100,4,2,1,70,0,1
85456,-100,4,2,1,5,0,1
85534,-100,4,2,1,70,0,1
86081,-100,4,2,1,5,0,1
86159,-100,4,2,1,70,0,1
86237,-100,4,2,1,5,0,1
86315,-100,4,2,1,70,0,1
86393,-100,4,2,1,5,0,1
86472,-100,4,2,1,70,0,1
86628,-100,4,2,1,5,0,1
86784,-100,4,2,1,70,0,1
86940,-100,4,2,1,5,0,1
87097,-100,4,2,1,70,0,1
87253,-100,4,2,1,5,0,1
87409,-100,4,2,1,70,0,1
88503,-100,4,2,1,5,0,1
88659,-100,4,2,1,70,0,1
88815,-100,4,2,1,5,0,1
88972,-100,4,2,1,70,0,1
89831,-100,4,2,1,5,0,1
89909,-100,4,2,1,70,0,1
90456,-100,4,2,1,5,0,1
90534,-100,4,2,1,70,0,1
91003,-100,4,2,1,5,0,1
91159,-100,4,2,1,70,0,1
91315,-100,4,2,1,5,0,1
91472,-100,4,2,1,70,0,1
92018,-100,4,2,1,5,0,1
92097,-100,4,2,1,70,0,1
92956,-100,4,2,1,5,0,1
93034,-100,4,2,1,70,0,1
93503,-100,4,2,1,5,0,1
93659,-100,4,2,1,70,0,1
93815,-100,4,2,1,5,0,1
93972,-100,4,2,1,70,0,1
94440,-100,4,2,1,5,0,1
94597,-100,4,2,1,70,0,1
94753,-100,4,2,1,5,0,1
94909,-100,4,2,1,70,0,1
95456,-100,4,2,1,5,0,1
95534,-100,4,2,1,70,0,1
96081,-100,4,2,1,5,0,1
96159,-100,4,2,1,70,0,1
96472,-100,4,2,1,40,0,1
96628,-100,4,2,1,5,0,1
96784,-100,4,2,1,50,0,1
96940,-100,4,2,1,5,0,1
97097,-100,4,2,1,60,0,1
97253,-100,4,2,1,5,0,1
97409,-100,4,2,1,70,0,1
97565,-100,4,2,1,5,0,1
97722,-200,4,2,1,80,0,0
98034,-200,4,2,1,30,0,0
99597,-333.333333333333,4,2,1,30,0,0
102097,-100,4,2,1,5,0,0

[Colours]
Combo1 : 183,219,219
Combo2 : 224,193,255
Combo3 : 255,228,202

[HitObjects]
101,336,19909,5,2,0:0:0:0:
166,279,20065,1,2,0:0:0:0:
85,250,20222,6,0,L|76:141,1,101.250003862381,2|2,3:2|3:0,0:0:0:0:
148,69,20690,1,2,0:0:0:0:
148,69,20847,2,0,B|188:50|227:74|218:78|252:104|307:73,1,151.875005793572,2|0,0:0|0:0,0:0:0:0:
348,26,21472,2,0,L|327:151,1,121.499996292114,2|0,0:3|0:0,0:0:0:0:
438,76,22097,2,0,L|425:156,1,81,2|0,0:0|0:0,0:0:0:0:
420,190,22643,1,2,0:3:0:0:
420,190,22722,6,0,L|407:262,1,50.6250019311906,2|0,3:0|0:0,0:0:0:0:
320,289,23034,2,0,L|311:239,1,50.6250019311906,2|0,3:0|0:0,0:0:0:0:
236,170,23347,2,0,P|184:165|115:240,1,151.875005793572,2|0,0:0|0:0,0:0:0:0:
0,315,23972,2,0,B|36:293|80:311|69:322|116:338|157:316,1,161.999995056153,2|0,0:0|0:0,0:0:0:0:
155,316,24909,5,2,0:0:0:0:
211,254,25065,1,2,0:0:0:0:
115,220,25222,6,0,L|105:154,1,50.6250019311906,2|0,3:0|0:0,0:0:0:0:
184,103,25534,2,0,L|194:169,1,50.6250019311906,2|0,3:0|0:0,0:0:0:0:
286,192,25847,2,0,P|345:206|420:151,1,151.875005793572,2|0,0:0|0:0,0:0:0:0:
462,95,26472,2,0,L|436:261,1,151.875005793572,2|0,0:3|0:0,0:0:0:0:
360,376,27097,2,0,L|345:286,1,81,2|0,0:0|0:0,0:0:0:0:
335,266,27643,1,0,0:0:0:0:
335,266,27722,6,0,P|291:264|267:270,1,50.6250019311906,2|0,3:0|0:0,0:0:0:0:
223,344,28034,2,0,P|179:346|155:340,1,50.6250019311906,2|0,3:0|0:0,0:0:0:0:
103,258,28347,2,0,L|111:204,2,50.6250019311906,2|0|2,0:2|0:0|3:0,0:0:0:0:
212,82,28972,2,0,L|189:242,1,161.999995056153,2|0,0:0|0:0,0:0:0:0:
188,242,29909,5,2,0:0:0:0:
111,208,30065,1,0,0:0:0:0:
34,174,30222,6,0,L|22:108,1,50.6250019311906,2|0,3:0|0:0,0:0:0:0:
101,64,30534,2,0,L|110:113,1,50.6250019311906,2|0,3:0|0:0,0:0:0:0:
199,160,30847,2,0,B|240:140|278:158|267:167|309:186|364:158,1,151.875005793572,2|0,0:0|0:0,0:0:0:0:
393,232,31472,2,0,P|383:167|428:127,1,121.499996292114,2|0,0:3|0:0,0:0:0:0:
504,24,32097,2,0,P|474:48|432:53,1,81,2|0,0:0|0:0,0:0:0:0:
399,50,32643,1,2,0:3:0:0:
399,50,32722,6,0,L|342:44,1,50.6250019311906,2|0,3:0|0:0,0:0:0:0:
283,111,33034,2,0,L|232:105,1,50.6250019311906,2|0,3:0|0:0,0:0:0:0:
154,37,33347,2,0,P|114:39|54:126,1,151.875005793572,2|0,0:0|0:0,0:0:0:0:
105,210,33972,2,0,B|167:204|167:204|200:223|200:223|273:217,1,161.999995056153,2|0,0:3|3:0,0:0:0:0:
261,217,35222,6,0,P|271:255|269:279,1,50.6250019311906,2|0,3:0|0:0,0:0:0:0:
141,299,35534,2,0,P|168:271|190:261,1,50.6250019311906,2|0,3:0|0:0,0:0:0:0:
264,363,35847,2,0,B|307:363|338:337|338:337|368:365|424:364,1,151.875005793572,2|0,0:0|0:0,0:0:0:0:
407,276,36472,2,0,L|427:143,1,121.499996292114,2|0,3:0|0:0,0:0:0:0:
369,9,37097,2,0,L|355:100,1,81,2|0,0:0|0:0,0:0:0:0:
335,115,37643,1,2,0:3:0:0:
335,115,37722,6,0,P|299:113|266:102,1,50.6250019311906,2|0,3:0|0:0,0:0:0:0:
217,53,38034,2,0,P|181:55|148:66,1,50.6250019311906,2|0,3:0|0:0,0:0:0:0:
101,141,38347,2,0,L|107:202,1,50.6250019311906,2|0,3:0|0:0,0:0:0:0:
209,204,38659,2,0,L|204:153,1,50.6250019311906,2|0,3:0|0:0,0:0:0:0:
88,128,38972,2,0,L|101:265,1,121.499996292114,2|0,3:0|0:0,0:0:0:0:
118,373,39597,5,2,0:0:0:0:
118,373,39753,1,2,0:0:0:0:
178,306,39909,1,2,0:0:0:0:
178,306,40065,1,2,0:0:0:0:
258,363,40222,6,0,L|342:349,1,60.7499981460572,2|0,3:0|0:0,0:0:0:0:
462,318,40534,2,0,L|402:308,1,60.7499981460572,2|0,3:0|0:0,0:0:0:0:
298,268,40847,2,0,P|284:237|287:195,1,60.7499981460572,2|0,3:0|0:0,0:0:0:0:
367,162,41159,2,0,P|381:193|378:235,1,60.7499981460572,2|2,3:0|0:0,0:0:0:0:
285,114,41472,5,2,3:0:0:0:
285,114,41784,2,0,L|126:94,1,151.875005793572,2|0,0:0|0:0,0:0:0:0:
56,37,42409,1,2,0:0:0:0:
56,37,42722,6,0,P|37:72|35:111,1,60.7499981460572,2|0,3:0|0:0,0:0:0:0:
112,150,43034,2,0,P|131:115|133:76,1,60.7499981460572,2|0,3:0|0:0,0:0:0:0:
0,197,43347,2,0,L|11:273,1,60.7499981460572,2|0,3:0|0:0,0:0:0:0:
106,298,43659,2,0,L|98:238,1,60.7499981460572,2|0,3:0|0:0,0:0:0:0:
69,378,43972,5,2,3:0:0:0:
69,378,44284,2,0,P|110:344|189:346,1,121.499996292114,2|0,0:0|0:0,0:0:0:0:
258,384,44909,1,2,0:0:0:0:
258,384,45222,6,0,L|326:371,1,60.7499981460572,2|0,3:0|0:0,0:0:0:0:
465,337,45534,2,0,L|397:324,1,60.7499981460572,2|0,3:0|0:0,0:0:0:0:
266,295,45847,2,0,L|334:282,1,60.7499981460572,2|0,3:0|0:0,0:0:0:0:
457,248,46159,2,0,L|389:235,1,60.7499981460572,2|0,3:2|0:0,0:0:0:0:
287,186,46472,6,0,P|279:144|292:95,1,80.9999975280763,2|2,0:0|0:0,0:0:0:0:
451,20,47097,2,0,P|459:62|446:111,1,80.9999975280763,2|2,0:0|0:0,0:0:0:0:
375,146,47565,1,0,3:0:0:0:
294,93,47722,6,0,P|248:84|210:89,1,60.7499981460572,2|2,3:0|0:0,0:0:0:0:
166,168,48034,2,0,P|120:177|82:172,1,60.7499981460572,2|0,3:2|0:0,0:0:0:0:
22,117,48347,2,0,L|16:56,1,60.7499981460572,2|0,3:0|0:0,0:0:0:0:
110,22,48659,2,0,L|115:82,1,60.7499981460572,2|0,3:0|0:0,0:0:0:0:
19,217,48972,5,2,3:0:0:0:
19,217,49284,2,0,L|29:309,1,80.9999975280763,2|2,0:3|0:0,0:0:0:0:
98,351,49753,1,2,0:0:0:0:
158,287,49909,1,2,0:0:0:0:
227,340,50065,1,2,3:2:0:0:
275,259,50222,6,0,P|292:234|315:215,1,60.7499981460572,2|0,3:0|0:0,0:0:0:0:
285,352,50534,2,0,P|255:350|226:339,1,60.7499981460572,2|0,3:0|0:0,0:0:0:0:
369,295,50847,2,0,L|380:361,1,60.7499981460572,2|0,3:0|0:0,0:0:0:0:
455,235,51159,2,0,L|466:301,1,60.7499981460572,2|2,3:0|0:0,0:0:0:0:
512,134,51472,5,2,3:0:0:0:
512,134,51784,2,0,L|391:140,1,121.499996292114,2|0,0:0|0:0,0:0:0:0:
317,78,52409,1,2,0:0:0:0:
317,78,52722,6,0,P|348:53|382:44,1,60.7499981460572,2|0,3:0|0:0,0:0:0:0:
390,140,53034,2,0,P|359:165|325:174,1,60.7499981460572,0|0,3:0|0:0,0:0:0:0:
229,107,53347,2,0,P|222:67|232:33,1,60.7499981460572,2|0,3:2|0:0,0:0:0:0:
312,177,53659,2,0,P|318:216|308:250,1,60.7499981460572,2|0,3:2|0:0,0:0:0:0:
229,296,53972,5,2,3:0:0:0:
229,296,54284,2,0,L|103:282,1,121.499996292114,2|0,0:0|0:0,0:0:0:0:
21,328,54909,2,0,L|27:356,2,20.2499993820191,2|0|0,3:2|3:0|3:0,0:0:0:0:
108,282,55222,6,0,L|118:212,1,60.7499981460572,2|0,3:0|0:0,0:0:0:0:
24,179,55534,2,0,L|15:239,1,60.7499981460572,2|0,3:0|0:0,0:0:0:0:
136,137,55847,2,0,L|146:67,1,60.7499981460572,2|0,3:0|0:0,0:0:0:0:
52,34,56159,2,0,L|43:94,1,60.7499981460572,2|0,3:0|0:0,0:0:0:0:
245,111,56472,6,0,L|336:95,1,80.9999975280763,2|0,3:2|0:0,0:0:0:0:
388,28,56940,1,2,0:0:0:0:
477,55,57097,2,0,P|494:87|489:141,1,80.9999975280763,0|2,0:0|0:0,0:0:0:0:
384,348,57722,6,0,L|368:286,1,54,2|0,3:0|0:0,0:0:0:0:
476,244,58034,2,0,L|494:314,1,67.5,2|0,3:0|0:0,0:0:0:0:
304,216,58347,6,0,P|356:192|396:196,1,77.6250014805794,2|0,3:0|0:0,0:0:0:0:
204,336,58659,2,0,P|160:330|123:307,1,87.749995983124,2|0,3:0|0:0,0:0:0:0:
48,128,58972,5,2,3:0:0:0:
48,128,59284,2,0,B|39:85|39:85|51:45,2,80.9999975280763,2|2|2,0:0|0:0|0:0,0:0:0:0:
199,219,60222,6,0,L|355:197,1,135,6|0,3:2|3:0,0:0:0:0:
495,144,60847,2,0,P|509:113|510:80,1,67.5,10|0,3:2|0:0,0:0:0:0:
398,56,61159,2,0,P|383:86|382:119,1,67.5,2|0,3:2|0:0,0:0:0:0:
425,225,61472,1,0,3:0:0:0:
496,325,61784,2,0,P|485:269|413:223,1,135,2|8,3:2|3:2,0:0:0:0:
170,228,62409,2,0,P|223:246|299:207,1,135,2|0,3:2|3:0,0:0:0:0:
102,112,63034,1,2,3:2:0:0:
47,239,63347,2,0,P|105:209|169:227,1,135,10|0,3:2|3:0,0:0:0:0:
384,320,63972,1,0,3:0:0:0:
384,320,64284,6,0,L|362:394,1,67.5,2|0,3:2|0:0,0:0:0:0:
272,228,64597,2,0,L|294:302,1,67.5,10|0,3:2|0:0,0:0:0:0:
398,160,64909,2,0,L|376:234,1,67.5,2|0,3:2|3:0,0:0:0:0:
325,56,65222,6,0,L|365:193,1,135,2|0,3:2|3:0,0:0:0:0:
412,0,65847,1,10,3:2:0:0:
238,122,66159,2,0,B|183:113|183:113|156:122|156:122|86:108,1,135,2|0,3:2|3:0,0:0:0:0:
106,112,66784,2,0,P|101:155|110:185,1,67.5,2|0,3:2|0:0,0:0:0:0:
264,236,67097,2,0,P|229:210|198:202,1,67.5,10|0,3:2|0:0,0:0:0:0:
77,310,67409,1,2,3:2:0:0:
77,310,67722,2,0,L|158:297,1,67.5,2|0,3:2|0:0,0:0:0:0:
273,192,68034,2,0,L|192:205,1,67.5,2|0,3:2|0:0,0:0:0:0:
232,334,68347,2,0,B|301:295|384:324|348:369|437:385|511:322,1,270,10|0,3:2|3:0,0:0:0:0:
487,339,69284,6,0,P|467:303|456:260,1,67.5,2|0,3:2|0:0,0:0:0:0:
367,228,69597,2,0,P|387:192|398:149,1,67.5,10|0,3:2|0:0,0:0:0:0:
512,124,69909,1,2,3:2:0:0:
512,124,70222,6,0,P|482:156|389:165,1,135,2|0,3:2|3:0,0:0:0:0:
191,92,70847,2,0,L|199:159,1,67.5,10|0,3:2|0:0,0:0:0:0:
297,144,71159,2,0,L|288:77,1,67.5,2|0,3:2|0:0,0:0:0:0:
257,229,71472,1,0,3:0:0:0:
257,229,71784,2,0,L|237:363,1,135,2|8,3:2|3:2,0:0:0:0:
415,33,72409,2,0,L|392:183,1,135,2|0,3:2|3:0,0:0:0:0:
166,293,73034,6,0,B|131:286|104:259|104:259|70:277|44:270,1,135,2|8,3:2|3:2,0:0:0:0:
339,246,73659,2,0,B|375:239|401:212|401:212|436:230|461:223,1,135,2|0,3:2|3:0,0:0:0:0:
177,162,74284,2,0,B|142:155|115:128|115:128|81:146|55:139,1,135,2|8,3:2|3:2,0:0:0:0:
288,0,74909,6,0,L|282:102,1,101.25,2|0,3:2|0:0,0:0:0:0:
283,127,75222,2,0,B|340:121|340:121|360:134|360:134|428:127,2,135,2|0|8,3:2|3:0|3:2,0:0:0:0:
169,374,76159,2,0,L|175:272,1,101.25,2|0,3:2|0:0,0:0:0:0:
174,247,76472,2,0,B|117:253|117:253|97:240|97:240|29:247,2,135,2|0|8,3:2|3:2|3:2,0:0:0:0:
374,347,77409,1,0,3:0:0:0:
463,293,77722,6,0,P|433:260|329:254,1,135,2|0,3:0|3:0,3:0:0:0:
75,326,78347,2,0,P|118:316|175:229,1,135,10|0,3:2|3:0,3:0:0:0:
209,5,78972,1,2,3:0:0:0:
209,5,79284,6,0,L|196:99,1,67.5,2|0,3:2|0:0,0:0:0:0:
301,119,79597,2,0,L|314:25,1,67.5,10|0,3:2|0:0,0:0:0:0:
134,152,79909,1,2,3:2:0:0:
134,152,80222,6,0,L|155:309,1,135,6|0,3:2|3:0,0:0:0:0:
443,121,80847,1,10,3:2:0:0:
446,215,81159,2,0,B|396:212|366:178|366:178|343:186|330:202,1,135,2|0,3:2|3:0,0:0:0:0:
330,202,81784,2,0,P|327:237|337:277,1,67.5,2|0,3:2|0:0,0:0:0:0:
494,337,82097,2,0,P|465:316|425:305,1,67.5,10|0,3:2|0:0,0:0:0:0:
311,384,82409,1,2,3:2:0:0:
311,384,82722,6,0,L|224:369,1,67.5,2|0,3:2|0:0,0:0:0:0:
62,307,83034,2,0,L|128:295,1,67.5,2|0,3:2|0:0,0:0:0:0:
210,214,83347,2,0,B|229:164|229:164|231:117|185:73,1,135,10|0,3:2|3:0,0:0:0:0:
73,48,83972,1,0,3:0:0:0:
73,48,84284,1,0,3:0:0:0:
38,173,84597,6,0,P|72:163|119:153,1,67.5,10|0,3:2|0:0,0:0:0:0:
195,74,84909,2,0,P|229:83|276:94,1,67.5,2|0,3:2|0:0,0:0:0:0:
382,181,85222,2,0,P|420:146|410:42,1,135,2|0,3:2|3:0,0:0:0:0:
224,222,85847,2,0,L|244:381,1,135,10|0,3:2|3:0,0:0:0:0:
331,274,86315,1,2,3:2:0:0:
393,348,86472,2,0,P|439:363|477:360,1,67.5,2|0,3:2|0:0,0:0:0:0:
483,207,86784,2,0,P|453:245|442:281,1,67.5,2|0,3:2|0:0,0:0:0:0:
345,125,87097,2,0,P|367:150|381:180,1,67.5,10|0,3:2|0:0,0:0:0:0:
467,37,87409,2,0,P|446:63|438:88,3,33.75,2|0|0|0,3:2|3:2|3:2|3:2,0:0:0:0:
421,82,87722,6,0,L|266:63,1,135,2|0,3:0|3:0,0:0:0:0:
46,126,88347,2,0,P|44:174|58:207,1,67.5,10|0,3:2|0:0,0:0:0:0:
152,182,88659,2,0,P|152:132|138:99,1,67.5,2|0,3:0|0:0,0:0:0:0:
35,286,88972,2,0,L|168:269,1,135,2|0,3:0|3:0,0:0:0:0:
479,345,89597,2,0,L|345:361,1,135,10|0,3:2|3:0,0:0:0:0:
236,352,90065,1,0,3:0:0:0:
236,352,90143,1,0,3:0:0:0:
236,352,90222,6,0,P|267:314|257:223,1,135,2|0,3:2|3:0,0:0:0:0:
112,58,90847,2,0,L|127:148,1,67.5,10|0,3:2|0:0,0:0:0:0:
204,38,91159,2,0,L|216:105,1,67.5,2|0,3:2|0:0,0:0:0:0:
336,133,91472,1,0,3:0:0:0:
336,133,91784,2,0,P|297:101|206:111,1,135,2|8,3:2|3:2,0:0:0:0:
122,273,92409,2,0,L|171:265,3,33.75,2|0|0|0,3:2|3:0|3:0|3:0,0:0:0:0:
179,278,92722,6,0,L|336:258,1,135,2|0,3:2|3:0,0:0:0:0:
418,137,93347,2,0,P|398:162|390:211,1,67.5,10|0,3:2|0:0,0:0:0:0:
482,241,93659,2,0,P|503:214|511:181,1,67.5,2|0,3:2|0:0,0:0:0:0:
401,309,93972,1,0,3:0:0:0:
401,309,94284,2,0,L|407:388,1,67.5,2|0,3:2|0:0,0:0:0:0:
284,244,94597,2,0,L|289:311,1,67.5,10|0,3:2|0:0,0:0:0:0:
189,362,94909,1,2,3:2:0:0:
189,362,95222,6,0,B|150:365|119:342|119:342|93:366|50:373,1,135,2|0,3:0|3:0,0:0:0:0:
323,239,95847,2,0,B|362:242|393:219|393:219|419:243|462:250,1,135,10|0,3:2|3:0,0:0:0:0:
204,21,96472,6,0,L|215:111,1,67.5,2|0,3:0|0:0,0:0:0:0:
333,71,96784,2,0,L|323:152,1,67.5,2|0,3:0|0:0,0:0:0:0:
158,186,97097,2,0,L|169:276,1,67.5,10|0,3:2|0:0,0:0:0:0:
352,243,97409,2,0,L|341:333,1,67.5,2|0,3:0|0:0,0:0:0:0:
160,384,97722,5,2,3:0:0:0:
160,384,98034,2,0,L|80:365,1,67.5,2|2,0:0|0:0,0:0:0:0:
352,384,98660,1,2,0:0:0:0:
352,384,98972,2,0,L|432:365,1,67.5,2|2,0:0|0:0,0:0:0:0:
256,273,99597,6,0,P|248:230|256:192,1,80.9999975280763,2|2,0:0|3:0,0:0:0:0:
256,192,100300,12,0,102097,0:0:0:0:
