osu file format v14

[General]
AudioFilename: image_inar.mp3
AudioLeadIn: 0
PreviewTime: 180836
Countdown: 0
SampleSet: Soft
StackLeniency: 0.7
Mode: 0
LetterboxInBreaks: 0
EpilepsyWarning: 1
WidescreenStoryboard: 1

[Editor]
Bookmarks: 270,18383,36496,54609,81779,118005,136119,154232,181119,217628,235741,271968,307628,344420
DistanceSpacing: 0.6
BeatDivisor: 8
GridSize: 32
TimelineZoom: 4.499998

[Metadata]
Title:i-mage
TitleUnicode:i-mage
Artist:Aimer
ArtistUnicode:Aimer
Creator:Deca
Version:Collab Nightfall
Source:
Tags:Kalibe Agatsu collaboration SawanoHiroyuki[nZk]:Aimer エメ Penny Rain R∃/MEMBER RE/MEMBER 澤野 弘之 image inar
BeatmapID:2082843
BeatmapSetID:995694

[Difficulty]
HPDrainRate:5
CircleSize:4
OverallDifficulty:8.5
ApproachRate:9.3
SliderMultiplier:3
SliderTickRate:1

[Events]
//Background and Video events
0,0,"bg.jpg",0,0
//Break Periods
//Storyboard Layer 0 (Background)
//Storyboard Layer 1 (Fail)
//Storyboard Layer 2 (Pass)
//Storyboard Layer 3 (Foreground)
//Storyboard Layer 4 (Overlay)
//Storyboard Sound Samples

[TimingPoints]
270,566.037735849057,4,2,1,30,1,0
270,-142.857142857143,4,2,1,30,0,0
18383,-142.857142857143,4,2,1,35,0,0
54609,-125,4,2,1,40,0,0
72722,-200,4,2,1,30,0,0
78383,-200,4,2,1,40,0,0
79515,-200,4,2,1,30,0,0
80505,-200,4,2,1,25,0,0
80647,-200,4,2,1,30,0,0
80788,-200,4,2,1,35,0,0
80930,-200,4,2,1,40,0,0
81071,-200,4,2,1,45,0,0
81213,-200,4,2,1,50,0,0
81354,-200,4,2,1,55,0,0
81496,-200,4,2,1,60,0,0
81779,-111.111111111111,4,2,1,60,0,0
118005,-100,4,2,2,60,0,0
136119,-90.9090909090909,4,2,2,55,0,0
154232,-90.9090909090909,4,2,2,60,0,0
172345,-125,4,2,2,40,0,0
181119,-125,4,2,2,80,0,0
181189,-125,4,2,2,5,0,0
181260,-125,4,2,2,80,0,0
181331,-125,4,2,2,5,0,0
181402,-83.3333333333333,4,2,2,80,0,0
218194,-100,4,2,2,70,0,0
222156,-83.3333333333333,4,2,2,70,0,0
222722,-100,4,2,2,70,0,0
226685,-83.3333333333333,4,2,2,70,0,0
233477,-83.3333333333333,4,2,2,55,0,0
235317,-200,4,2,2,40,0,0
235741,-83.3333333333333,4,2,2,80,0,0
271968,-90.9090909090909,4,2,2,80,0,0
308194,-83.3333333333333,4,2,2,80,0,0

[Colours]
Combo1 : 217,157,98
Combo2 : 199,208,211
Combo3 : 88,154,214
Combo4 : 234,184,66
Combo5 : 97,106,122
Combo6 : 67,149,160

[HitObjects]
233,58,270,6,0,P|222:103|222:137,2,52.4999983978272,6|0|0,0:0|0:0|0:0,0:0:0:0:
153,147,694,2,0,B|248:150|206:120|316:124,1,157.499995193482,2|0,0:0|0:0,0:0:0:0:
313,133,1543,1,2,0:0:0:0:
335,261,1968,38,0,P|341:229|354:200,1,52.4999983978272,2|0,0:0|0:0,0:0:0:0:
356,28,2251,2,0,P|368:73|365:111,1,52.4999983978272,2|0,0:0|0:0,0:0:0:0:
445,186,2534,2,0,P|361:182|304:108,1,157.499995193482,2|0,0:0|0:0,0:0:0:0:
300,124,3383,1,2,0:0:0:0:
303,109,3807,1,2,0:0:0:0:
299,97,4232,2,0,B|309:74|309:74|300:23,1,52.4999983978272,2|0,0:0|0:0,0:0:0:0:
224,36,4515,2,0,B|214:59|214:59|223:110,1,52.4999983978272,2|0,0:0|0:0,0:0:0:0:
96,233,4798,38,0,P|122:220|177:209,2,52.4999983978272,6|0|0,0:0|0:0|0:0,0:0:0:0:
5,247,5222,2,0,B|114:249|55:302|194:300,1,157.499995193482,2|0,0:0|0:0,0:0:0:0:
73,144,6071,37,2,0:0:0:0:
144,213,6496,2,0,P|147:172|163:141,1,52.4999983978272,2|0,0:0|0:0,0:0:0:0:
242,60,6779,2,0,P|239:101|223:132,1,52.4999983978272,2|0,0:0|0:0,0:0:0:0:
379,204,7062,2,0,P|274:193|200:185,2,157.499995193482,2|0|0,0:0|0:0|0:0,0:0:0:0:
430,269,8053,2,0,P|469:257|498:256,1,52.4999983978272
480,255,8336,2,0,P|486:198|506:130,1,104.999996795654,2|0,0:0|0:0,0:0:0:0:
468,65,8760,37,0,0:0:0:0:
447,61,8902,1,0,0:0:0:0:
426,65,9043,1,0,0:0:0:0:
407,78,9185,1,0,0:0:0:0:
407,78,9326,2,0,P|455:85|479:-21,1,157.499995193482,6|0,0:0|0:0,0:0:0:0:
298,16,10175,38,0,P|319:47|300:128,1,104.999996795654,2|0,0:0|0:0,0:0:0:0:
203,106,10600,2,0,P|189:78|196:36,1,52.4999983978272,2|0,0:0|0:0,0:0:0:0:
263,175,10883,1,0,0:0:0:0:
263,175,11024,2,0,P|289:188|334:194,1,52.4999983978272,2|0,0:0|0:0,0:0:0:0:
155,176,11307,2,0,P|129:182|106:194,1,52.4999983978272,2|0,0:0|0:0,0:0:0:0:
7,305,11590,38,0,P|15:267|17:243,2,52.4999983978272,2|0|0,0:0|0:0|0:0,0:0:0:0:
49,383,12015,2,0,B|130:398|112:349|235:386,1,157.499995193482,2|0,0:0|0:0,0:0:0:0:
209,384,12864,1,2,0:0:0:0:
347,294,13288,38,0,P|375:288|424:281,1,52.4999983978272,2|0,0:0|0:0,0:0:0:0:
460,342,13571,2,0,P|491:351|532:364,1,52.4999983978272,2|0,0:0|0:0,0:0:0:0:
302,384,13854,2,0,P|309:334|305:222,2,157.499995193482,6|0|0,0:0|0:0|0:0,0:0:0:0:
302,384,14845,1,0,0:0:0:0:
228,264,15128,1,2,0:0:0:0:
228,264,15270,2,0,P|196:262|166:273,1,52.4999983978272,0|0,0:0|0:0,0:0:0:0:
117,201,15553,2,0,P|99:227|93:259,1,52.4999983978272,2|0,0:0|0:0,0:0:0:0:
6,265,15836,2,0,P|20:293|44:314,1,52.4999983978272,2|0,0:0|0:0,0:0:0:0:
85,117,16119,38,0,B|181:112|156:145|256:144,1,157.499995193482,2|0,0:0|0:0,0:0:0:0:
247,136,16968,1,2,0:0:0:0:
257,139,17392,2,0,P|290:151|312:156,2,52.4999983978272,2|0|0,0:0|0:0|0:0,0:0:0:0:
106,36,17817,37,0,0:0:0:0:
85,117,17958,1,0,0:0:0:0:
166,138,18100,1,0,0:0:0:0:
187,57,18241,1,0,0:0:0:0:
0,88,18383,38,0,L|30:214,1,104.999996795654,6|0,0:3|0:0,0:0:0:0:
203,221,18807,2,0,L|88:254,1,104.999996795654,0|0,0:0|0:0,0:0:0:0:
0,384,19232,1,2,0:3:0:0:
0,384,19373,2,0,L|38:249,1,104.999996795654,0|0,0:0|0:0,0:0:0:0:
247,285,20081,37,2,0:3:0:0:
369,359,20364,1,0,0:0:0:0:
501,262,20647,2,0,B|476:177|540:209|496:93,1,157.499995193482,2|0,0:3|0:0,0:0:0:0:
501,109,21354,1,0,0:0:0:0:
415,224,21496,1,2,0:3:0:0:
326,191,21637,2,0,L|205:226,2,104.999996795654,0|0|0,0:0|0:0|0:0,0:0:0:0:
436,52,22345,37,0,0:0:0:0:
411,122,22486,1,0,0:0:0:0:
352,34,22628,1,0,0:0:0:0:
320,100,22770,1,0,0:0:0:0:
153,69,22911,38,0,P|192:63|277:41,1,104.999996795654,6|0,0:3|0:0,0:0:0:0:
107,229,23336,2,0,P|101:190|79:105,1,104.999996795654,2|0,0:3|0:0,0:0:0:0:
230,245,23760,2,0,P|244:194|253:142,1,104.999996795654,2|0,0:3|0:0,0:0:0:0:
55,328,24185,2,0,P|105:313|157:304,1,104.999996795654,2|0,0:3|0:0,0:0:0:0:
258,359,24609,37,0,0:0:0:0:
140,217,24892,1,0,0:0:0:0:
355,9,25175,2,0,P|366:32|364:156,1,104.999996795654,2|0,0:3|0:0,0:0:0:0:
511,232,25600,2,0,P|490:204|390:201,1,104.999996795654,2|0,0:3|0:0,0:0:0:0:
378,347,26024,2,0,P|428:338|464:300,1,104.999996795654,2|0,0:3|0:0,0:0:0:0:
326,224,26449,2,0,P|288:259|279:310,1,104.999996795654,0|0,0:0|0:0,0:0:0:0:
424,186,26873,37,2,0:3:0:0:
409,114,27015,1,0,0:0:0:0:
265,78,27156,37,2,0:3:0:0:
356,40,27298,1,0,0:0:0:0:
265,164,27439,38,0,B|171:152|211:198|103:181,1,157.499995193482,6|0,0:3|0:0,0:0:0:0:
57,134,28147,1,0,0:0:0:0:
173,46,28288,2,0,P|178:89|188:160,1,104.999996795654,2|0,0:3|0:0,0:0:0:0:
353,106,28713,2,0,P|345:157|339:210,1,104.999996795654,2|0,0:3|0:0,0:0:0:0:
486,308,29137,1,2,0:3:0:0:
465,230,29279,1,0,0:0:0:0:
382,275,29420,1,0,0:0:0:0:
401,349,29562,1,0,0:0:0:0:
248,384,29703,38,0,L|181:372,1,52.4999983978272,2|0,0:3|0:0,0:0:0:0:
134,329,29986,1,0,0:0:0:0:
251,221,30128,2,0,P|206:235|117:253,1,104.999996795654,2|0,0:3|0:0,0:0:0:0:
61,126,30553,2,0,P|106:140|195:158,1,104.999996795654,2|0,0:3|0:0,0:0:0:0:
29,263,30977,2,0,P|38:240|47:204,1,52.4999983978272,2|0,0:3|0:0,0:0:0:0:
260,129,31260,37,0,0:0:0:0:
260,129,31402,2,0,P|251:106|252:72,1,52.4999983978272,0|0,0:0|0:0,0:0:0:0:
327,64,31685,2,0,P|336:87|335:121,1,52.4999983978272,0|0,0:0|0:0,0:0:0:0:
475,197,31968,38,0,P|418:195|348:276,1,157.499995193482,6|0,0:3|0:0,0:0:0:0:
425,283,32675,1,0,0:0:0:0:
297,354,32817,2,0,P|267:364|144:360,1,104.999996795654,2|0,0:3|0:0,0:0:0:0:
25,263,33241,2,0,P|55:273|178:269,1,104.999996795654,2|0,0:3|0:0,0:0:0:0:
306,159,33666,2,0,P|302:184|294:210,1,52.4999983978272,2|0,0:3|0:0,0:0:0:0:
160,134,33949,2,0,P|163:159|171:185,1,52.4999983978272,0|0,0:0|0:0,0:0:0:0:
245,107,34232,37,6,0:3:0:0:
319,86,34515,1,0,0:0:0:0:
319,86,34656,1,2,0:3:0:0:
397,119,34939,1,0,0:0:0:0:
397,119,35081,1,2,0:3:0:0:
397,119,35222,1,0,0:0:0:0:
467,91,35505,37,2,0:3:0:0:
482,169,35647,1,2,0:3:0:0:
496,238,35788,1,2,0:3:0:0:
356,315,35930,37,2,0:3:0:0:
404,221,36071,1,0,0:0:0:0:
434,315,36213,37,0,0:0:0:0:
330,244,36354,1,0,0:0:0:0:
232,341,36496,38,0,L|102:371,1,104.999996795654,6|0,0:3|0:0,0:0:0:0:
64,321,36920,2,0,P|69:286|68:254,1,52.4999983978272,2|0,0:0|0:0,0:0:0:0:
199,158,37203,2,0,P|188:86|184:-16,1,157.499995193482,2|0,0:0|0:0,0:0:0:0:
111,29,37911,37,0,0:0:0:0:
111,29,38053,2,0,L|48:51,1,52.4999983978272,2|0,0:0|0:0,0:0:0:0:
225,76,38336,1,2,0:0:0:0:
299,44,38477,2,0,L|362:66,1,52.4999983978272,0|0,0:0|0:0,0:0:0:0:
285,259,38760,38,0,P|220:237|206:139,1,157.499995193482,2|0,0:3|0:0,0:0:0:0:
198,157,39468,1,2,0:0:0:0:
47,262,39609,2,0,P|55:225|56:196,1,52.4999983978272,0|0,0:0|0:0,0:0:0:0:
120,305,39892,1,2,0:0:0:0:
197,280,40034,2,0,P|199:348|209:398,1,104.999996795654,0|0,0:0|0:0,0:0:0:0:
373,260,40458,2,0,L|433:247,1,52.4999983978272,0|0,0:0|0:0,0:0:0:0:
377,185,40741,1,0,0:0:0:0:
465,45,40883,1,0,0:0:0:0:
398,6,41024,38,0,B|282:34,1,104.999996795654,6|0,0:3|0:0,0:0:0:0:
156,176,41449,2,0,L|180:109,1,52.4999983978272,2|0,0:0|0:0,0:0:0:0:
253,121,41732,2,0,B|281:167|281:167|253:249,1,104.999996795654,2|0,0:0|0:0,0:0:0:0:
134,384,42156,1,2,0:0:0:0:
98,314,42298,1,0,0:0:0:0:
206,343,42439,1,0,0:0:0:0:
170,273,42581,2,0,L|163:202,1,52.4999983978272,2|0,0:0|0:0,0:0:0:0:
294,347,42864,2,0,L|414:378,1,104.999996795654,2|0,0:0|0:0,0:0:0:0:
511,184,43288,38,0,B|418:200|462:234|355:255,1,157.499995193482,2|0,0:3|0:0,0:0:0:0:
371,251,43996,1,2,0:0:0:0:
262,134,44137,2,0,L|252:203,1,52.4999983978272,0|0,0:0|0:0,0:0:0:0:
343,102,44420,1,2,0:0:0:0:
420,112,44562,2,0,L|404:-4,1,104.999996795654,0|0,0:0|0:0,0:0:0:0:
262,134,44986,37,0,0:0:0:0:
175,76,45128,1,0,0:0:0:0:
285,58,45270,37,0,0:0:0:0:
173,156,45411,1,0,0:0:0:0:
314,265,45553,38,0,P|388:296|411:371,1,157.499995193482,6|0,0:3|0:0,0:0:0:0:
314,265,46119,1,2,0:0:0:0:
359,199,46402,1,0,0:0:0:0:
359,199,46543,2,0,L|372:128,1,52.4999983978272,2|0,0:0|0:0,0:0:0:0:
255,4,46826,2,0,B|280:79|280:79|257:182,1,157.499995193482,2|0,0:0|0:0,0:0:0:0:
262,155,47534,2,0,L|177:178,1,52.4999983978272,0|0,0:0|0:0,0:0:0:0:
86,333,47817,37,4,0:0:0:0:
155,294,47958,2,0,P|166:325|170:370,1,52.4999983978272,0|0,0:0|0:0,0:0:0:0:
31,220,48241,2,0,P|47:163|52:93,1,104.999996795654,0|0,0:0|0:0,0:0:0:0:
186,29,48666,2,0,P|270:59|289:142,2,157.499995193482,0|0|0,0:0|0:0|0:0,0:0:0:0:
186,29,49798,37,0,0:0:0:0:
90,196,49939,1,0,0:0:0:0:
74,114,50081,86,0,L|196:148,1,104.999996795654,6|0,0:3|0:0,0:0:0:0:
175,142,50505,1,0,0:0:0:0:
292,318,50647,2,0,L|260:195,1,104.999996795654,2|0,0:0|0:0,0:0:0:0:
409,131,51071,2,0,P|399:162|392:201,1,52.4999983978272,2|0,0:0|0:0,0:0:0:0:
233,56,51354,2,0,P|298:39|352:15,1,104.999996795654,2|0,0:0|0:0,0:0:0:0:
265,216,51779,37,0,0:0:0:0:
199,176,51920,1,0,0:0:0:0:
186,274,52062,37,2,0:0:0:0:
302,140,52203,1,2,0:0:0:0:
410,248,52345,38,0,L|530:286,1,104.999996795654,6|0,0:3|0:0,0:0:0:0:
340,353,52770,2,0,L|220:391,1,104.999996795654,0|0,0:0|0:0,0:0:0:0:
39,314,53194,2,0,P|45:272|44:231,1,52.4999983978272,0|0,0:0|0:0,0:0:0:0:
109,217,53477,1,0,0:0:0:0:
10,52,53619,37,0,0:0:0:0:
72,2,53760,2,0,P|89:65|89:119,1,104.999996795654,0|0,0:0|0:0,0:0:0:0:
90,104,54185,1,0,0:0:0:0:
175,131,54326,37,2,0:3:0:0:
45,261,54468,1,0,0:0:0:0:
175,131,54609,54,0,B|249:148|200:168|304:192,1,120,6|0,0:0|0:0,0:0:0:0:
439,140,55034,2,0,P|436:108|432:77,1,60,2|0,0:0|0:0,0:0:0:0:
334,134,55317,2,0,P|371:171|304:288,1,180,2|2,0:0|0:0,0:0:0:0:
163,263,55883,2,0,P|123:257|93:261,2,60,0|0|2,0:0|0:0|0:0,0:0:0:0:
252,331,56307,37,0,0:0:0:0:
323,296,56449,1,2,0:0:0:0:
464,369,56590,37,0,0:0:0:0:
389,347,56732,1,0,0:0:0:0:
417,129,56873,38,0,P|405:200|407:275,1,120,6|0,0:0|0:0,0:0:0:0:
404,247,57298,1,2,0:0:0:0:
238,159,57581,1,0,0:0:0:0:
238,159,57722,2,0,L|109:182,1,120,2|0,0:0|0:0,0:0:0:0:
43,320,58147,37,0,0:0:0:0:
119,288,58288,1,0,0:0:0:0:
306,330,58430,1,0,0:0:0:0:
233,374,58571,2,0,P|217:327|209:293,1,60,2|0,0:0|0:0,0:0:0:0:
300,249,58854,2,0,P|311:211|317:179,1,60,2|0,0:0|0:0,0:0:0:0:
213,32,59137,38,0,P|275:46|289:139,1,120,6|0,0:0|0:0,0:0:0:0:
505,146,59562,2,0,P|428:157|352:167,1,120,2|0,0:0|0:0,0:0:0:0:
509,152,59986,2,0,P|497:198|496:224,1,60,2|0,0:0|0:0,0:0:0:0:
455,366,60270,1,0,0:0:0:0:
455,366,60411,2,0,P|442:323|406:225,1,120,2|0,0:0|0:0,0:0:0:0:
242,181,60836,38,0,P|225:215|238:257,1,60
304,255,61119,2,0,P|321:221|308:179,1,60,0|0,0:0|0:0,0:0:0:0:
181,309,61402,2,0,B|86:309|114:257|2:265,1,180,6|0,0:0|0:0,0:0:0:0:
132,141,62109,37,0,0:0:0:0:
132,141,62251,2,0,P|178:154|267:166,1,120,2|0,0:0|0:0,0:0:0:0:
359,0,62675,2,0,B|315:41|315:41|308:117,1,120,0|0,0:0|0:0,0:0:0:0:
403,251,63100,37,0,0:0:0:0:
485,222,63241,1,0,0:0:0:0:
419,169,63383,1,0,0:0:0:0:
339,196,63524,1,0,0:0:0:0:
161,359,63666,38,0,P|138:309|236:239,1,180,6|0,0:0|0:0,0:0:0:0:
161,359,64232,1,2,0:0:0:0:
25,147,64515,1,0,0:0:0:0:
25,147,64656,2,0,P|86:161|153:169,2,120,2|2|0,0:0|0:0|0:0,0:0:0:0:
192,45,65364,2,0,L|203:135,1,60,0|0,0:0|0:0,0:0:0:0:
288,0,65647,2,0,L|277:90,1,60,0|0,0:0|0:0,0:0:0:0:
435,184,65930,38,0,P|407:156|314:139,1,120,2|0,0:0|0:0,0:0:0:0:
371,312,66354,2,0,P|422:302|482:256,1,120,2|0,0:0|0:0,0:0:0:0:
311,225,66779,2,0,B|197:236|251:272|112:279,1,180,2|2,0:0|0:0,0:0:0:0:
80,231,67345,1,0,0:0:0:0:
133,169,67486,1,0,0:0:0:0:
250,334,67628,2,0,P|240:292|233:261,1,60,2|0,0:0|0:0,0:0:0:0:
268,156,67911,2,0,P|278:114|285:83,1,60,2|0,0:0|0:0,0:0:0:0:
397,240,68194,38,0,P|441:237|444:117,2,180,6|2|2,0:0|0:0|0:0,0:0:0:0:
347,115,69185,2,0,P|355:156|359:194,1,60,0|0,0:0|0:0,0:0:0:0:
305,380,69468,2,0,B|281:321|281:321|331:238,1,120,2|0,0:0|0:0,0:0:0:0:
251,189,69892,37,2,0:0:0:0:
174,156,70034,1,0,0:0:0:0:
95,259,70175,37,2,0:0:0:0:
242,208,70317,1,0,0:0:0:0:
335,81,70458,38,0,P|319:127|325:179,2,60,6|0|0,0:0|0:0|0:0,0:0:0:0:
414,169,70883,2,0,B|307:163|346:209|226:208,1,180,2|2,0:0|0:0,0:0:0:0:
242,196,71732,1,2,0:0:0:0:
244,187,72156,2,0,P|239:161|220:108,1,60,0|0,0:0|0:0,0:0:0:0:
203,267,72439,2,0,P|168:235|141:212,1,60,2|0,0:0|0:0,0:0:0:0:
89,171,72722,21,2,0:0:0:0:
133,352,73147,2,0,P|267:341|313:346,1,150,2|0,0:0|0:0,0:0:0:0:
282,342,73854,1,2,0:0:0:0:
370,136,74279,2,0,B|380:224|324:207|344:305,1,150,2|0,0:0|0:0,0:0:0:0:
408,323,74986,1,2,0:0:0:0:
295,177,75411,2,0,L|135:204,1,150,2|0,0:0|0:0,0:0:0:0:
147,201,76119,1,2,0:0:0:0:
22,353,76543,2,0,P|65:331|77:231,1,150,2|0,0:0|0:0,0:0:0:0:
28,178,77251,1,2,0:0:0:0:
152,104,77675,2,0,B|243:121|198:145|312:174,1,150,2|0,0:0|0:0,0:0:0:0:
491,59,78383,53,2,0:0:0:0:
343,40,78807,2,0,B|349:105|349:105|353:107|353:107|365:216,1,150,2|0,0:0|0:0,0:0:0:0:
263,353,79515,21,2,0:0:0:0:
334,307,79939,37,2,0:0:0:0:
403,353,80364,37,2,0:0:0:0:
256,192,80505,12,0,81496,0:0:0:0:
509,149,81779,70,0,L|368:183,1,134.999995880127,6|0,0:0|0:0,0:0:0:0:
247,16,82203,2,0,L|283:165,1,134.999995880127,2|0,0:0|0:0,0:0:0:0:
296,216,82628,1,0,0:0:0:0:
354,106,82770,2,0,B|234:94|283:161|155:134,1,202.499993820191,2|0,0:0|0:0,0:0:0:0:
70,251,83477,37,0,0:0:0:0:
135,206,83619,1,0,0:0:0:0:
73,155,83760,1,0,0:0:0:0:
8,200,83902,1,0,0:0:0:0:
113,246,84043,38,0,P|166:241|228:146,1,134.999995880127,6|0,0:0|0:0,0:0:0:0:
353,79,84468,2,0,P|406:84|468:179,1,134.999995880127,2|0,0:0|0:0,0:0:0:0:
505,198,84892,1,2,0:0:0:0:
505,198,85317,1,0,0:0:0:0:
360,312,85458,2,0,L|376:226,1,67.4999979400635,0|0,0:0|0:0,0:0:0:0:
478,290,85741,2,0,L|490:361,1,67.4999979400635,2|0,0:0|0:0,0:0:0:0:
279,376,86024,37,0,0:0:0:0:
360,312,86166,1,0,0:0:0:0:
249,246,86307,2,0,B|162:252|202:222|104:231,1,134.999995880127,6|0,0:0|0:0,0:0:0:0:
0,302,86732,38,0,P|27:296|81:287,1,67.4999979400635,2|0,0:0|0:0,0:0:0:0:
0,223,87015,1,0,0:0:0:0:
136,148,87156,1,0,0:0:0:0:
136,148,87298,2,0,P|108:142|-2:131,1,134.999995880127,2|0,0:0|0:0,0:0:0:0:
123,67,87722,38,0,L|151:-10,1,67.4999979400635
286,137,88005,2,0,L|205:166,1,67.4999979400635,0|0,0:0|0:0,0:0:0:0:
331,0,88288,1,0,0:0:0:0:
386,56,88430,1,0,0:0:0:0:
226,75,88571,38,0,B|177:61|177:61|159:38|159:38|97:21,1,134.999995880127,6|0,0:0|0:0,0:0:0:0:
189,139,88996,2,0,L|214:292,1,134.999995880127,2|0,0:0|0:0,0:0:0:0:
386,273,89420,37,0,0:0:0:0:
435,384,89562,2,0,L|466:233,1,134.999995880127,2|0,0:0|0:0,0:0:0:0:
354,353,89986,2,0,L|267:372,1,67.4999979400635,0|0,0:0|0:0,0:0:0:0:
183,242,90270,1,2,0:0:0:0:
256,270,90411,1,0,0:0:0:0:
202,323,90553,1,2,0:0:0:0:
127,297,90694,1,0,0:0:0:0:
284,199,90836,38,0,P|293:230|303:356,1,134.999995880127,6|0,0:0|0:0,0:0:0:0:
395,209,91260,2,0,P|408:188|411:137,1,67.4999979400635,2|0,0:0|0:0,0:0:0:0:
512,293,91543,2,0,P|509:259|493:230,1,67.4999979400635,2|0,0:0|0:0,0:0:0:0:
394,83,91826,38,0,P|409:112|412:145,1,67.4999979400635,2|0,0:0|0:0,0:0:0:0:
310,231,92109,1,0,0:0:0:0:
433,284,92251,2,0,P|403:266|302:278,1,134.999995880127,2|0,0:0|0:0,0:0:0:0:
132,275,92675,37,0,0:0:0:0:
66,379,92817,2,0,B|50:346|50:346|55:314,1,67.4999979400635,0|0,0:0|0:0,0:0:0:0:
214,276,93100,2,0,B|230:309|230:309|225:339,1,67.4999979400635,6|0,0:0|0:0,0:0:0:0:
0,224,93383,1,0,0:0:0:0:
0,224,93524,2,0,L|139:246,1,134.999995880127,2|0,0:0|0:0,0:0:0:0:
287,132,93949,38,0,P|316:130|376:118,1,67.4999979400635,2|0,0:0|0:0,0:0:0:0:
467,224,94232,2,0,P|448:196|417:128,1,67.4999979400635,0|0,0:0|0:0,0:0:0:0:
466,18,94515,2,0,P|447:46|416:114,1,67.4999979400635,0|0,0:0|0:0,0:0:0:0:
280,142,94798,37,0,0:0:0:0:
354,118,94939,1,0,0:0:0:0:
476,221,95081,1,0,0:0:0:0:
432,158,95222,1,0,0:0:0:0:
255,241,95364,38,0,B|333:228|315:255|400:240,1,134.999995880127,4|0,0:0|0:0,0:0:0:0:
240,322,95788,2,0,L|155:343,1,67.4999979400635,2|0,0:0|0:0,0:0:0:0:
246,325,96071,2,0,L|328:345,1,67.4999979400635,2|0,0:0|0:0,0:0:0:0:
141,198,96354,38,0,B|63:211|81:184|-4:199,1,134.999995880127,2|0,0:0|0:0,0:0:0:0:
87,306,96779,1,0,0:0:0:0:
107,115,96920,86,0,P|135:158|251:149,1,134.999995880127,2|0,0:0|0:0,0:0:0:0:
316,21,97345,1,0,0:0:0:0:
230,69,97486,1,0,0:0:0:0:
317,231,97628,2,0,L|333:95,1,134.999995880127,6|0,0:0|0:0,0:0:0:0:
344,105,98053,2,0,L|325:238,1,134.999995880127
478,201,98477,38,0,B|447:190|447:190|400:189,1,67.4999979400635
197,326,98760,2,0,B|228:315|228:315|275:314,1,67.4999979400635,0|0,0:0|0:0,0:0:0:0:
352,362,99043,2,0,P|343:328|337:219,1,134.999995880127,0|0,0:0|0:0,0:0:0:0:
219,97,99468,37,2,0:0:0:0:
319,154,99609,1,2,0:0:0:0:
299,79,99751,1,2,0:0:0:0:
231,175,99892,2,0,B|179:186|179:186|157:207|157:207|90:224,1,134.999995880127,6|0,0:0|0:0,0:0:0:0:
0,80,100317,2,0,B|52:91|52:91|74:112|74:112|123:124,1,134.999995880127,2|0,0:0|0:0,0:0:0:0:
0,311,100741,37,0,0:0:0:0:
0,311,100883,2,0,L|36:154,1,134.999995880127,2|0,0:0|0:0,0:0:0:0:
238,318,101307,2,0,L|214:241,1,67.4999979400635,0|0,0:0|0:0,0:0:0:0:
110,362,101590,2,0,L|126:266,1,67.4999979400635,0|0,0:0|0:0,0:0:0:0:
301,222,101873,37,0,0:0:0:0:
386,270,102015,1,0,0:0:0:0:
512,177,102156,2,0,P|464:179|359:197,1,134.999995880127,6|0,0:0|0:0,0:0:0:0:
211,97,102581,2,0,P|259:99|364:117,1,134.999995880127,2|0,0:0|0:0,0:0:0:0:
358,101,103005,38,0,P|291:89|224:85,1,134.999995880127,2|0,0:0|0:0,0:0:0:0:
378,186,103430,2,0,P|444:174|511:170,1,134.999995880127,2|0,0:0|0:0,0:0:0:0:
333,342,103854,1,0,0:0:0:0:
301,271,103996,1,0,0:0:0:0:
380,282,104137,1,0,0:0:0:0:
409,353,104279,1,0,0:0:0:0:
244,325,104420,38,0,B|250:248|281:288|281:186,1,134.999995880127,6|0,0:0|0:0,0:0:0:0:
178,133,104845,2,0,P|145:145|89:155,1,67.4999979400635,2|0,0:0|0:0,0:0:0:0:
199,217,105128,1,0,0:0:0:0:
308,93,105270,2,0,P|358:104|469:113,1,134.999995880127,2|0,0:0|0:0,0:0:0:0:
450,124,105694,2,0,P|382:117|316:104,1,134.999995880127,2|0,0:0|0:0,0:0:0:0:
147,5,106119,38,0,B|131:35|131:35|142:82,1,67.4999979400635
218,80,106402,2,0,B|234:50|234:50|223:3,1,67.4999979400635,0|0,0:0|0:0,0:0:0:0:
18,153,106685,2,0,P|77:215|137:214,1,134.999995880127,6|0,0:0|0:0,0:0:0:0:
326,93,107109,2,0,P|267:155|207:154,1,134.999995880127,2|0,0:0|0:0,0:0:0:0:
195,309,107534,38,0,P|205:277|217:225,1,67.4999979400635,2|0,0:0|0:0,0:0:0:0:
334,343,107817,2,0,P|300:353|253:372,1,67.4999979400635,0|0,0:0|0:0,0:0:0:0:
317,212,108100,2,0,P|341:234|397:269,1,67.4999979400635,0|0,0:0|0:0,0:0:0:0:
186,312,108383,1,0,0:0:0:0:
208,237,108524,1,0,0:0:0:0:
337,352,108666,1,0,0:0:0:0:
264,379,108807,1,0,0:0:0:0:
369,254,108949,38,0,P|453:281|474:325,1,134.999995880127,6|0,0:0|0:0,0:0:0:0:
293,217,109373,1,0,0:0:0:0:
336,122,109515,2,0,L|445:88,1,67.4999979400635,2|0,0:0|0:0,0:0:0:0:
507,222,109798,1,0,0:0:0:0:
507,222,109939,2,0,P|499:189|494:76,1,134.999995880127,2|0,0:0|0:0,0:0:0:0:
418,262,110364,2,0,P|400:265|353:280,1,67.4999979400635,2|0,0:0|0:0,0:0:0:0:
215,191,110647,37,0,0:0:0:0:
299,227,110788,1,0,0:0:0:0:
268,117,110930,37,0,0:0:0:0:
147,163,111071,1,0,0:0:0:0:
53,68,111213,2,0,P|85:67|194:105,1,134.999995880127,6|0,0:0|0:0,0:0:0:0:
0,242,111637,2,0,P|-2:224|8:158,1,67.4999979400635,2|0,0:0|0:0,0:0:0:0:
153,239,111920,1,0,0:0:0:0:
167,311,112062,2,0,P|169:329|159:395,1,67.4999979400635,2|0,0:0|0:0,0:0:0:0:
324,239,112345,37,0,0:0:0:0:
423,191,112486,1,0,0:0:0:0:
396,262,112628,1,0,0:0:0:0:
329,166,112770,1,0,0:0:0:0:
483,78,112911,2,0,P|466:80|410:95,1,67.4999979400635,0|0,0:0|0:0,0:0:0:0:
351,78,113194,2,0,P|384:83|416:92,1,67.4999979400635,0|0,0:0|0:0,0:0:0:0:
176,238,113477,38,0,P|207:222|317:208,1,134.999995880127,6|0,0:0|0:0,0:0:0:0:
230,355,113902,1,0,0:0:0:0:
230,355,114043,2,0,P|234:331|243:272,1,67.4999979400635,2|0,0:0|0:0,0:0:0:0:
70,190,114326,37,0,0:0:0:0:
141,319,114468,2,0,B|94:306|94:306|71:276|71:276|20:262,1,134.999995880127,2|0,0:0|0:0,0:0:0:0:
162,142,114892,2,0,L|181:217,1,67.4999979400635,0|0,0:0|0:0,0:0:0:0:
0,107,115175,2,0,L|142:71,1,134.999995880127,2|0,0:0|0:0,0:0:0:0:
181,24,115600,1,0,0:0:0:0:
336,172,115741,38,0,P|277:169|223:82,1,134.999995880127,6|0,0:0|0:0,0:0:0:0:
37,251,116166,2,0,P|96:248|150:161,1,134.999995880127,2|0,0:0|0:0,0:0:0:0:
289,313,116590,2,0,P|280:288|266:239,1,67.4999979400635,2|0,0:0|0:0,0:0:0:0:
89,347,116873,2,0,P|100:315|109:282,1,67.4999979400635,2|0,0:0|0:0,0:0:0:0:
278,321,117156,85,0,0:0:0:0:
254,249,117298,1,0,0:0:0:0:
186,348,117439,6,0,P|267:289|385:283,1,202.499993820191,2|0,0:0|0:0,0:0:0:0:
512,154,118005,6,0,L|478:301,1,150,6|0,1:2|0:0,0:0:0:0:
445,105,118430,1,0,0:0:0:0:
436,25,118571,2,0,P|392:41|349:76,1,75,10|0,0:0|0:0,0:0:0:0:
327,123,118854,1,2,0:0:0:0:
366,280,118996,2,0,P|279:256|257:190,1,150,0|2,1:2|1:2,0:0:0:0:
256,206,119420,38,0,P|215:240|183:259,1,75,2|0,0:0|0:0,0:0:0:0:
374,354,119703,2,0,P|366:300|365:263,1,75,10|0,0:0|0:0,0:0:0:0:
186,335,119986,2,0,B|96:343|135:373|34:386,1,150,2|2,0:0|1:2,0:0:0:0:
170,81,120553,37,0,0:0:0:0:
234,124,120694,1,2,0:0:0:0:
143,175,120836,2,0,L|-13:216,1,150,8|2,0:0|0:0,0:0:0:0:
143,175,121260,1,0,0:0:0:0:
322,213,121402,2,0,L|434:238,1,75,0|0,1:2|0:0,0:0:0:0:
400,219,121685,2,0,L|288:244,1,75,0|0,1:2|0:0,0:0:0:0:
128,332,121968,37,10,0:0:0:0:
192,376,122109,2,0,B|232:312|232:312|212:213,1,150,0|0,1:2|0:0,0:0:0:0:
265,177,122534,2,0,L|284:0,1,150,2|0,1:2|0:0,0:0:0:0:
132,111,122958,2,0,L|51:137,1,75,2|8,0:0|0:0,0:0:0:0:
114,39,123241,1,0,0:0:0:0:
265,177,123383,37,2,0:0:0:0:
339,147,123524,2,0,P|350:237|360:266,1,75,0|0,1:2|0:0,0:0:0:0:
217,363,123807,2,0,P|133:325|129:261,1,150,2|0,1:2|0:0,0:0:0:0:
346,221,124232,38,0,B|333:260|333:260|338:307,1,75,10|0,0:0|0:0,0:0:0:0:
207,112,124515,2,0,B|246:125|246:125|293:120,1,75,2|0,0:0|0:0,0:0:0:0:
183,304,124798,38,0,B|124:321|124:321|101:344|101:344|29:364,1,150,2|0,1:2|0:0,0:0:0:0:
52,280,125222,1,2,0:0:0:0:
256,360,125364,2,0,L|345:380,1,75,8|0,0:0|0:0,0:0:0:0:
321,298,125647,1,2,0:0:0:0:
373,153,125788,2,0,L|299:169,1,75,8|0,0:3|1:2,0:0:0:0:
150,295,126071,1,10,0:0:0:0:
97,355,126213,2,0,P|107:255|105:184,1,150,0|10,1:2|0:0,0:0:0:0:
106,205,126637,1,0,1:2:0:0:
163,138,126779,37,10,0:0:0:0:
0,254,126920,1,0,1:0:0:0:
118,66,127062,38,0,B|213:88|167:112|270:139,1,150,6|0,1:2|0:0,0:0:0:0:
307,189,127486,1,2,0:0:0:0:
480,111,127628,2,0,B|462:146|462:146|467:197,1,75,8|0,0:0|0:0,0:0:0:0:
465,181,127911,1,2,0:0:0:0:
362,346,128053,2,0,L|460:374,1,75,0|0,1:2|0:0,0:0:0:0:
292,289,128336,2,0,L|108:338,1,150,2|0,1:2|0:0,0:0:0:0:
147,327,128760,38,0,P|161:285|164:238,1,75,10|0,0:0|0:0,0:0:0:0:
32,88,129043,2,0,P|45:130|48:177,1,75,2|0,0:0|0:0,0:0:0:0:
49,161,129326,37,2,1:2:0:0:
122,124,129468,1,0,0:0:0:0:
258,204,129609,2,0,L|274:103,1,75,0|2,0:0|0:0,0:0:0:0:
257,125,129892,2,0,L|268:199,1,75,8|0,0:0|0:0,0:0:0:0:
390,350,130175,2,0,B|360:281|360:281|391:201,1,150,2|0,0:0|1:2,0:0:0:0:
460,240,130600,1,2,0:0:0:0:
277,349,130741,2,0,L|170:372,1,75,0|0,1:2|0:0,0:0:0:0:
203,364,131024,37,10,0:0:0:0:
56,262,131166,1,0,1:2:0:0:
13,370,131307,37,2,0:0:0:0:
193,293,131449,2,0,L|210:237,1,37.5,0|0,0:0|0:0,0:0:0:0:
154,203,131590,38,0,L|136:15,1,150,2|0,1:2|0:0,0:0:0:0:
290,155,132015,2,0,L|380:184,1,75,2|8,0:0|0:0,0:0:0:0:
361,178,132298,1,0,0:0:0:0:
396,108,132439,1,2,0:0:0:0:
512,249,132581,38,0,B|501:212|501:212|512:162,1,75,0|0,1:2|0:0,0:0:0:0:
349,314,132864,2,0,B|268:337|301:371|187:387,1,150,2|0,1:2|0:0,0:0:0:0:
349,314,133288,2,0,L|441:339,1,75,10|0,0:0|0:0,0:0:0:0:
286,227,133571,1,0,0:3:0:0:
346,175,133713,1,0,0:3:0:0:
246,11,133854,38,0,P|300:72|375:72,1,150,2|0,1:2|0:0,0:0:0:0:
169,133,134279,1,2,1:2:0:0:
93,161,134420,37,8,0:0:0:0:
286,227,134562,1,0,1:2:0:0:
93,368,134703,37,10,0:0:0:0:
185,233,134845,2,0,B|171:269|171:269|180:327,1,75,0|0,0:0|1:2,0:0:0:0:
17,193,135128,2,0,L|2:21,1,150,10|8,0:3|0:3,0:0:0:0:
3,43,135553,37,10,0:0:0:0:
207,120,135694,1,8,0:3:0:0:
88,134,135836,37,10,0:3:0:0:
125,25,135977,1,8,0:3:0:0:
255,191,136119,38,0,B|342:211|306:153|449:185,1,165.000005035401,6|0,1:2|0:0,0:0:0:0:
416,178,136543,1,2,0:0:0:0:
452,325,136685,2,0,P|424:289|443:229,1,82.5000025177003,8|2,0:0|0:0,0:0:0:0:
479,110,136968,1,8,0:3:0:0:
479,110,137109,2,0,P|502:151|480:207,1,82.5000025177003,0|2,1:2|0:0,0:0:0:0:
416,178,137392,38,0,P|350:193|221:185,1,165.000005035401,0|2,1:2|0:0,0:0:0:0:
380,94,137817,2,0,B|369:54|369:54|396:9,1,82.5000025177003,8|0,0:0|0:0,0:0:0:0:
266,78,138100,37,0,0:3:0:0:
188,115,138241,1,0,0:3:0:0:
34,41,138383,2,0,B|106:57|106:57|128:76|128:76|204:95,1,165.000005035401,2|0,1:2|0:0,0:0:0:0:
108,163,138807,2,0,P|115:211|113:278,1,82.5000025177003,2|8,0:2|0:0,0:0:0:0:
304,330,139090,37,2,0:0:0:0:
397,307,139232,2,0,P|393:249|254:226,1,165.000005035401,8|2,0:3|1:2,0:0:0:0:
247,252,139656,1,8,0:3:0:0:
114,316,139798,2,0,L|217:330,1,82.5000025177003,0|0,1:2|0:0,0:0:0:0:
397,307,140081,37,8,0:0:0:0:
493,223,140222,1,0,1:2:0:0:
511,302,140364,37,8,0:3:0:0:
377,228,140505,1,8,0:3:0:0:
331,361,140647,38,0,B|278:304|278:304|309:196,1,165.000005035401,2|0,1:2|0:0,0:0:0:0:
460,104,141071,2,0,P|413:139|368:142,1,82.5000025177003,10|8,0:3|0:0,0:0:0:0:
227,186,141354,2,0,P|169:169|62:183,1,165.000005035401,8|0,0:3|1:2,0:0:0:0:
227,186,141779,1,8,0:3:0:0:
246,102,141920,2,0,P|257:62|267:6,1,82.5000025177003,2|0,1:2|0:0,0:0:0:0:
340,293,142203,1,8,0:3:0:0:
324,164,142345,1,8,0:0:0:0:
324,164,142486,2,0,B|436:176|361:218|501:232,1,165.000005035401,2|0,0:0|0:0,0:0:0:0:
182,310,142911,37,2,1:2:0:0:
241,251,143053,1,0,0:3:0:0:
161,230,143194,1,0,0:3:0:0:
102,289,143336,1,2,0:2:0:0:
284,338,143477,37,8,0:0:0:0:
284,338,143619,2,0,P|277:269|277:151,1,165.000005035401,2|0,0:0|0:0,0:0:0:0:
303,42,144043,37,0,1:2:0:0:
373,84,144185,1,8,0:3:0:0:
415,164,144326,37,0,1:2:0:0:
452,53,144468,1,8,0:3:0:0:
275,173,144609,37,8,0:0:0:0:
193,208,144751,1,0,1:2:0:0:
142,286,144892,37,8,0:3:0:0:
31,235,145034,1,2,0:0:0:0:
151,296,145175,2,0,B|249:299|208:264|329:268,1,165.000005035401,2|0,1:2|0:0,0:0:0:0:
481,317,145600,37,2,0:0:0:0:
408,384,145741,2,0,B|397:341|397:341|423:273,1,82.5000025177003,10|0,0:0|0:0,0:0:0:0:
512,98,146024,1,8,0:3:0:0:
395,218,146166,1,2,1:2:0:0:
395,218,146449,2,0,P|352:190|384:60,1,165.000005035401,2|0,1:2|0:0,0:0:0:0:
200,214,146873,38,0,P|137:222|101:229,1,82.5000025177003,8|0,0:0|0:0,0:0:0:0:
118,214,147156,2,0,P|158:220|199:225,1,82.5000025177003,8|0,0:3|0:0,0:0:0:0:
481,317,147439,37,0,1:2:0:0:
395,218,147581,1,0,0:0:0:0:
354,288,147722,37,0,1:0:0:0:
512,244,147864,1,0,0:0:0:0:
454,77,148005,2,0,P|460:132|469:178,1,82.5000025177003,8|0,0:0|0:0,0:0:0:0:
325,0,148288,2,0,P|319:55|310:101,1,82.5000025177003,0|0,0:0|0:0,0:0:0:0:
177,57,148571,1,0,1:2:0:0:
177,57,148713,2,0,B|139:72|139:72|81:55,1,82.5000025177003,0|0,0:0|1:2,0:0:0:0:
250,133,148996,1,0,0:0:0:0:
59,175,149137,37,8,0:0:0:0:
192,322,149279,1,0,1:2:0:0:
268,235,149420,37,8,0:3:0:0:
162,192,149562,1,8,0:3:0:0:
114,368,149703,38,0,B|217:374|158:337|313:349,1,165.000005035401,2|0,1:2|0:0,0:0:0:0:
454,253,150128,1,0,0:0:0:0:
504,373,150270,2,0,P|425:360|393:266,1,165.000005035401,10|0,0:0|0:0,0:0:0:0:
269,133,150694,2,0,B|309:148|309:148|367:133,1,82.5000025177003,2|0,1:2|0:0,0:0:0:0:
501,47,150977,38,0,P|419:68|414:261,1,247.500007553101,2|8,1:2|0:0,0:0:0:0:
224,56,151685,2,0,P|275:53|314:42,1,82.5000025177003,2|0,0:0|0:0,0:0:0:0:
215,229,151968,2,0,P|167:202|166:84,1,165.000005035401,2|0,1:2|0:0,0:0:0:0:
227,223,152392,1,0,0:0:0:0:
66,274,152534,2,0,P|133:284|195:300,1,82.5000025177003,8|0,0:0|0:0,0:0:0:0:
304,315,152817,37,0,0:0:0:0:
293,175,152958,1,8,0:0:0:0:
362,257,153100,37,0,1:2:0:0:
227,223,153241,1,8,0:0:0:0:
306,95,153383,1,8,0:3:0:0:
371,151,153524,1,8,0:3:0:0:
443,211,153666,37,0,1:2:0:0:
464,313,153807,1,8,0:3:0:0:
486,137,153949,37,8,0:3:0:0:
468,46,154090,1,8,0:3:0:0:
189,66,154232,38,0,L|360:102,1,165.000005035401,6|0,1:2|0:0,0:0:0:0:
211,219,154656,1,10,0:3:0:0:
263,271,154798,2,0,B|280:307|280:307|264:361,1,82.5000025177003,8|0,0:0|0:0,0:0:0:0:
146,382,155081,2,0,B|128:346|128:346|141:305,1,82.5000025177003,8|8,0:3|0:3,0:0:0:0:
327,215,155364,38,0,P|366:218|408:226,1,82.5000025177003,2|8,1:2|0:3,0:0:0:0:
491,269,155647,1,8,0:3:0:0:
345,125,155788,2,0,P|324:182|229:204,1,165.000005035401,2|2,1:2|0:0,0:0:0:0:
97,121,156213,38,0,L|183:142,1,82.5000025177003,8|0,0:3|0:0,0:0:0:0:
42,270,156496,2,0,L|21:184,1,82.5000025177003,2|0,1:2|0:0,0:0:0:0:
207,234,156779,1,8,0:3:0:0:
207,234,156920,2,0,L|127:298,1,82.5000025177003,10|8,0:3|0:0,0:0:0:0:
261,129,157203,37,2,0:0:0:0:
115,207,157345,1,8,0:3:0:0:
289,206,157486,37,8,0:3:0:0:
184,100,157628,2,0,B|281:122|254:69|367:95,1,165.000005035401,2|0,1:2|1:2,0:0:0:0:
415,115,158053,1,8,0:3:0:0:
342,269,158194,1,8,0:0:0:0:
391,376,158336,2,0,P|383:340|411:198,1,165.000005035401,0|8,1:0|0:3,0:0:0:0:
452,33,158760,38,0,P|431:73|307:80,1,165.000005035401,2|0,1:2|0:0,0:0:0:0:
137,180,159185,2,0,P|160:182|256:209,1,82.5000025177003,10|8,0:3|0:0,0:0:0:0:
99,111,159468,2,0,P|58:120|18:125,1,82.5000025177003,2|8,0:0|0:3,0:0:0:0:
155,260,159751,37,8,0:3:0:0:
38,375,159892,2,0,L|71:213,1,165.000005035401,2|0,1:2|0:0,0:0:0:0:
269,362,160317,2,0,L|252:269,1,82.5000025177003,2|8,1:2|0:0,0:0:0:0:
57,384,160600,2,0,L|74:299,1,82.5000025177003,2|0,0:0|1:2,0:0:0:0:
164,354,160883,1,0,0:0:0:0:
329,177,161024,37,2,1:2:0:0:
212,218,161166,1,8,0:3:0:0:
256,155,161307,1,0,1:0:0:0:
327,256,161449,2,0,P|347:280|493:272,1,165.000005035401,10|2,0:0|0:0,0:0:0:0:
498,225,161873,1,0,0:0:0:0:
384,135,162015,37,8,0:3:0:0:
460,54,162156,2,0,P|465:81|487:167,1,82.5000025177003,2|8,1:2|0:3,0:0:0:0:
278,69,162439,2,0,P|305:64|391:42,1,82.5000025177003,0|8,1:2|0:3,0:0:0:0:
235,164,162722,2,0,P|241:128|245:-12,1,165.000005035401,8|0,0:0|0:0,0:0:0:0:
134,89,163147,37,0,0:0:0:0:
0,188,163288,2,0,P|30:149|154:127,1,165.000005035401,6|0,1:2|0:0,0:0:0:0:
272,240,163713,1,0,1:2:0:0:
175,317,163854,2,0,L|201:217,1,82.5000025177003,10|0,0:0|0:0,0:0:0:0:
318,331,164137,1,8,0:3:0:0:
245,361,164279,1,8,0:3:0:0:
350,253,164420,38,0,P|383:243|482:332,1,165.000005035401,0|0,1:2|1:2,0:0:0:0:
350,253,164845,1,0,1:2:0:0:
485,143,164986,2,0,P|452:153|308:169,2,165.000005035401,8|0|0,0:0|1:2|1:2,0:0:0:0:
484,124,165836,38,0,P|459:135|379:145,1,82.5000025177003,0|0,0:0|1:2,0:0:0:0:
245,313,166119,2,0,P|256:288|266:208,1,82.5000025177003,8|0,0:0|0:0,0:0:0:0:
449,334,166402,1,8,0:0:0:0:
360,213,166543,2,0,B|374:310|340:279|356:378,2,165.000005035401,8|8|0,0:3|0:0|1:2,0:0:0:0:
204,122,167251,38,0,L|98:148,1,82.5000025177003,8|8,0:0|0:3,0:0:0:0:
124,124,167534,2,0,L|230:150,1,82.5000025177003,0|0,1:2|0:0,0:0:0:0:
6,291,167817,2,0,P|36:237|140:228,1,165.000005035401,2|8,1:2|0:3,0:0:0:0:
184,271,168241,1,0,1:2:0:0:
300,384,168383,2,0,B|288:346|288:346|308:298,1,82.5000025177003,10|0,0:0|0:0,0:0:0:0:
386,124,168666,37,8,0:3:0:0:
316,106,168807,2,0,L|214:125,1,82.5000025177003,10|0,0:0|1:2,0:0:0:0:
375,312,169090,37,10,0:0:0:0:
471,147,169232,1,0,1:2:0:0:
375,207,169373,1,8,0:3:0:0:
483,384,169515,1,8,0:0:0:0:
483,384,169656,2,0,P|488:358|482:190,1,165.000005035401,0|0,1:2|0:0,0:0:0:0:
411,106,170081,37,8,0:3:0:0:
317,16,170222,1,8,0:0:0:0:
283,142,170364,1,8,0:3:0:0:
337,87,170505,1,0,1:2:0:0:
163,3,170647,2,0,L|262:33,1,82.5000025177003,8|0,0:0|0:0,0:0:0:0:
126,148,170930,37,0,1:2:0:0:
84,18,171071,2,0,L|30:194,1,165.000005035401,8|8,0:3|0:3,0:0:0:0:
193,254,171496,1,0,1:2:0:0:
124,224,171637,1,8,0:3:0:0:
9,346,171779,37,0,1:2:0:0:
127,298,171920,1,8,0:3:0:0:
278,379,172062,37,8,0:3:0:0:
198,339,172203,1,8,0:3:0:0:
331,312,172345,70,0,B|435:296|407:332|512:309,1,180,6|0,1:2|0:0,0:0:0:0:
512,323,172911,2,0,P|482:328|378:316,1,120,2|0,1:2|0:0,0:0:0:0:
251,273,173477,37,0,1:2:0:0:
390,206,173619,2,0,P|352:211|254:249,1,120,2|0,0:0|0:0,0:0:0:0:
144,305,174043,37,0,1:2:0:0:
179,240,174185,1,0,0:0:0:0:
137,263,174326,1,0,0:0:0:0:
180,284,174468,1,0,0:0:0:0:
126,178,174609,38,0,L|-27:209,1,120,2|0,1:2|0:0,0:0:0:0:
48,78,175034,1,0,0:0:0:0:
115,56,175175,2,0,L|248:83,1,120,2|0,1:2|0:0,0:0:0:0:
340,209,175600,2,0,P|352:181|356:126,1,60,2|0,0:0|1:2,0:0:0:0:
423,108,175883,2,0,P|449:164|457:224,1,120,2|0,0:0|0:0,0:0:0:0:
367,363,176307,1,0,1:2:0:0:
477,306,176449,1,0,0:0:0:0:
399,288,176590,1,2,0:0:0:0:
444,384,176732,1,0,0:0:0:0:
318,293,176873,38,0,P|275:290|141:360,1,180,2|0,1:2|0:0,0:0:0:0:
20,232,177439,2,0,P|44:240|153:268,1,120,2|0,1:2|0:0,0:0:0:0:
4,370,177864,38,0,P|23:345|46:285,1,60,2|0,0:0|1:2,0:0:0:0:
217,235,178147,2,0,P|203:194|132:154,1,120,2|0,0:0|0:0,0:0:0:0:
16,57,178571,1,0,1:2:0:0:
86,30,178713,1,0,0:0:0:0:
145,78,178854,1,0,0:0:0:0:
75,110,178996,1,2,0:0:0:0:
19,232,179137,6,0,P|211:342|183:10,1,720,2|0,1:2|0:0,0:0:0:0:
182,16,181119,22,0,L|174:70,1,30,2|0,0:2|0:0,0:0:0:0:
153,53,181260,2,0,L|164:99,1,30,2|0,0:0|0:0,0:0:0:0:
205,145,181402,70,2,L|180:338,1,179.999994506836,6|0,1:3|0:0,1:0:0:0:
322,129,181826,2,0,P|375:123|429:113,1,89.9999972534181,2|8,0:3|0:0,0:0:0:0:
411,116,182109,1,0,0:0:0:0:
328,320,182251,1,10,0:3:0:0:
395,364,182392,2,0,P|408:316|408:253,1,89.9999972534181,0|0,1:2|0:0,0:0:0:0:
192,172,182675,38,0,B|86:186|131:230|14:238,1,179.999994506836,0|0,1:2|0:0,0:0:0:0:
213,92,183100,1,8,0:0:0:0:
93,25,183241,1,0,0:0:0:0:
132,91,183383,1,8,0:3:0:0:
191,0,183524,1,0,0:0:0:0:
348,84,183666,38,2,P|356:168|371:268,1,179.999994506836,2|0,1:3|0:0,1:0:0:0:
194,211,184090,2,0,P|147:231|103:246,1,89.9999972534181,10|8,0:3|0:0,0:0:0:0:
259,277,184373,1,0,0:0:0:0:
429,119,184515,2,0,B|410:161|410:161|430:209,1,89.9999972534181,2|0,1:3|0:0,0:0:0:0:
321,113,184798,37,0,1:2:0:0:
194,211,184939,2,0,B|224:129|224:129|188:29,1,179.999994506836,8|0,0:0|0:0,0:0:0:0:
192,41,185364,1,8,0:0:0:0:
58,189,185505,1,0,1:2:0:0:
88,263,185647,2,0,P|35:272|-13:292,1,89.9999972534181,0|0,0:0|0:0,0:0:0:0:
195,130,185930,38,2,P|259:201|351:191,1,179.999994506836,2|0,1:3|0:0,1:0:0:0:
499,59,186354,2,0,P|459:88|406:111,1,89.9999972534181,2|8,0:3|0:0,0:0:0:0:
415,186,186637,1,0,0:0:0:0:
314,111,186779,1,10,0:3:0:0:
239,234,186920,2,0,B|256:194|256:194|235:141,1,89.9999972534181,0|0,1:2|0:0,0:0:0:0:
451,297,187203,38,0,L|255:346,1,179.999994506836,0|0,1:2|0:0,0:0:0:0:
276,340,187628,1,8,0:0:0:0:
429,223,187770,1,0,0:0:0:0:
506,207,187911,1,8,0:3:0:0:
374,150,188053,1,0,0:0:0:0:
449,117,188194,38,2,P|446:240|452:306,1,179.999994506836,2|0,1:3|0:0,1:0:0:0:
297,122,188619,2,0,P|246:111|186:90,1,89.9999972534181,10|8,0:3|0:0,0:0:0:0:
17,164,188902,2,0,B|34:123|34:123|8:72,1,89.9999972534181,2|0,0:3|1:2,0:0:0:0:
13,82,189185,1,2,0:3:0:0:
186,247,189326,2,0,B|281:260|247:307|356:324,2,179.999994506836,0|0|8,1:2|1:2|0:0,0:0:0:0:
11,377,190034,37,0,1:2:0:0:
60,317,190175,1,8,0:3:0:0:
97,377,190317,1,8,0:3:0:0:
166,266,190458,38,2,P|152:162|149:67,1,179.999994506836,6|0,1:3|0:0,1:0:0:0:
148,87,190883,2,0,P|105:77|57:61,1,89.9999972534181,2|8,0:3|0:0,0:0:0:0:
265,172,191166,2,0,P|308:182|356:198,1,89.9999972534181,0|8,0:0|0:3,0:0:0:0:
166,266,191449,2,0,P|83:287|55:373,1,179.999994506836,2|0,1:3|0:0,0:0:0:0:
293,265,191873,2,0,B|252:154|335:206|284:79,1,179.999994506836,2|8,0:3|0:0,0:0:0:0:
289,92,192298,37,8,0:3:0:0:
358,139,192439,1,8,0:3:0:0:
219,258,192581,1,8,0:3:0:0:
337,368,192722,38,2,P|417:349|530:344,1,179.999994506836,2|0,1:3|0:0,1:0:0:0:
337,368,193147,2,0,P|286:360|237:357,1,89.9999972534181,10|8,0:3|0:0,0:0:0:0:
287,289,193430,1,0,0:0:0:0:
223,116,193571,2,0,P|267:112|312:105,1,89.9999972534181,2|0,1:3|0:0,0:0:0:0:
162,219,193854,37,0,1:2:0:0:
355,299,193996,2,0,B|247:314|301:360|174:385,1,179.999994506836,8|0,0:0|0:0,0:0:0:0:
419,233,194420,37,8,0:0:0:0:
353,189,194562,1,0,1:2:0:0:
462,168,194703,1,8,0:3:0:0:
396,124,194845,1,8,0:3:0:0:
239,224,194986,38,0,P|183:240|138:246,1,89.9999972534181,6|0,1:3|0:0,1:0:0:0:
190,315,195270,1,0,0:0:0:0:
0,197,195411,2,0,B|21:238|21:238|3:295,1,89.9999972534181,2|8,0:3|0:0,0:0:0:0:
171,123,195694,2,0,L|180:26,1,89.9999972534181,2|8,0:3|0:3,0:0:0:0:
317,263,195977,2,0,P|404:254|439:161,1,179.999994506836,2|0,1:3|1:2,0:0:0:0:
441,177,196402,2,0,P|385:170|325:154,1,89.9999972534181,0|2,0:0|0:3,0:0:0:0:
213,313,196685,38,0,B|101:306|143:357|36:358,1,179.999994506836,8|0,0:0|0:0,0:0:0:0:
213,313,197109,1,0,0:0:0:0:
364,341,197251,38,2,P|354:257|353:136,1,179.999994506836,2|0,1:3|0:0,1:0:0:0:
351,161,197675,1,0,1:2:0:0:
210,35,197817,37,8,0:0:0:0:
86,94,197958,1,0,0:0:0:0:
113,20,198100,1,0,1:2:0:0:
233,194,198241,38,0,B|220:152|220:152|243:111,1,89.9999972534181,8|0,0:0|0:0,0:0:0:0:
86,287,198524,2,0,L|-8:315,1,89.9999972534181,8|0,0:0|1:2,0:0:0:0:
102,218,198807,37,8,0:0:0:0:
289,305,198949,1,8,0:0:0:0:
482,226,199090,37,10,0:3:0:0:
406,200,199232,1,10,0:3:0:0:
450,142,199373,1,10,0:3:0:0:
347,1,199515,38,2,B|449:19|405:56|519:65,1,179.999994506836,6|0,1:3|0:0,1:0:0:0:
277,59,199939,2,0,P|227:51|181:37,1,89.9999972534181,2|8,0:3|0:0,0:0:0:0:
189,40,200222,1,0,0:0:0:0:
90,141,200364,1,10,0:3:0:0:
12,12,200505,2,0,B|35:52|35:52|19:106,1,89.9999972534181,0|0,1:2|0:0,0:0:0:0:
221,233,200788,38,0,L|29:283,1,179.999994506836,0|0,1:2|0:0,0:0:0:0:
221,233,201213,1,8,0:0:0:0:
414,282,201354,1,0,0:0:0:0:
304,290,201496,37,8,0:3:0:0:
324,214,201637,1,0,0:0:0:0:
189,333,201779,38,2,B|94:345|128:389|18:384,1,179.999994506836,2|0,1:3|0:0,1:0:0:0:
221,233,202203,2,0,P|213:182|214:131,1,89.9999972534181,10|8,0:3|0:0,0:0:0:0:
137,158,202486,1,0,0:0:0:0:
32,0,202628,2,0,P|27:114|9:206,1,179.999994506836,2|0,1:3|1:2,0:0:0:0:
204,65,203053,38,0,P|255:60|301:46,1,89.9999972534181,8|0,0:0|0:0,0:0:0:0:
292,49,203336,1,0,0:0:0:0:
493,146,203477,2,0,B|474:105|474:105|497:59,1,89.9999972534181,8|0,0:0|1:2,0:0:0:0:
359,161,203760,37,8,0:3:0:0:
510,280,203902,1,8,0:3:0:0:
340,365,204043,38,2,B|239:358|283:318|166:314,1,179.999994506836,2|0,1:3|0:0,1:0:0:0:
359,161,204468,2,0,B|334:198|334:198|342:242,1,89.9999972534181,2|8,0:3|0:0,0:0:0:0:
226,166,204751,1,0,0:0:0:0:
429,67,204892,1,10,0:3:0:0:
369,17,205034,2,0,P|322:10|267:-5,1,89.9999972534181,0|0,1:2|0:0,0:0:0:0:
417,250,205317,38,0,P|497:221|513:136,1,179.999994506836,0|0,1:2|0:0,0:0:0:0:
342,242,205741,1,8,0:0:0:0:
492,355,205883,1,0,0:0:0:0:
396,168,206024,37,8,0:3:0:0:
269,326,206166,1,8,0:3:0:0:
111,236,206307,38,2,P|120:151|120:49,1,179.999994506836,2|0,1:3|0:0,1:0:0:0:
120,56,206732,2,0,L|206:84,1,89.9999972534181,10|8,0:3|0:0,0:0:0:0:
413,22,207015,2,0,B|389:62|389:62|401:113,1,89.9999972534181,2|0,0:3|1:2,0:0:0:0:
398,104,207298,1,2,0:3:0:0:
327,188,207439,37,0,1:2:0:0:
505,87,207581,1,8,0:0:0:0:
413,22,207722,2,0,P|363:15|318:3,1,89.9999972534181,0|0,1:2|0:0,0:0:0:0:
131,122,208005,37,8,0:0:0:0:
201,161,208147,1,0,1:2:0:0:
210,43,208288,37,8,0:3:0:0:
105,245,208430,1,8,0:3:0:0:
8,178,208571,38,2,P|18:93|21:-6,1,179.999994506836,6|0,1:3|0:0,1:0:0:0:
201,161,208996,2,0,P|253:156|302:144,1,89.9999972534181,2|8,0:3|0:0,0:0:0:0:
161,301,209279,2,0,B|182:343|182:343|168:388,1,89.9999972534181,0|8,0:0|0:3,0:0:0:0:
349,255,209562,38,0,B|438:275|408:312|514:325,1,179.999994506836,2|0,1:3|1:0,0:0:0:0:
386,148,209986,2,0,P|378:95|378:52,1,89.9999972534181,2|0,0:0|0:0,0:0:0:0:
309,97,210270,1,8,0:0:0:0:
359,35,210411,1,8,0:3:0:0:
254,20,210553,37,0,1:3:0:0:
474,133,210694,1,8,0:3:0:0:
273,253,210836,38,2,B|173:237|208:199|103:191,1,179.999994506836,2|0,1:3|0:0,1:0:0:0:
249,368,211260,2,0,P|301:357|354:355,1,89.9999972534181,10|8,0:3|0:0,0:0:0:0:
337,354,211543,1,0,0:0:0:0:
500,211,211685,2,0,B|477:250|477:250|494:296,1,89.9999972534181,2|0,1:3|0:0,0:0:0:0:
341,170,211968,37,0,1:2:0:0:
374,101,212109,1,8,0:0:0:0:
204,0,212251,2,0,B|243:79|243:79|210:181,1,179.999994506836,0|8,1:0|0:0,0:0:0:0:
143,202,212675,1,0,1:2:0:0:
256,351,212817,2,0,P|211:357|169:372,1,89.9999972534181,8|0,0:3|0:0,0:0:0:0:
341,170,213100,38,2,P|405:241|490:240,1,179.999994506836,6|0,1:3|0:0,1:0:0:0:
315,60,213524,2,0,B|212:74|253:117|135:109,1,179.999994506836,2|0,1:3|0:0,0:0:0:0:
315,60,213949,1,8,0:3:0:0:
393,74,214090,2,0,P|441:68|494:55,1,89.9999972534181,2|0,1:3|0:0,0:0:0:0:
358,209,214373,37,0,1:2:0:0:
503,347,214515,1,0,0:0:0:0:
457,231,214656,37,10,0:3:0:0:
303,367,214798,2,0,P|224:338|212:246,1,179.999994506836,8|0,0:0|0:0,0:0:0:0:
315,60,215222,1,8,0:0:0:0:
378,108,215364,37,2,1:3:0:0:
193,0,215505,2,0,B|215:41|215:41|196:97,1,89.9999972534181,8|0,0:0|0:0,0:0:0:0:
355,228,215788,37,0,1:2:0:0:
316,297,215930,2,0,P|366:306|415:321,1,89.9999972534181,8|0,0:0|0:0,0:0:0:0:
201,82,216213,37,8,0:3:0:0:
240,151,216354,2,0,P|190:160|141:175,1,89.9999972534181,8|0,0:0|1:2,0:0:0:0:
348,28,216637,37,8,0:3:0:0:
443,82,216779,2,0,B|431:39|431:39|453:0,1,89.9999972534181,0|8,1:2|0:3,0:0:0:0:
327,217,217062,37,0,1:2:0:0:
367,285,217203,1,8,0:3:0:0:
385,163,217345,37,8,0:3:0:0:
280,354,217486,1,8,0:3:0:0:
456,323,217628,6,0,B|356:316|402:369|274:357,1,179.999994506836,4|0,1:2|0:0,1:0:0:0:
456,323,218053,1,0,1:3:0:0:
485,247,218194,2,2,B|497:197|497:197|490:161|490:161|508:89,1,150,10|8,0:0|0:3,1:0:0:0:
509,104,218619,2,0,P|460:119|407:119,1,75,0|2,1:3|0:2,0:0:0:0:
342,123,218902,1,0,1:3:0:0:
416,205,219043,2,0,L|338:198,1,75,2|0,0:2|0:0,0:0:0:0:
223,56,219326,38,0,P|246:144|237:260,1,150,8|0,0:0|0:0,0:0:0:0:
164,113,219751,1,8,0:3:0:0:
203,270,219892,2,2,P|133:268|81:197,1,150,2|8,1:2|0:3,1:0:0:0:
172,351,220317,2,0,L|331:366,1,150,8|0,0:0|0:0,0:0:0:0:
451,266,220741,37,8,0:3:0:0:
383,226,220883,1,8,0:3:0:0:
376,305,221024,1,0,1:3:0:0:
458,189,221166,1,8,0:3:0:0:
458,189,221307,2,0,P|447:131|445:24,1,150,2|8,1:2|0:0,0:0:0:0:
308,173,221732,37,0,1:3:0:0:
173,161,221873,1,8,0:3:0:0:
308,160,222015,1,8,0:3:0:0:
148,245,222156,38,0,B|136:165|257:158|292:262|227:368,1,269.999991760254,6|0,1:2|0:0,0:0:0:0:
153,251,222722,2,2,B|179:163|107:184|146:90,1,150,10|0,0:0|0:0,1:0:0:0:
79,216,223147,1,0,1:3:0:0:
1,241,223288,1,8,0:3:0:0:
221,148,223430,37,8,0:0:0:0:
306,179,223571,2,0,P|367:194|470:207,1,150,2|8,1:2|0:0,0:0:0:0:
306,179,223996,1,0,1:3:0:0:
238,231,224137,2,0,B|217:261|217:261|222:308,1,75,8|0,0:0|0:0,0:0:0:0:
387,109,224420,37,2,1:2:0:0:
387,109,224562,2,2,P|405:54|328:2,1,150,8|2,0:0|1:2,1:0:0:0:
440,27,224986,2,0,P|505:45|556:51,1,75,8|0,0:0|0:0,0:0:0:0:
461,150,225270,1,10,0:0:0:0:
387,109,225411,1,8,0:3:0:0:
268,218,225553,37,0,1:3:0:0:
297,297,225694,1,8,0:0:0:0:
380,274,225836,1,10,0:2:0:0:
351,194,225977,1,0,1:3:0:0:
88,64,226119,37,0,1:3:0:0:
59,153,226260,1,0,1:3:0:0:
180,137,226402,37,8,0:3:0:0:
202,285,226543,1,8,0:3:0:0:
63,157,226685,38,0,B|130:166|130:166|160:193|160:193|258:211,1,179.999994506836,4|0,1:3|0:0,0:0:0:0:
313,241,227109,1,0,1:3:0:0:
219,373,227251,2,0,P|208:322|199:269,1,89.9999972534181,10|0,0:0|0:0,1:0:0:0:
71,384,227534,2,0,P|83:333|91:290,1,89.9999972534181,8|0,0:0|1:3,1:0:0:0:
66,145,227817,1,2,0:2:0:0:
22,220,227958,1,8,0:0:0:0:
167,151,228100,38,0,B|139:33|24:67|24:67,1,179.999994506836,2|8,1:2|0:0,0:0:0:0:
167,151,228524,1,0,1:3:0:0:
230,88,228666,2,0,B|270:69|270:69|327:80,1,89.9999972534181,0|0,0:0|1:3,0:0:0:0:
487,213,228949,38,2,B|383:214|421:166|287:178,1,179.999994506836,2|0,1:2|0:0,1:0:0:0:
368,379,229373,1,2,1:2:0:0:
372,383,229515,2,0,L|391:182,1,179.999994506836,8|2,0:0|0:2,0:0:0:0:
384,193,229939,2,0,L|389:311,1,89.9999972534181,0|0,1:3|0:0,0:0:0:0:
260,232,230222,37,8,0:0:0:0:
181,214,230364,1,8,0:3:0:0:
264,207,230505,1,0,1:3:0:0:
384,193,230647,37,8,0:0:0:0:
190,97,230788,1,0,1:3:0:0:
355,31,230930,37,8,0:3:0:0:
183,104,231071,1,8,0:3:0:0:
251,16,231213,38,0,B|295:10|328:35|328:35|344:56|344:56|371:84|429:85,1,179.999994506836,4|0,1:3|0:0,0:0:0:0:
408,83,231637,1,0,1:3:0:0:
281,108,231779,2,2,P|275:179|266:304,1,179.999994506836,10|0,0:0|0:0,1:0:0:0:
267,287,232203,1,8,0:0:0:0:
198,147,232345,2,0,B|157:168|157:168|89:160,1,89.9999972534181,2|8,1:2|0:0,0:0:0:0:
92,292,232628,2,0,P|144:289|208:399,1,179.999994506836,2|8,1:2|0:0,0:0:0:0:
313,220,233053,1,0,1:3:0:0:
313,220,233194,2,0,B|354:241|354:241|422:233,1,89.9999972534181,10|0,0:0|0:0,0:0:0:0:
497,105,233477,37,2,0:2:0:0:
418,62,233902,37,2,0:2:0:0:
341,95,234326,37,2,0:2:0:0:
264,57,234892,53,2,1:2:0:0:
193,103,235034,37,0,1:3:0:0:
131,49,235175,37,0,1:3:0:0:
131,49,235317,2,0,L|150:-6,2,37.5
0,191,235741,54,2,B|97:149|101:223|179:213,1,179.999994506836,6|0,1:3|0:0,1:0:0:0:
490,314,236166,2,0,B|393:272|389:346|311:336,1,179.999994506836,10|0,0:3|0:0,0:0:0:0:
329,243,236590,37,10,0:3:0:0:
453,139,236732,2,0,P|459:184|470:236,1,89.9999972534181,0|0,1:2|0:0,0:0:0:0:
299,100,237015,1,8,0:2:0:0:
183,189,237156,2,0,B|190:102|225:147|224:39,1,134.999995880127,0|0,1:0|0:0,0:0:0:0:
223,62,237439,2,0,P|190:60|120:39,1,89.9999972534181,8|0,0:0|0:0,0:0:0:0:
224,264,237722,37,8,0:3:0:0:
346,176,237864,1,0,0:0:0:0:
508,230,238005,2,2,P|433:234|317:261,1,179.999994506836,2|0,1:3|0:0,1:0:0:0:
477,46,238430,2,0,P|496:78|489:153,1,89.9999972534181,10|8,0:3|0:0,0:0:0:0:
407,75,238713,1,0,0:0:0:0:
346,176,238854,2,0,P|327:144|334:69,1,89.9999972534181,2|0,1:3|0:0,0:0:0:0:
508,230,239137,37,4,1:3:0:0:
401,288,239279,1,8,0:0:0:0:
508,300,239420,1,0,0:0:0:0:
407,214,239562,1,8,0:3:0:0:
273,325,239703,37,8,0:0:0:0:
181,378,239845,2,0,L|386:352,1,179.999994506836,0|0,1:2|1:0,0:0:0:0:
359,355,240199,1,0,1:0:0:0:
359,355,240270,38,0,L|253:334,1,89.9999972534181,6|0,1:3|0:0,1:0:0:0:
98,277,240553,1,8,0:3:0:0:
175,371,240694,1,2,0:3:0:0:
341,237,240836,2,0,P|271:220|193:292,1,179.999994506836,8|2,0:0|0:3,0:0:0:0:
449,351,241260,38,0,P|455:326|443:259,1,89.9999972534181,0|0,1:2|0:3,0:0:0:0:
283,297,241543,2,0,P|277:322|289:389,1,89.9999972534181,0|0,1:2|0:0,0:0:0:0:
367,323,241826,1,0,0:0:0:0:
201,214,241968,37,8,0:0:0:0:
139,172,242109,1,8,0:3:0:0:
187,289,242251,1,8,0:3:0:0:
276,188,242392,1,0,1:0:0:0:
113,249,242534,38,0,P|96:258|10:293,1,89.9999972534181,2|0,1:3|0:0,1:0:0:0:
215,128,242817,1,8,0:3:0:0:
215,128,242958,2,0,P|210:105|200:25,1,89.9999972534181,2|8,1:3|0:0,0:0:0:0:
276,270,243241,2,0,P|300:287|464:297,1,179.999994506836,10|10,0:3|0:3,0:0:0:0:
445,303,243595,1,8,0:3:0:0:
445,303,243666,37,0,1:2:0:0:
321,267,243807,1,8,0:0:0:0:
176,365,243949,1,0,1:3:0:0:
176,365,244232,37,8,0:0:0:0:
93,324,244373,1,0,1:2:0:0:
228,244,244515,37,8,0:3:0:0:
341,191,244656,1,8,0:3:0:0:
180,143,244798,38,2,B|70:129|126:89|6:75,1,179.999994506836,6|0,1:3|0:0,1:0:0:0:
185,26,245222,2,0,P|210:22|289:5,1,89.9999972534181,2|8,0:3|0:0,0:0:0:0:
449,168,245505,2,0,P|452:187|477:271,1,89.9999972534181,0|8,0:0|0:3,0:0:0:0:
501,43,245788,38,0,P|468:115|357:128,1,179.999994506836,2|0,1:3|1:0,0:0:0:0:
133,250,246213,2,0,P|152:245|248:238,1,89.9999972534181,2|8,0:3|0:3,0:0:0:0:
403,342,246496,1,8,0:0:0:0:
340,255,246637,1,8,0:3:0:0:
326,332,246779,1,8,0:3:0:0:
424,249,246920,1,8,0:3:0:0:
258,280,247062,38,2,P|206:271|219:148,1,179.999994506836,6|0,1:3|0:0,1:0:0:0:
263,122,247486,1,10,0:3:0:0:
182,13,247628,1,8,0:0:0:0:
256,42,247770,1,2,1:3:0:0:
471,145,247911,37,14,0:0:0:0:
332,185,248053,1,0,1:0:0:0:
365,109,248336,37,8,0:0:0:0:
492,224,248477,1,0,1:0:0:0:
416,207,248619,1,8,0:3:0:0:
260,339,248760,1,8,0:0:0:0:
342,372,248902,37,0,1:2:0:0:
342,372,248973,1,8,0:3:0:0:
342,372,249043,1,8,0:3:0:0:
274,260,249185,1,0,1:0:0:0:
174,341,249326,2,2,P|129:358|22:275,1,179.999994506836,6|0,1:3|0:0,1:0:0:0:
291,178,249751,38,0,L|364:189,1,44.999998626709,10|0,0:3|0:0,0:0:0:0:
343,206,249892,2,0,B|453:205|411:266|521:269,1,179.999994506836,8|8,0:0|0:3,0:0:0:0:
512,243,250317,2,0,B|464:252|464:252|419:295,1,89.9999972534181,2|0,1:3|0:0,0:0:0:0:
245,383,250600,37,8,0:2:0:0:
306,266,250741,1,8,0:3:0:0:
288,360,250883,1,2,1:3:0:0:
137,255,251024,37,8,0:0:0:0:
228,299,251166,1,0,1:0:0:0:
441,142,251307,37,14,0:2:0:0:
332,186,251449,1,8,0:3:0:0:
452,228,251590,37,2,1:3:0:0:
317,112,251732,1,8,0:0:0:0:
258,161,251873,1,8,0:3:0:0:
332,186,252015,1,0,1:2:0:0:
228,299,252156,2,0,B|344:288|284:348|430:332,1,179.999994506836,12|0,0:0|1:2,0:0:0:0:
403,313,252581,1,0,1:2:0:0:
161,358,252722,38,0,P|117:347|126:215,1,179.999994506836,8|0,0:0|0:0,0:0:0:0:
250,71,253147,1,8,0:0:0:0:
269,144,253288,1,0,1:2:0:0:
350,47,253430,37,10,0:0:0:0:
186,126,253571,1,10,0:0:0:0:
392,221,253713,1,10,0:0:0:0:
161,358,253854,37,6,1:3:0:0:
269,144,253996,2,2,B|302:258|240:202|282:330,1,179.999994506836,8|0,0:0|0:0,1:0:0:0:
131,190,254420,2,0,P|114:187|37:152,1,89.9999972534181,8|0,0:0|0:0,0:0:0:0:
179,260,254703,1,10,0:3:0:0:
361,115,254845,2,0,P|392:90|502:83,1,134.999995880127,0|0,1:2|0:0,0:0:0:0:
483,77,255128,2,0,P|485:104|510:190,1,89.9999972534181,0|0,1:2|0:0,0:0:0:0:
417,289,255411,1,0,0:0:0:0:
413,194,255553,37,8,0:0:0:0:
291,266,255694,1,8,0:3:0:0:
395,365,255836,1,8,0:3:0:0:
512,285,255977,1,8,0:3:0:0:
402,272,256119,38,2,B|338:251|338:251|321:211|321:211|244:186,1,179.999994506836,6|0,1:3|0:0,1:0:0:0:
27,340,256543,2,0,P|78:328|224:311,1,179.999994506836,10|0,0:2|0:0,0:0:0:0:
69,251,256968,1,2,1:3:0:0:
266,106,257109,2,0,B|225:89|225:89|172:98,1,89.9999972534181,8|0,0:0|1:2,0:0:0:0:
332,293,257392,1,8,0:0:0:0:
419,190,257534,2,0,P|443:189|513:179,1,89.9999972534181,0|0,1:1|1:0,1:0:0:0:
404,357,257817,37,8,0:0:0:0:
300,212,257958,1,0,1:2:0:0:
423,269,258100,1,8,0:3:0:0:
268,352,258241,1,0,1:0:0:0:
341,285,258383,38,2,B|323:187|362:220|333:105,1,179.999994506836,6|0,1:3|0:0,1:0:0:0:
203,310,258807,2,0,P|179:314|97:334,1,89.9999972534181,2|8,1:3|0:0,0:0:0:0:
216,136,259090,2,0,P|224:180|234:224,1,89.9999972534181,8|10,0:3|0:3,0:0:0:0:
2,304,259373,37,0,1:2:0:0:
141,211,259515,1,8,0:3:0:0:
0,69,259656,1,0,1:2:0:0:
55,216,259798,2,0,B|43:174|43:174|68:127,1,89.9999972534181,0|0,1:0|0:0,0:0:0:0:
235,8,260081,37,8,0:0:0:0:
293,132,260222,1,8,0:3:0:0:
334,51,260364,1,8,0:3:0:0:
198,138,260505,1,8,0:3:0:0:
330,210,260647,2,2,B|430:189|408:237|526:202,1,179.999994506836,2|0,1:3|0:0,1:0:0:0:
274,279,261071,37,10,0:3:0:0:
154,370,261213,2,0,P|94:379|32:277,1,179.999994506836,12|0,0:0|1:2,0:0:0:0:
113,154,261637,37,2,1:3:0:0:
113,154,261708,1,8,0:3:0:0:
113,154,261779,1,8,1:3:0:0:
182,170,261920,1,0,1:0:0:0:
162,243,262062,1,0,1:2:0:0:
87,224,262203,1,8,0:3:0:0:
265,103,262345,37,8,0:0:0:0:
285,189,262486,1,0,1:2:0:0:
373,160,262628,1,8,0:3:0:0:
354,75,262770,1,8,0:3:0:0:
181,270,262911,38,2,L|382:293,1,179.999994506836,6|0,1:3|0:0,1:0:0:0:
406,344,263336,1,2,0:3:0:0:
216,158,263477,38,0,L|32:187,1,179.999994506836,12|8,0:0|0:3,0:0:0:0:
179,266,263902,1,2,1:3:0:0:
179,266,264185,1,8,0:0:0:0:
90,322,264326,1,2,1:3:0:0:
189,354,264468,1,8,0:3:0:0:
277,292,264609,1,8,0:0:0:0:
178,253,264751,1,0,1:0:0:0:
290,370,264892,37,8,0:3:0:0:
377,298,265034,1,8,0:3:0:0:
495,384,265175,2,2,B|522:290|479:326|513:212,1,134.999995880127,6|0,1:3|0:0,1:0:0:0:
503,250,265458,2,0,P|475:248|397:223,1,89.9999972534181,0|10,0:0|0:3,0:0:0:0:
139,125,265741,2,0,P|167:123|245:98,1,89.9999972534181,8|0,0:0|0:0,0:0:0:0:
168,254,266024,37,6,1:3:0:0:
333,79,266166,2,0,P|371:82|443:160,1,134.999995880127,8|0,0:0|0:0,0:0:0:0:
438,145,266449,2,0,P|428:171|413:253,1,89.9999972534181,8|4,0:0|0:0,0:0:0:0:
488,333,266732,1,0,1:0:0:0:
312,384,266873,37,8,0:0:0:0:
499,250,267015,2,0,B|351:226|425:323|244:283,1,224.999993133545,4|0,1:3|0:0,0:0:0:0:
196,227,267439,38,2,L|2:263,1,179.999994506836,6|0,1:3|0:0,1:0:0:0:
287,158,267864,2,0,L|403:174,1,89.9999972534181,2|8,0:3|0:0,0:0:0:0:
437,216,268147,1,8,0:3:0:0:
505,186,268288,1,0,1:0:0:0:
291,282,268430,37,10,0:3:0:0:
291,282,268713,1,8,0:3:0:0:
397,315,268854,1,8,0:3:0:0:
321,188,268996,1,2,1:3:0:0:
186,273,269137,1,12,0:0:0:0:
269,384,269279,1,0,1:2:0:0:
412,221,269420,37,0,1:2:0:0:
418,174,269491,1,0,1:2:0:0:
407,137,269562,1,0,1:2:0:0:
417,99,269633,1,0,1:2:0:0:
417,99,269703,2,0,P|460:105|505:72,1,89.9999972534181,6|8,1:3|0:0,0:0:0:0:
512,7,269916,1,8,0:0:0:0:
512,7,269986,1,8,0:0:0:0:
348,42,270128,1,8,0:0:0:0:
287,86,270270,37,4,1:3:0:0:
183,50,270411,1,8,0:0:0:0:
144,112,270553,37,8,0:0:0:0:
12,167,270694,1,8,0:3:0:0:
164,181,270836,37,8,0:3:0:0:
271,240,270977,1,8,0:3:0:0:
271,240,271048,1,8,0:3:0:0:
271,240,271119,1,0,1:2:0:0:
109,360,271260,37,8,0:3:0:0:
135,284,271402,1,0,1:2:0:0:
204,324,271543,1,8,0:3:0:0:
153,330,271685,1,0,1:2:0:0:
153,330,271826,1,8,0:3:0:0:
28,247,271968,70,0,L|63:77,1,165.000005035401,4|0,1:3|0:0,0:0:0:0:
3,35,272392,1,0,1:3:0:0:
205,183,272534,2,2,B|308:174|263:141|373:136,1,165.000005035401,14|8,0:0|0:3,1:0:0:0:
250,295,272958,1,0,1:3:0:0:
342,382,273100,2,0,P|341:308|332:282,1,82.5000025177003,2|8,0:0|0:0,0:0:0:0:
205,183,273383,37,2,1:3:0:0:
78,290,273524,1,8,0:3:0:0:
78,290,273595,1,8,0:3:0:0:
78,290,273666,2,0,P|64:157|72:105,1,165.000005035401,8|8,0:0|0:3,0:0:0:0:
127,77,274090,1,0,0:0:0:0:
284,206,274232,38,0,L|177:174,1,82.5000025177003,2|0,1:3|0:0,1:0:0:0:
360,53,274515,1,8,0:3:0:0:
299,0,274656,2,0,P|273:61|276:99,1,82.5000025177003,10|8,0:3|0:0,0:0:0:0:
387,219,274939,1,0,0:0:0:0:
255,370,275081,1,2,1:3:0:0:
455,355,275222,38,0,B|352:336|412:305|288:284,2,165.000005035401,8|8|8,0:0|0:0|0:3,0:0:0:0:
202,224,275930,37,8,0:0:0:0:
304,173,276071,1,8,0:3:0:0:
464,89,276213,37,8,0:3:0:0:
338,43,276354,1,8,0:3:0:0:
416,17,276496,38,0,P|422:207|424:218,1,165.000005035401,4|0,1:3|0:0,0:0:0:0:
242,346,276920,1,8,0:3:0:0:
313,373,277062,2,2,P|319:183|321:172,1,165.000005035401,10|8,0:0|0:3,1:0:0:0:
166,63,277486,37,2,1:3:0:0:
166,63,277557,1,0,1:0:0:0:
166,63,277628,1,0,1:3:0:0:
9,177,277770,1,0,1:3:0:0:
113,245,277911,2,0,P|203:220|212:219,1,82.5000025177003,10|0,0:3|1:3,0:0:0:0:
386,97,278194,37,8,0:0:0:0:
323,296,278336,1,8,0:0:0:0:
459,243,278477,37,2,0:3:0:0:
316,168,278619,1,0,1:3:0:0:
490,0,278760,38,2,P|479:178|481:197,1,165.000005035401,2|8,1:3|0:3,1:0:0:0:
292,48,279185,2,0,L|191:24,1,82.5000025177003,2|8,1:3|0:0,0:0:0:0:
246,124,279468,1,0,0:0:0:0:
179,284,279609,2,0,L|259:264,1,82.5000025177003,10|8,0:3|0:0,0:0:0:0:
102,206,279892,37,0,1:3:0:0:
356,286,280034,1,8,0:0:0:0:
219,378,280175,2,0,B|195:276|249:320|208:204,1,165.000005035401,10|8,0:3|0:0,0:0:0:0:
379,98,280600,1,0,1:3:0:0:
283,48,280741,37,8,0:0:0:0:
470,155,280883,1,8,0:0:0:0:
275,310,281024,38,0,B|378:305|328:265|453:263,1,165.000005035401,4|0,1:3|0:0,0:0:0:0:
216,148,281449,1,8,0:3:0:0:
275,99,281590,2,0,P|295:172|292:212,1,82.5000025177003,10|8,0:0|0:3,1:0:0:0:
158,233,281873,2,0,P|138:160|141:120,1,82.5000025177003,10|10,0:3|0:0,1:0:0:0:
342,303,282156,38,0,B|422:299|383:269|485:270,1,123.75000377655,10|0,0:3|0:0,0:0:0:0:
459,270,282439,2,0,P|443:187|443:177,1,82.5000025177003,10|0,0:3|0:0,0:0:0:0:
237,356,282722,2,0,B|130:352|184:308|68:304,1,165.000005035401,8|0,0:0|0:0,0:0:0:0:
250,90,283147,37,8,0:3:0:0:
250,90,283218,1,8,0:3:0:0:
250,90,283288,2,2,P|261:267|264:285,1,165.000005035401,2|0,1:3|0:0,1:0:0:0:
135,105,283713,2,0,P|58:84|41:75,1,82.5000025177003,10|8,0:0|0:0,0:0:0:0:
183,195,283996,1,0,0:0:0:0:
27,357,284137,1,2,1:3:0:0:
252,343,284279,2,0,B|152:334|193:290|77:285,1,165.000005035401,10|8,0:0|0:0,0:0:0:0:
294,161,284703,1,0,1:3:0:0:
154,19,284845,1,8,0:3:0:0:
331,38,284986,37,8,0:0:0:0:
156,139,285128,1,0,1:3:0:0:
381,210,285270,37,8,0:0:0:0:
482,246,285411,1,0,1:3:0:0:
420,293,285553,38,0,P|432:163|430:128,1,165.000005035401,4|0,1:3|0:0,0:0:0:0:
279,287,285977,1,0,1:3:0:0:
199,200,286119,2,0,P|191:269|196:299,1,82.5000025177003,10|0,0:0|0:0,1:0:0:0:
314,142,286402,1,0,1:3:0:0:
440,323,286543,2,0,B|414:221|472:274|435:148,1,165.000005035401,10|8,0:0|0:0,0:0:0:0:
438,161,286968,2,0,P|513:185|530:188,1,82.5000025177003,10|0,0:0|1:3,0:0:0:0:
314,298,287251,37,8,0:0:0:0:
265,238,287392,1,0,1:3:0:0:
297,169,287534,1,8,0:3:0:0:
345,229,287675,1,8,0:3:0:0:
118,338,287817,37,2,1:3:0:0:
10,207,287958,2,2,P|153:250|177:255,1,165.000005035401,8|2,0:0|1:3,1:0:0:0:
312,372,288383,2,0,B|295:334|295:334|317:290,1,82.5000025177003,8|0,0:0|0:0,0:0:0:0:
200,366,288666,1,2,1:3:0:0:
300,166,288807,37,8,0:3:0:0:
300,166,288878,1,8,0:3:0:0:
300,166,288949,1,8,0:0:0:0:
439,274,289090,1,8,0:0:0:0:
472,122,289232,37,2,1:3:0:0:
274,250,289373,1,8,0:3:0:0:
96,345,289515,37,0,1:3:0:0:
173,369,289656,1,8,0:3:0:0:
118,268,289798,1,0,1:3:0:0:
195,292,289939,1,8,0:3:0:0:
6,368,290081,37,2,1:3:0:0:
122,190,290222,2,0,B|94:85|156:127|112:0,1,165.000005035401,4|0,0:3|1:0,0:0:0:0:
248,156,290647,2,0,P|340:179|350:179,1,82.5000025177003,10|8,0:0|0:3,1:0:0:0:
268,244,290930,1,0,1:2:0:0:
317,384,291071,2,0,B|210:362|274:327|141:313,1,165.000005035401,8|8,0:0|0:0,0:0:0:0:
377,243,291496,37,2,1:3:0:0:
226,73,291637,1,0,1:0:0:0:
290,28,291779,2,0,P|308:93|301:136,1,82.5000025177003,8|0,0:0|0:0,0:0:0:0:
163,151,292062,2,0,P|145:86|152:43,1,82.5000025177003,10|8,0:3|0:0,0:0:0:0:
314,201,292345,37,2,1:3:0:0:
173,300,292486,2,2,P|43:334|14:348,1,165.000005035401,8|2,0:0|1:3,1:0:0:0:
242,263,292911,2,0,P|335:292|355:296,1,82.5000025177003,8|0,0:0|0:0,0:0:0:0:
172,133,293194,1,2,1:3:0:0:
290,29,293336,2,0,P|197:58|177:62,1,82.5000025177003,8|0,0:0|1:0,0:0:0:0:
48,241,293619,38,2,B|78:143|16:188|63:63,1,165.000005035401,10|0,0:0|1:0,0:1:0:0:
192,275,294043,2,0,P|183:356|185:374,1,82.5000025177003,8|0,0:0|1:0,0:0:0:0:
109,324,294326,1,10,0:3:0:0:
272,208,294468,1,2,1:3:0:0:
128,22,294609,38,0,P|275:62|303:66,1,165.000005035401,6|0,1:3|0:0,0:0:0:0:
173,136,295034,1,0,1:3:0:0:
339,259,295175,2,2,P|415:305|411:395,1,165.000005035401,10|0,0:0|1:0,1:0:0:0:
252,275,295600,2,0,P|170:255|154:249,1,82.5000025177003,8|2,0:0|0:3,0:0:0:0:
288,357,295883,37,8,0:0:0:0:
446,198,296024,1,2,1:3:0:0:
298,59,296166,1,8,0:3:0:0:
353,6,296307,2,0,P|364:182|369:201,1,165.000005035401,8|10,0:0|0:3,0:0:0:0:
353,6,296732,1,8,0:3:0:0:
190,170,296873,37,6,1:3:0:0:
96,100,297015,2,0,P|90:181|83:212,1,82.5000025177003,8|0,0:0|0:0,0:0:0:0:
199,63,297298,1,2,1:3:0:0:
333,231,297439,2,0,P|327:190|326:148,1,82.5000025177003,8|8,0:0|0:0,0:0:0:0:
254,233,297722,1,10,0:3:0:0:
367,384,297864,38,0,B|276:379|309:334|204:334,1,165.000005035401,8|8,0:0|0:0,0:0:0:0:
449,203,298288,2,0,B|430:240|430:240|445:285,1,82.5000025177003,10|0,0:3|1:0,0:0:0:0:
321,167,298571,2,0,P|331:18|326:-22,1,165.000005035401,8|0,0:0|0:0,0:0:0:0:
186,189,298996,37,8,0:0:0:0:
186,189,299067,1,8,0:0:0:0:
186,189,299137,2,0,L|6:232,1,165.000005035401,6|0,1:3|0:0,0:0:0:0:
141,112,299562,1,0,0:0:0:0:
337,254,299703,2,2,P|435:216|441:138,1,165.000005035401,10|0,0:0|1:0,1:0:0:0:
231,63,300128,37,8,0:3:0:0:
360,0,300270,2,0,B|335:35|335:35|353:89,1,82.5000025177003,10|8,0:3|0:0,0:0:0:0:
240,183,300553,1,2,1:3:0:0:
347,370,300694,1,0,1:0:0:0:
189,310,300836,2,0,B|292:297|246:262|352:261,1,165.000005035401,8|2,0:0|0:3,0:0:0:0:
109,186,301260,1,8,0:0:0:0:
275,62,301402,37,2,1:3:0:0:
190,12,301543,2,0,P|111:0|94:-6,1,82.5000025177003,8|0,0:0|0:0,1:0:0:0:
236,171,301826,1,2,1:3:0:0:
107,322,301968,2,0,P|147:312|188:309,1,82.5000025177003,8|8,0:0|0:3,0:0:0:0:
374,158,302251,37,2,1:3:0:0:
507,346,302392,2,0,B|405:343|450:294|328:294,1,165.000005035401,8|8,0:0|0:3,0:0:0:0:
169,155,302817,2,0,B|192:190|192:190|174:242,1,82.5000025177003,2|8,1:3|3:0,0:0:0:0:
305,66,303100,1,8,0:0:0:0:
451,220,303241,2,0,P|455:69|459:33,1,165.000005035401,0|4,1:0|1:3,0:0:0:0:
299,221,303666,37,0,1:0:0:0:
129,62,303807,2,0,B|161:131|161:131|134:236,1,165.000005035401,8|0,0:0|1:0,0:0:0:0:
293,57,304232,2,0,P|369:46|391:37,1,82.5000025177003,10|0,0:0|1:0,1:0:0:0:
261,239,304515,1,8,0:0:0:0:
396,352,304656,2,0,B|378:315|378:315|399:272,1,82.5000025177003,8|0,0:3|1:3,0:0:0:0:
192,367,304939,38,0,B|93:363|132:320|13:323,1,165.000005035401,8|4,0:0|1:3,0:0:0:0:
205,182,305364,2,0,B|186:219|186:219|203:256,1,82.5000025177003,8|8,0:0|0:3,0:0:0:0:
72,187,305647,1,2,1:3:0:0:
254,60,305788,1,8,0:0:0:0:
168,16,305930,2,0,P|87:-1|73:-7,1,82.5000025177003,10|0,0:3|1:0,0:0:0:0:
240,173,306213,1,0,0:0:0:0:
96,327,306354,1,8,0:0:0:0:
265,362,306496,37,2,1:3:0:0:
135,212,306637,1,8,0:0:0:0:
323,83,306779,2,0,B|304:120|304:120|321:157,1,82.5000025177003,10|0,0:3|1:0,0:0:0:0:
245,21,307062,37,8,0:3:0:0:
409,126,307203,1,0,1:0:0:0:
417,26,307345,37,10,0:3:0:0:
230,177,307486,1,8,0:3:0:0:
263,273,307628,37,8,0:3:0:0:
90,164,307770,1,10,0:3:0:0:
131,255,307911,37,10,0:3:0:0:
25,384,308053,1,10,0:3:0:0:
263,273,308194,6,2,B|370:273|320:222|450:222,1,179.999994506836,6|0,1:3|1:0,1:0:0:0:
495,287,308619,1,2,1:3:0:0:
301,174,308760,2,2,P|281:156|299:10,1,179.999994506836,10|8,0:0|0:3,1:0:0:0:
134,195,309185,37,2,1:3:0:0:
134,195,309255,1,8,0:3:0:0:
134,195,309326,1,8,0:3:0:0:
247,104,309468,1,8,0:0:0:0:
223,286,309609,2,0,B|204:245|204:245|222:188,1,89.9999972534181,2|8,1:2|0:3,0:0:0:0:
364,114,309892,37,8,0:0:0:0:
418,178,310034,1,10,0:3:0:0:
445,97,310175,37,10,0:3:0:0:
332,191,310317,1,10,0:3:0:0:
470,242,310458,2,2,P|423:225|307:309,1,179.999994506836,2|0,1:3|0:0,0:1:0:0:
154,222,310883,1,2,1:3:0:0:
250,378,311024,2,0,P|241:323|229:259,1,89.9999972534181,8|0,0:0|0:0,0:0:0:0:
255,92,311307,37,2,1:3:0:0:
303,191,311449,2,0,B|191:184|251:138|95:133,1,179.999994506836,10|8,0:0|0:0,0:0:0:0:
159,56,311873,1,2,1:2:0:0:
74,72,312015,1,0,1:0:0:0:
171,264,312156,37,8,0:0:0:0:
134,135,312298,1,2,1:3:0:0:
0,312,312439,37,10,0:3:0:0:
42,155,312581,1,10,0:3:0:0:
256,303,312722,38,2,P|183:294|61:281,1,179.999994506836,6|0,1:3|0:0,1:0:0:0:
256,303,313147,1,2,1:3:0:0:
338,114,313288,2,0,P|343:184|346:226,1,89.9999972534181,10|8,0:0|0:3,0:0:0:0:
369,371,313571,1,2,1:3:0:0:
499,346,313713,2,0,B|398:333|447:291|323:279,1,179.999994506836,10|8,0:0|0:0,0:0:0:0:
187,243,314137,1,2,1:2:0:0:
265,204,314279,1,0,1:0:0:0:
73,129,314420,37,8,0:0:0:0:
114,293,314562,1,10,0:3:0:0:
18,342,314703,37,10,0:3:0:0:
26,239,314845,1,10,0:3:0:0:
26,239,314916,1,8,0:3:0:0:
26,239,314986,2,2,B|126:247|72:300|207:326,1,179.999994506836,2|0,1:3|0:0,1:0:0:0:
256,171,315411,1,2,1:3:0:0:
305,241,315553,2,0,P|251:247|200:255,1,89.9999972534181,8|2,0:0|0:3,0:0:0:0:
385,74,315836,1,2,1:2:0:0:
344,151,315977,2,0,P|398:157|449:165,1,89.9999972534181,8|2,0:0|0:3,0:0:0:0:
218,62,316260,37,8,0:0:0:0:
256,171,316402,1,10,0:3:0:0:
211,72,316543,1,0,1:3:0:0:
177,166,316685,37,8,0:3:0:0:
60,119,316826,1,0,1:0:0:0:
231,245,316968,37,8,0:3:0:0:
386,186,317109,1,8,0:3:0:0:
178,384,317251,38,0,P|126:379|97:247,1,179.999994506836,6|0,1:3|0:0,0:0:0:0:
151,245,317675,1,0,1:0:0:0:
285,355,317817,2,2,B|264:323|272:289|272:289|283:268|283:268|300:227|266:163,1,179.999994506836,10|0,0:0|1:0,1:0:0:0:
452,308,318241,2,0,L|340:282,1,89.9999972534181,8|2,0:0|0:0,0:0:0:0:
199,231,318524,1,8,0:0:0:0:
352,155,318666,1,2,1:2:0:0:
235,102,318807,1,0,1:0:0:0:
308,0,318949,2,0,B|322:44|322:44|310:96,1,89.9999972534181,8|0,0:0|0:0,0:0:0:0:
187,40,319232,2,0,P|143:52|76:60,1,89.9999972534181,10|8,0:3|0:0,0:0:0:0:
352,155,319515,38,0,B|457:164|411:221|529:232,1,179.999994506836,2|0,1:2|0:0,0:0:0:0:
309,231,319939,1,2,1:2:0:0:
185,162,320081,2,0,P|167:227|188:277,1,89.9999972534181,8|0,0:0|0:0,0:0:0:0:
312,86,320364,1,2,1:2:0:0:
312,86,320505,2,0,P|301:30|294:-3,1,89.9999972534181,8|0,0:0|0:0,0:0:0:0:
270,157,320788,1,8,0:0:0:0:
146,90,320930,2,0,P|86:105|44:110,1,89.9999972534181,2|0,1:2|0:0,0:0:0:0:
115,384,321213,37,10,0:0:0:0:
277,277,321354,2,2,B|377:220|470:293|470:293,1,179.999994506836,0|8,1:0|0:3,1:0:0:0:
448,279,321708,1,8,0:3:0:0:
448,279,321779,2,0,P|436:223|425:64,1,179.999994506836,6|0,1:3|0:0,1:0:0:0:
270,157,322203,1,0,1:0:0:0:
335,90,322345,2,0,P|290:77|240:61,1,89.9999972534181,10|0,0:0|0:0,0:0:0:0:
89,219,322628,1,0,1:0:0:0:
174,222,322770,2,0,B|190:186|190:186|166:107,1,89.9999972534181,8|2,0:0|0:0,0:0:0:0:
70,31,323053,37,8,0:0:0:0:
6,88,323194,1,10,0:3:0:0:
85,115,323336,1,0,1:0:0:0:
293,0,323477,37,8,0:0:0:0:
365,49,323619,1,8,0:0:0:0:
318,120,323760,1,2,1:2:0:0:
243,71,323902,1,8,0:3:0:0:
89,219,324043,37,6,1:3:0:0:
175,137,324185,1,8,0:0:0:0:
175,137,324255,1,8,0:0:0:0:
175,137,324326,1,8,0:0:0:0:
219,277,324468,1,10,0:0:0:0:
318,136,324609,37,6,1:3:0:0:
422,299,324751,1,8,0:3:0:0:
422,299,324821,1,8,0:3:0:0:
422,299,324892,1,10,0:3:0:0:
271,219,325034,1,8,0:3:0:0:
354,356,325175,37,6,1:3:0:0:
480,234,325317,1,8,0:3:0:0:
331,133,325458,1,2,1:2:0:0:
336,269,325600,1,8,0:3:0:0:
512,137,325741,37,2,1:2:0:0:
410,83,325883,1,8,0:3:0:0:
434,162,326024,37,2,1:2:0:0:
494,57,326166,1,8,0:3:0:0:
385,3,326307,70,0,P|318:12|288:171,1,179.999994506836,6|0,1:3|1:0,1:0:0:0:
195,10,326732,1,0,1:0:0:0:
70,92,326873,2,0,P|125:81|184:75,1,89.9999972534181,10|0,0:0|0:0,0:0:0:0:
309,189,327156,1,0,1:0:0:0:
217,170,327298,2,0,P|231:234|236:287,1,89.9999972534181,8|2,0:0|0:0,0:0:0:0:
373,136,327581,1,8,0:0:0:0:
465,117,327722,2,0,P|451:181|446:234,1,89.9999972534181,2|0,1:2|0:0,0:0:0:0:
270,373,328005,38,0,P|292:312|401:293,2,179.999994506836,8|10|2,0:0|0:0|1:2,0:0:0:0:
56,231,328713,2,0,P|145:242|234:255,1,179.999994506836,8|2,0:0|1:2,0:0:0:0:
237,263,329137,2,0,P|163:249|131:246,1,89.9999972534181,12|8,0:3|0:3,0:0:0:0:
67,138,329420,1,2,1:2:0:0:
158,105,329562,1,8,0:0:0:0:
215,181,329703,37,0,1:0:0:0:
280,91,329845,1,8,0:3:0:0:
221,19,329986,1,10,0:3:0:0:
162,93,330128,1,0,1:0:0:0:
302,170,330270,38,0,B|343:177|343:177|408:163,1,89.9999972534181,10|4,0:0|1:3,0:0:0:0:
203,291,330553,2,0,P|244:279|338:278,1,89.9999972534181,10|4,0:0|1:3,0:0:0:0:
45,120,330836,38,0,P|107:208|88:315,1,179.999994506836,4|0,1:3|0:0,0:0:0:0:
26,247,331260,1,0,1:0:0:0:
189,372,331402,2,2,B|302:362|243:319|383:308,1,179.999994506836,10|0,0:0|1:0,1:0:0:0:
451,183,331826,37,8,0:0:0:0:
511,246,331968,1,10,0:3:0:0:
440,298,332109,1,8,0:0:0:0:
382,236,332251,2,0,B|402:200|402:200|388:126,1,89.9999972534181,2|0,1:2|1:0,0:0:0:0:
231,123,332534,2,0,P|288:113|354:105,1,89.9999972534181,8|0,0:0|0:0,0:0:0:0:
157,197,332817,2,0,P|81:187|40:178,1,89.9999972534181,10|8,0:3|0:0,0:0:0:0:
301,192,333100,1,2,1:2:0:0:
156,35,333241,38,0,B|137:73|137:73|152:132,1,89.9999972534181,8|0,0:0|0:0,0:0:0:0:
131,276,333524,1,2,1:2:0:0:
343,339,333666,38,0,B|362:301|362:301|347:242,1,89.9999972534181,8|0,0:0|0:0,0:0:0:0:
199,336,333949,1,2,1:2:0:0:
105,355,334090,2,0,P|27:375|0:386,1,89.9999972534181,8|0,0:0|0:0,0:0:0:0:
301,192,334373,1,8,0:0:0:0:
204,192,334515,1,2,1:2:0:0:
257,112,334656,1,0,1:0:0:0:
386,196,334798,38,0,P|397:133|404:76,1,89.9999972534181,10|0,0:0|1:0,0:0:0:0:
495,347,335081,2,0,P|486:308|477:235,1,89.9999972534181,10|0,0:3|1:0,0:0:0:0:
478,258,335293,1,0,1:0:0:0:
478,258,335364,2,0,B|356:267|422:317|290:325,1,179.999994506836,6|0,1:3|0:0,0:0:0:0:
251,264,335788,1,0,1:0:0:0:
87,376,335930,2,2,B|152:364|219:336|219:336|241:351|258:377,1,179.999994506836,10|0,0:0|1:0,1:0:0:0:
96,368,336354,2,0,P|105:326|112:242,1,89.9999972534181,8|2,0:0|0:0,0:0:0:0:
251,264,336637,1,8,0:0:0:0:
251,264,336779,2,0,P|242:222|230:124,1,134.999995880127,2|0,1:2|0:0,0:0:0:0:
230,130,337062,2,0,B|273:145|273:145|336:136,1,89.9999972534181,8|0,0:0|0:0,0:0:0:0:
400,222,337345,38,0,P|467:233|512:239,1,89.9999972534181,10|0,0:3|0:0,0:0:0:0:
248,384,337628,2,0,P|294:366|320:241,1,179.999994506836,2|0,1:2|0:0,0:0:0:0:
343,55,338053,1,2,1:2:0:0:
317,138,338194,2,0,P|384:127|429:121,1,89.9999972534181,8|0,0:0|0:0,0:0:0:0:
201,143,338477,1,2,1:2:0:0:
227,226,338619,2,0,P|160:215|115:209,1,89.9999972534181,8|0,0:0|0:0,0:0:0:0:
325,251,338902,1,8,0:0:0:0:
268,383,339043,2,0,P|247:331|265:294,1,89.9999972534181,2|0,1:2|1:0,1:0:0:0:
503,213,339326,37,8,0:0:0:0:
398,334,339468,1,8,0:0:0:0:
400,210,339609,37,0,1:0:0:0:
512,330,339751,1,8,0:0:0:0:
325,251,339892,38,0,P|331:178|333:34,1,179.999994506836,4|0,1:3|0:0,0:0:0:0:
333,71,340317,1,0,1:0:0:0:
208,182,340458,2,2,B|84:162|153:127|25:107,1,179.999994506836,10|0,0:0|0:0,1:0:0:0:
232,100,340883,1,0,1:0:0:0:
185,287,341024,37,10,0:0:0:0:
124,174,341166,1,0,1:0:0:0:
12,263,341307,1,14,0:0:0:0:
104,340,341449,1,8,0:0:0:0:
96,253,341590,2,0,P|86:188|83:131,1,89.9999972534181,0|8,1:0|0:0,0:0:0:0:
275,303,341873,2,0,P|285:238|288:181,1,89.9999972534181,10|0,0:3|1:0,0:0:0:0:
321,24,342156,37,14,0:0:0:0:
212,127,342298,1,8,0:3:0:0:
157,57,342439,1,0,1:0:0:0:
394,123,342581,37,14,0:0:0:0:
504,156,342722,1,8,0:3:0:0:
396,108,342864,1,0,1:0:0:0:
248,213,343005,37,14,0:0:0:0:
390,276,343147,1,8,0:3:0:0:
311,149,343288,1,0,1:0:0:0:
200,297,343430,37,12,0:0:0:0:
80,330,343571,1,10,0:3:0:0:
112,209,343713,1,0,1:0:0:0:
280,369,343854,53,10,0:0:0:0:
401,87,343996,1,10,0:0:0:0:
418,360,344137,37,10,0:0:0:0:
215,144,344279,1,10,0:0:0:0:
