osu file format v14

[General]
AudioFilename: audio.mp3
AudioLeadIn: 0
PreviewTime: 52627
Countdown: 0
SampleSet: Soft
StackLeniency: 0.7
Mode: 0
LetterboxInBreaks: 0
WidescreenStoryboard: 0

[Editor]
Bookmarks: 659,8218,23336,38454,51682,55462,69635,70580,83808,88533
DistanceSpacing: 0.4
BeatDivisor: 4
GridSize: 32
TimelineZoom: 1

[Metadata]
Title:holLow wORlD (Fate/hollow ataraxia edit)
TitleUnicode:holLow wORlD (Fate/hollow ataraxia edit)
Artist:Aimer
ArtistUnicode:Aimer
Creator:SeaRasp
Version:Inferno
Source:Fate/hollow ataraxia
Tags:エメ broKen NIGHT short version PS Vita game english japanese jrock j-rock rock Avenger フェイト/ホロウ アタラクシア Feito/horou atarakushia video visual novel vn
BeatmapID:2957552
BeatmapSetID:1437477

[Difficulty]
HPDrainRate:5.5
CircleSize:4
OverallDifficulty:7.5
ApproachRate:8.3
SliderMultiplier:1.7
SliderTickRate:1

[Events]
//Background and Video events
0,0,"BG.jpg",0,0
Video,0,"Fate Hollow Ataraxia - Opening 2.m4v"
//Break Periods
//Storyboard Layer 0 (Background)
//Storyboard Layer 1 (Fail)
//Storyboard Layer 2 (Pass)
//Storyboard Layer 3 (Foreground)
//Storyboard Layer 4 (Overlay)
//Storyboard Sound Samples

[TimingPoints]
422,472.44094488189,4,2,1,70,1,0
599,-100,4,2,1,5,0,0
659,472.44094488189,4,2,1,70,1,0
659,-90.9090909090909,4,2,1,70,0,0
8218,-100,4,2,1,60,0,0
10107,-83.3333333333333,4,2,1,60,0,0
10816,-100,4,2,1,60,0,0
13887,-83.3333333333333,4,2,1,60,0,0
14359,-100,4,2,1,60,0,0
15068,-66.6666666666667,4,2,1,60,0,0
15777,-100,4,2,1,60,0,0
17666,-83.3333333333333,4,2,1,60,0,0
18139,-100,4,2,1,60,0,0
22863,-66.6666666666667,4,2,1,60,0,0
23336,-100,4,2,1,60,0,0
25225,-83.3333333333333,4,2,1,60,0,0
25934,-100,4,2,1,60,0,0
29005,-83.3333333333333,4,2,1,60,0,0
29714,-100,4,2,1,60,0,0
30186,-66.6666666666667,4,2,1,60,0,0
30895,-100,4,2,1,60,0,0
32784,-83.3333333333333,4,2,1,60,0,0
33493,-100,4,2,1,60,0,0
36564,-83.3333333333333,4,2,1,60,0,0
38454,-90.9090909090909,4,2,1,65,0,0
52627,-133.333333333333,4,2,1,45,0,0
52745,-133.333333333333,4,2,1,5,0,0
53572,-111.111111111111,4,2,1,55,0,0
53690,-111.111111111111,4,2,1,5,0,0
54517,-100,4,2,1,65,0,0
55403,-100,4,2,1,5,0,0
55462,-83.3333333333333,4,2,1,75,0,1
69635,-66.6666666666667,4,2,1,75,0,0
70580,-83.3333333333333,4,2,1,75,0,1
81918,-76.9230769230769,4,2,1,75,0,1
83808,-100,4,2,1,40,0,0
84989,-100,4,2,1,5,0,0
85107,-100,4,2,1,40,0,0
85344,-100,4,2,1,5,0,0
85462,-100,4,2,1,40,0,0
88533,-100,4,2,1,5,0,0

[Colours]
Combo1 : 249,128,47
Combo2 : 128,94,87
Combo3 : 242,74,55
Combo4 : 186,126,120

[HitObjects]
42,47,422,6,0,B|58:80|58:80|51:123,1,63.75,2|0,0:0|0:0,0:0:0:0:
64,118,659,6,0,B|126:107|126:107|178:141|178:141|248:129,1,187.000005706787,6|0,3:2|0:0,0:0:0:0:
381,41,1367,2,0,L|363:143,1,93.5000028533936,14|0,0:0|0:0,0:0:0:0:
364,133,1721,1,8,3:0:0:0:
364,133,1840,1,2,3:2:0:0:
452,322,2076,2,0,P|473:286|467:221,1,93.5000028533936,8|0,0:0|0:0,0:0:0:0:
357,255,2548,6,0,L|172:293,1,187.000005706787,2|0,3:2|0:0,0:0:0:0:
0,343,3257,2,0,L|92:362,1,93.5000028533936,8|0,0:0|0:0,0:0:0:0:
91,361,3611,1,8,3:0:0:0:
91,361,3729,1,0,3:0:0:0:
268,211,3966,2,0,L|257:260,1,46.7500014266968,8|0,3:0|0:0,0:0:0:0:
121,174,4202,2,0,P|113:147|113:127,1,46.7500014266968,8|0,0:0|0:0,0:0:0:0:
201,53,4438,6,0,B|312:49|275:4|377:-1,1,187.000005706787,6|0,3:2|0:0,0:0:0:0:
482,176,5147,2,0,L|497:65,1,93.5000028533936,14|0,0:0|0:0,0:0:0:0:
494,83,5501,1,8,3:0:0:0:
494,83,5619,1,2,3:2:0:0:
353,207,5855,2,0,B|337:252|337:252|363:322,1,93.5000028533936,8|0,0:0|0:0,0:0:0:0:
454,305,6328,6,0,L|254:359,1,187.000005706787,2|0,3:2|0:0,0:0:0:0:
106,213,7036,1,10,0:0:0:0:
220,174,7273,5,0,3:0:0:0:
214,208,7391,1,8,0:0:0:0:
209,243,7509,1,8,0:0:0:0:
203,277,7627,1,8,0:0:0:0:
134,325,7745,5,8,3:0:0:0:
116,309,7863,1,8,3:0:0:0:
96,298,7981,1,8,3:0:0:0:
73,294,8099,1,0,3:0:0:0:
8,352,8218,5,4,3:2:0:0:
106,213,8454,1,0,0:0:0:0:
6,145,8690,2,0,P|0:111|3:77,1,42.5,2|2,0:0|0:0,0:0:0:0:
118,20,8926,2,0,L|95:142,1,85,8|0,3:0|0:0,0:0:0:0:
103,102,9281,1,0,3:0:0:0:
103,102,9399,1,2,0:0:0:0:
246,64,9635,2,0,B|304:92|304:92|375:64,1,127.5,10|8,0:0|0:0,0:0:0:0:
362,69,10107,6,0,L|345:156,1,50.9999984436036,8|0,3:0|0:0,0:0:0:0:
430,275,10344,2,0,L|439:224,1,50.9999984436036,10|0,3:0|0:0,0:0:0:0:
506,145,10580,1,0,0:0:0:0:
318,213,10816,2,0,L|174:256,1,127.5,10|0,0:0|0:0,0:0:0:0:
195,249,11288,1,2,3:2:0:0:
4,198,11525,5,8,0:0:0:0:
174,346,11761,1,10,0:0:0:0:
52,384,11997,6,0,P|40:338|58:293,1,85,8|2,3:0|0:0,0:0:0:0:
50,303,12351,1,2,0:0:0:0:
50,303,12470,1,2,0:0:0:0:
216,116,12706,1,8,0:0:0:0:
105,86,12942,1,0,0:0:0:0:
105,86,13060,2,0,L|118:207,1,85,0|0,3:0|0:0,0:0:0:0:
118,191,13414,1,10,0:0:0:0:
231,272,13651,1,2,0:0:0:0:
245,256,13769,1,8,0:0:0:0:
258,242,13887,6,0,L|331:228,1,50.9999984436036,10|0,3:0|0:0,0:0:0:0:
468,325,14123,2,0,L|417:315,1,50.9999984436036,10|0,3:0|0:0,0:0:0:0:
322,367,14359,1,0,0:0:0:0:
408,192,14596,2,0,L|432:47,1,127.5,10|0,0:0|0:0,0:0:0:0:
428,66,15068,5,0,3:0:0:0:
334,116,15186,1,0,3:0:0:0:
238,165,15304,2,2,B|194:150|146:107|146:107|93:122|101:198,1,191.250007295609,10|10,0:0|0:0,0:0:0:0:
238,165,15777,5,8,3:0:0:0:
172,292,16013,1,2,0:0:0:0:
168,271,16131,1,2,0:0:0:0:
164,251,16249,1,2,0:0:0:0:
315,239,16485,2,0,L|293:356,1,85,8|0,0:0|0:0,0:0:0:0:
296,343,16840,2,0,B|342:332|342:332|404:361,1,85,0|0,3:0|0:0,0:0:0:0:
395,357,17194,1,10,0:0:0:0:
505,229,17430,1,2,0:0:0:0:
485,220,17548,1,0,0:0:0:0:
465,212,17666,6,0,L|449:142,1,50.9999984436036,8|0,3:0|0:0,0:0:0:0:
316,122,17903,2,0,L|327:72,1,50.9999984436036,8|0,3:0|0:0,0:0:0:0:
417,8,18139,1,0,0:0:0:0:
222,73,18375,2,0,L|101:52,1,85,8|2,3:0|0:0,0:0:0:0:
138,58,18729,1,2,0:0:0:0:
138,58,18847,1,2,0:0:0:0:
3,7,19084,5,10,0:0:0:0:
164,167,19320,1,10,0:0:0:0:
23,220,19556,6,0,P|9:183|26:132,1,85,8|2,3:0|0:0,0:0:0:0:
19,140,19910,1,2,0:0:0:0:
19,140,20029,1,2,0:0:0:0:
122,278,20265,1,10,0:2:0:0:
152,286,20383,1,8,3:0:0:0:
184,283,20501,1,0,3:0:0:0:
213,270,20619,1,8,3:0:0:0:
235,248,20737,1,0,3:0:0:0:
399,129,20973,6,0,L|379:237,1,85,8|0,0:0|0:0,0:0:0:0:
371,230,21328,1,8,0:0:0:0:
361,248,21446,2,0,L|372:318,1,42.5,8|0,3:0|0:0,0:0:0:0:
303,376,21682,1,8,3:0:0:0:
287,361,21800,2,0,B|245:346|245:346|181:371,1,85,8|0,0:0|0:0,0:0:0:0:
119,304,22155,2,0,L|104:196,1,85,8|0,0:0|0:0,0:0:0:0:
195,93,22509,1,8,0:0:0:0:
206,110,22627,2,0,L|198:174,1,42.5,0|0,3:0|3:0,3:0:0:0:
30,162,22863,6,10,P|59:138|103:129,1,63.7500024318696
235,248,23099,1,4,3:0:0:0:
467,58,23336,6,0,L|348:34,1,85,4|0,3:2|0:0,0:0:0:0:
383,41,23690,1,8,3:0:0:0:
383,41,23808,1,0,3:0:0:0:
303,110,24044,2,0,B|289:151|289:151|308:203,1,85,8|0,3:0|0:0,0:0:0:0:
374,232,24399,2,0,L|418:220,1,42.5,0|2,3:0|0:0,0:0:0:0:
312,365,24753,2,0,B|278:345|278:345|160:371,1,127.5,10|8,0:0|0:0,0:0:0:0:
192,363,25225,6,0,L|179:293,1,50.9999984436036,8|0,3:0|0:0,0:0:0:0:
41,272,25462,1,10,3:0:0:0:
61,256,25580,2,0,L|86:117,1,101.999996887207,8|0,0:0|0:0,0:0:0:0:
79,155,25934,1,10,0:0:0:0:
180,76,26170,2,0,L|240:59,1,42.5,2|2,0:0|0:0,0:0:0:0:
246,82,26407,1,2,3:2:0:0:
106,0,26643,5,8,0:0:0:0:
211,186,26879,1,10,0:0:0:0:
317,23,27115,5,8,3:0:0:0:
331,38,27233,2,0,P|342:68|341:87,1,42.5,8|0,3:0|0:0,0:0:0:0:
437,225,27470,2,0,P|448:195|447:176,1,42.5,8|0,0:0|0:0,0:0:0:0:
448,184,27824,6,0,L|324:201,1,85,10|0,3:0|0:0,0:0:0:0:
292,238,28178,2,0,L|277:300,1,42.5,0|0,3:0|0:0,0:0:0:0:
58,362,28533,2,0,B|117:328|117:328|169:356,1,127.5,8|0,0:0|0:0,0:0:0:0:
169,356,29005,6,0,L|183:277,1,50.9999984436036,8|0,3:0|0:0,0:0:0:0:
32,212,29241,1,10,3:0:0:0:
36,237,29359,1,8,0:0:0:0:
41,263,29477,1,0,0:0:0:0:
127,111,29714,2,0,B|268:83,1,127.5,10|0,0:0|0:0,0:0:0:0:
252,86,30186,5,2,3:0:0:0:
325,153,30304,1,0,3:0:0:0:
399,217,30422,2,2,B|518:190|518:190|489:270,1,191.250007295609,10|10,0:0|0:0,0:0:0:0:
494,255,30895,6,0,P|474:225|469:198,1,42.5,8|0,3:0|0:0,0:0:0:0:
435,25,31131,1,8,3:0:0:0:
419,39,31249,2,0,L|406:154,1,85,8|0,0:0|0:0,0:0:0:0:
409,123,31603,1,8,3:0:0:0:
306,249,31840,1,0,0:0:0:0:
289,235,31958,2,0,B|247:216|247:216|180:244,1,85,0|0,3:0|0:0,0:0:0:0:
211,231,32312,1,10,0:0:0:0:
106,103,32548,1,2,0:0:0:0:
122,116,32666,1,8,0:0:0:0:
137,130,32784,6,0,L|124:198,1,50.9999984436036,8|0,3:0|0:0,0:0:0:0:
0,249,33021,1,8,3:0:0:0:
20,264,33139,2,0,L|36:385,1,101.999996887207,8|0,0:0|0:0,0:0:0:0:
33,365,33493,1,10,0:0:0:0:
216,318,33729,2,0,L|164:306,1,42.5,2|2,0:2|0:0,0:0:0:0:
148,319,33966,1,0,3:0:0:0:
264,161,34202,5,8,0:0:0:0:
391,364,34438,1,10,0:0:0:0:
482,292,34674,6,0,P|495:243|468:182,1,85,8|0,3:0|0:0,0:0:0:0:
470,198,35029,1,8,0:0:0:0:
453,185,35147,2,0,L|381:203,1,42.5,2|0,0:0|0:0,0:0:0:0:
264,161,35383,2,0,L|247:52,1,85,8|0,0:0|0:0,0:0:0:0:
351,0,35737,2,0,L|340:59,1,42.5,0|0,3:0|0:0,0:0:0:0:
158,130,36092,2,0,B|101:100|101:100|30:137,1,127.5,8|8,0:0|0:0,0:0:0:0:
45,129,36564,6,0,L|59:200,1,50.9999984436036,8|0,3:0|0:0,0:0:0:0:
134,260,36800,1,8,3:0:0:0:
158,253,36918,2,0,L|230:238,1,50.9999984436036,8|0,0:0|0:0,0:0:0:0:
502,363,37273,6,0,B|452:349|452:349|429:315|429:315|343:297,1,152.999995330811,4|8,3:2|0:0,0:0:0:0:
291,287,37745,2,0,P|289:319|306:366,1,50.9999984436036,0|0,3:0|3:0,3:0:0:0:
488,244,37981,5,10,0:0:0:0:
507,196,38099,1,8,0:0:0:0:
499,150,38218,1,8,3:0:0:0:
473,121,38336,1,0,3:0:0:0:
445,115,38454,6,0,L|276:161,1,140.25000428009,6|0,3:2|0:0,0:0:0:0:
291,166,38926,1,2,0:0:0:0:
120,35,39162,2,0,B|103:81|103:81|126:132,1,93.5000028533936,10|0,0:0|0:0,0:0:0:0:
121,121,39517,1,0,3:0:0:0:
121,121,39635,1,2,0:0:0:0:
228,248,39871,1,10,0:0:0:0:
24,342,40107,1,2,0:0:0:0:
14,320,40225,1,8,0:0:0:0:
22,298,40344,6,0,L|118:314,1,93.5000028533936,4|2,3:0|0:0,0:0:0:0:
207,330,40698,2,0,L|196:387,1,46.7500014266968,2|2,0:0|0:0,0:0:0:0:
351,250,41052,2,0,P|365:197|340:136,1,93.5000028533936,10|0,0:0|0:0,0:0:0:0:
280,52,41525,1,2,0:0:0:0:
395,19,41761,6,0,L|387:65,1,46.7500014266968,10|0,0:0|0:0,0:0:0:0:
250,201,41997,2,0,L|243:155,1,46.7500014266968,10|0,0:0|0:0,0:0:0:0:
158,100,42233,5,4,3:0:0:0:
42,204,42470,1,2,0:2:0:0:
64,199,42588,1,2,0:0:0:0:
87,195,42706,1,2,0:0:0:0:
288,309,42942,2,0,L|195:294,1,93.5000028533936,10|0,0:0|0:0,0:0:0:0:
195,294,43296,1,0,3:0:0:0:
195,294,43414,1,0,0:0:0:0:
124,375,43651,5,10,0:0:0:0:
346,235,43887,1,2,0:0:0:0:
353,212,44005,1,8,0:0:0:0:
361,190,44123,6,0,L|347:44,1,140.25000428009,4|0,3:0|0:0,0:0:0:0:
346,26,44596,1,2,0:0:0:0:
468,129,44832,2,0,B|481:176|481:176|466:232,1,93.5000028533936,10|0,0:0|0:0,0:0:0:0:
377,337,45304,1,2,3:0:0:0:
354,332,45422,2,0,L|230:317,1,93.5000028533936,8|0,0:0|0:0,0:0:0:0:
132,264,45777,1,10,0:0:0:0:
154,259,45895,1,8,0:0:0:0:
177,254,46013,5,4,3:0:0:0:
1,346,46249,2,0,L|54:356,1,46.7500014266968,2|2,0:2|0:0,0:0:0:0:
71,371,46485,1,0,1:0:0:0:
177,254,46721,2,0,B|192:208|192:208|177:138,1,93.5000028533936,10|0,0:0|0:0,0:0:0:0:
173,142,47076,2,0,L|81:163,1,93.5000028533936,0|0,3:0|0:0,0:0:0:0:
59,168,47430,1,8,0:0:0:0:
276,210,47666,1,0,0:0:0:0:
276,210,47784,1,8,0:0:0:0:
276,210,47903,6,0,L|432:174,1,140.25000428009,4|0,3:0|0:0,0:0:0:0:
435,175,48375,1,0,0:0:0:0:
492,358,48611,2,0,B|512:314|512:314|488:241,1,93.5000028533936,8|0,0:0|0:0,0:0:0:0:
497,271,48966,1,0,3:0:0:0:
497,271,49084,1,2,0:0:0:0:
332,124,49320,6,0,L|352:192,1,46.7500014266968,10|0,0:0|0:0,0:0:0:0:
178,265,49556,2,0,L|191:220,1,46.7500014266968,10|0,0:0|0:0,0:0:0:0:
136,139,49792,5,4,3:0:0:0:
295,283,50029,1,2,0:2:0:0:
295,283,50147,1,2,0:0:0:0:
295,283,50265,1,2,0:0:0:0:
115,349,50501,2,0,L|0:328,1,93.5000028533936,10|0,0:0|0:0,0:0:0:0:
1,348,50855,1,4,3:0:0:0:
11,111,51092,5,8,0:0:0:0:
30,123,51210,2,8,L|43:167,1,46.7500014266968,8|0,0:0|3:0,0:0:0:0:
178,265,51446,2,8,L|198:197,1,46.7500014266968,8|8,3:0|3:0,3:0:0:0:
332,124,51682,1,0,3:0:0:0:
332,124,52627,22,0,B|454:119|407:70|528:65,1,191.250007295609,2|0,0:0|0:0,0:0:0:0:
294,222,53572,22,0,P|246:186|285:35,1,229.499992996216,2|0,0:0|0:0,0:0:0:0:
500,175,54517,22,0,L|472:360,1,170,2|2,0:0|0:0,0:0:0:0:
311,384,55225,22,0,B|300:351|300:351|311:319,1,63.75,2|0,0:0|0:0,0:0:0:0:
295,306,55462,38,0,L|136:334,1,152.999995330811,6|0,3:2|0:0,0:0:0:0:
125,349,55934,1,0,3:0:0:0:
21,260,56170,2,0,B|1:209|1:209|28:150,1,101.999996887207,8|0,0:0|3:0,0:0:0:0:
115,25,56525,2,0,B|135:76|135:76|108:135,1,101.999996887207,8|0,0:0|0:0,0:0:0:0:
20,166,56879,1,2,3:0:0:0:
170,252,57115,1,2,0:0:0:0:
194,246,57233,1,8,0:0:0:0:
219,240,57351,5,0,3:0:0:0:
378,119,57588,2,0,P|326:109|257:91,1,101.999996887207,2|0,0:0|3:0,0:0:0:0:
375,344,58060,2,0,P|324:353|275:366,1,101.999996887207,10|0,0:0|3:0,0:0:0:0:
275,366,58414,1,8,0:0:0:0:
275,366,58533,1,2,0:0:0:0:
484,242,58769,1,0,3:0:0:0:
269,51,59005,1,10,0:0:0:0:
275,75,59123,1,8,0:0:0:0:
281,99,59241,6,0,L|312:273,1,152.999995330811,6|0,3:2|0:0,0:0:0:0:
315,274,59714,1,0,3:0:0:0:
495,145,59950,2,0,L|391:166,1,101.999996887207,12|0,0:0|3:0,0:0:0:0:
315,274,60304,2,0,L|215:253,1,101.999996887207,8|0,0:0|0:0,0:0:0:0:
157,163,60659,1,2,3:0:0:0:
6,231,60895,1,2,0:0:0:0:
1,256,61013,1,8,0:0:0:0:
6,280,61131,5,0,3:0:0:0:
209,348,61367,2,0,P|227:293|206:240,1,101.999996887207,2|0,0:0|3:0,0:0:0:0:
15,142,61840,2,0,L|84:122,1,50.9999984436036,10|0,0:0|3:0,0:0:0:0:
186,56,62076,1,0,3:0:0:0:
186,56,62194,1,8,0:0:0:0:
186,56,62312,1,2,3:0:0:0:
19,18,62548,1,0,3:0:0:0:
179,159,62784,1,10,0:0:0:0:
198,176,62903,1,8,0:0:0:0:
217,192,63021,6,0,B|404:161,1,152.999995330811,6|0,3:2|0:0,0:0:0:0:
399,157,63493,1,0,3:0:0:0:
493,278,63729,2,0,L|483:328,1,50.9999984436036,10|0,0:0|0:0,0:0:0:0:
390,384,63966,1,2,3:0:0:0:
368,370,64084,2,0,L|349:260,1,101.999996887207,8|0,0:0|0:0,0:0:0:0:
351,270,64438,1,0,3:0:0:0:
485,181,64674,2,8,P|493:150|486:117,1,50.9999984436036,10|8,3:0|3:0,3:0:0:0:
416,55,64910,6,0,B|337:52|353:15|253:18,1,152.999995330811,2|0,3:0|3:0,0:0:0:0:
243,21,65383,1,0,3:0:0:0:
33,188,65619,2,0,L|151:165,1,101.999996887207,10|0,0:0|3:0,0:0:0:0:
48,62,66092,1,10,3:0:0:0:
273,144,66328,1,2,3:0:0:0:
103,330,66564,1,10,0:0:0:0:
89,308,66682,1,8,0:0:0:0:
100,285,66800,6,0,B|176:302|176:302|203:343|203:343|289:363,1,203.999993774414,6|0,3:2|3:0,0:0:0:0:
473,318,67509,2,0,L|486:254,1,50.9999984436036,8|0,0:0|0:0,0:0:0:0:
384,125,67745,1,2,3:0:0:0:
366,143,67863,2,0,B|344:191|344:191|372:260,1,101.999996887207,8|0,0:0|0:0,0:0:0:0:
378,256,68218,2,0,L|240:277,1,101.999996887207,0|0,3:0|0:0,0:0:0:0:
277,271,68572,1,8,3:0:0:0:
277,271,68690,5,4,3:2:0:0:
501,180,68926,1,8,0:0:0:0:
281,103,69162,1,8,0:0:0:0:
265,82,69280,1,8,0:0:0:0:
256,59,69399,1,8,3:0:0:0:
254,33,69516,1,8,3:0:0:0:
259,9,69635,22,0,L|342:26,1,63.7500024318696,2|0,3:0|3:0,3:0:0:0:
221,195,69871,2,0,L|148:181,1,63.7500024318696,2|0,3:0|3:0,3:0:0:0:
2,17,70107,21,10,0:0:0:0:
8,33,70225,1,8,0:0:0:0:
114,78,70344,21,10,3:0:0:0:
108,94,70462,1,8,3:0:0:0:
33,174,70580,6,0,L|55:344,1,152.999995330811,14|8,3:2|0:0,0:0:0:0:
145,368,71052,2,0,L|211:356,1,50.9999984436036,0|0,3:0|3:0,3:0:0:0:
402,325,71288,2,0,L|282:304,1,101.999996887207,12|0,0:0|3:0,0:0:0:0:
301,307,71643,1,8,0:0:0:0:
301,307,71761,1,0,3:0:0:0:
486,271,71997,2,0,P|503:299|507:328,1,50.9999984436036,10|0,0:0|3:0,3:0:0:0:
389,212,72233,2,0,L|381:136,1,50.9999984436036,2|8,3:0|3:0,3:0:0:0:
510,26,72470,5,8,3:0:0:0:
506,51,72588,1,8,0:0:0:0:
503,76,72706,2,8,L|495:152,1,50.9999984436036,10|8,3:0|3:0,3:0:0:0:
326,80,72942,2,0,P|356:66|392:65,1,50.9999984436036,0|0,3:0|3:0,3:0:0:0:
279,184,73178,2,0,B|228:166|228:166|160:191,1,101.999996887207,10|0,0:0|3:0,0:0:0:0:
183,182,73533,1,0,3:0:0:0:
183,182,73651,1,0,3:0:0:0:
14,381,73887,5,2,0:0:0:0:
128,303,74123,1,10,0:0:0:0:
133,279,74241,1,8,0:0:0:0:
137,254,74359,6,0,L|160:75,1,152.999995330811,6|8,3:2|0:0,0:0:0:0:
29,185,74832,2,0,L|35:235,1,50.9999984436036,0|0,3:0|3:0,3:0:0:0:
205,369,75068,2,0,L|314:349,1,101.999996887207,14|0,0:0|3:0,0:0:0:0:
305,350,75422,1,8,0:0:0:0:
305,350,75540,1,2,3:0:0:0:
414,210,75777,1,8,0:0:0:0:
510,312,76013,2,8,L|424:297,1,50.9999984436036,2|8,3:0|3:0,3:0:0:0:
340,136,76249,5,2,3:0:0:0:
327,158,76367,2,0,B|309:203|309:203|337:283,1,101.999996887207,8|0,3:0|0:0,0:0:0:0:
431,124,76721,2,0,B|449:79|449:79|421:-1,1,101.999996887207,10|0,0:0|0:0,0:0:0:0:
348,0,77076,1,8,0:0:0:0:
330,18,77194,2,0,L|255:36,1,50.9999984436036,2|8,3:0|3:0,3:0:0:0:
226,141,77430,2,0,L|151:123,1,50.9999984436036,0|0,3:0|3:0,3:0:0:0:
116,42,77666,1,8,0:0:0:0:
9,180,77903,1,2,3:0:0:0:
0,204,78021,1,8,0:0:0:0:
11,226,78139,6,0,B|96:236|72:276|163:281,1,152.999995330811,6|8,3:2|0:0,0:0:0:0:
174,270,78611,1,0,3:0:0:0:
386,384,78847,2,0,P|403:336|373:266,1,101.999996887207,14|0,0:0|3:0,0:0:0:0:
370,272,79202,1,8,3:0:0:0:
345,265,79320,2,0,L|267:288,1,50.9999984436036,10|0,3:0|3:0,0:0:0:0:
488,170,79556,1,8,0:0:0:0:
501,148,79674,1,0,3:0:0:0:
506,123,79792,2,0,P|508:91|486:53,1,50.9999984436036,2|8,3:0|3:0,0:0:0:0:
392,21,80029,6,0,L|379:200,1,152.999995330811,10|8,3:0|0:0,0:0:0:0:
395,194,80501,1,2,3:0:0:0:
191,88,80737,2,0,B|241:71|241:71|299:94,1,101.999996887207,8|2,0:0|3:0,0:0:0:0:
101,168,81210,1,8,3:0:0:0:
83,149,81328,1,8,3:0:0:0:
78,123,81446,2,0,P|76:95|97:43,1,50.9999984436036,12|0,3:0|3:0,0:0:0:0:
243,167,81682,1,2,3:0:0:0:
250,201,81800,1,8,0:0:0:0:
240,235,81918,5,6,3:2:0:0:
161,300,82036,2,0,L|37:316,1,110.499994941712,8|0,0:0|3:0,0:0:0:0:
243,366,82391,2,0,L|297:358,1,55.2499974708558,0|0,3:0|3:0,3:0:0:0:
500,332,82627,1,14,0:0:0:0:
389,288,82863,5,2,3:0:0:0:
372,265,82981,1,8,3:0:0:0:
369,237,83099,1,8,3:0:0:0:
380,212,83217,1,8,3:0:0:0:
455,163,83336,5,10,0:0:0:0:
481,127,83454,1,8,0:0:0:0:
481,82,83572,1,8,0:0:0:0:
454,46,83690,1,8,0:0:0:0:
432,39,83808,6,0,L|244:82,1,170,2|2,0:0|0:0,0:0:0:0:
266,76,84753,6,0,L|246:180,1,85,2|0,0:0|0:0,0:0:0:0:
132,161,85107,2,0,L|148:244,1,85,2|0,0:0|0:0,0:0:0:0:
47,329,85462,1,2,0:0:0:0:
256,192,85698,12,0,88533,0:0:0:0:
