osu file format v14

[General]
AudioFilename: audio.mp3
AudioLeadIn: 0
PreviewTime: 52627
Countdown: 0
SampleSet: Soft
StackLeniency: 0.7
Mode: 0
LetterboxInBreaks: 0
WidescreenStoryboard: 1

[Editor]
Bookmarks: 659,8218,23336,38454,51682,55462,69635,70580,83808,88533
DistanceSpacing: 0.5
BeatDivisor: 4
GridSize: 32
TimelineZoom: 1

[Metadata]
Title:holLow wORlD (Fate/hollow ataraxia edit)
TitleUnicode:holLow wORlD (Fate/hollow ataraxia edit)
Artist:Aimer
ArtistUnicode:Aimer
Creator:SeaRasp
Version:Hard
Source:Fate/hollow ataraxia
Tags:エメ broKen NIGHT short version PS Vita game english japanese jrock j-rock rock Avenger フェイト/ホロウ アタラクシア Feito/horou atarakushia video visual novel vn
BeatmapID:2958923
BeatmapSetID:1437477

[Difficulty]
HPDrainRate:5
CircleSize:3.9
OverallDifficulty:7
ApproachRate:7.5
SliderMultiplier:1.6
SliderTickRate:1

[Events]
//Background and Video events
0,0,"BG.jpg",0,0
Video,0,"Fate Hollow Ataraxia - Opening 2.m4v"
//Break Periods
//Storyboard Layer 0 (Background)
//Storyboard Layer 1 (Fail)
//Storyboard Layer 2 (Pass)
//Storyboard Layer 3 (Foreground)
//Storyboard Layer 4 (Overlay)
//Storyboard Sound Samples

[TimingPoints]
422,472.44094488189,4,2,1,70,1,0
540,-100,4,2,1,5,0,0
659,472.44094488189,4,2,1,70,1,0
659,-90.9090909090909,4,2,1,70,0,0
8218,-100,4,2,1,60,0,0
10107,-100,4,2,1,60,0,0
10816,-100,4,2,1,60,0,0
13887,-100,4,2,1,60,0,0
14359,-100,4,2,1,60,0,0
15068,-83.3333333333333,4,2,1,60,0,0
15777,-100,4,2,1,60,0,0
17666,-100,4,2,1,60,0,0
18139,-100,4,2,1,60,0,0
22627,-83.3333333333333,4,2,1,60,0,0
23336,-100,4,2,1,60,0,0
25225,-100,4,2,1,60,0,0
25934,-100,4,2,1,60,0,0
29005,-83.3333333333333,4,2,1,60,0,0
29714,-100,4,2,1,60,0,0
30186,-83.3333333333333,4,2,1,60,0,0
30895,-100,4,2,1,60,0,0
32784,-83.3333333333333,4,2,1,60,0,0
33493,-100,4,2,1,60,0,0
36564,-83.3333333333333,4,2,1,60,0,0
38454,-90.9090909090909,4,2,1,65,0,0
52627,-133.333333333333,4,2,1,45,0,0
52745,-133.333333333333,4,2,1,5,0,0
53572,-111.111111111111,4,2,1,55,0,0
53690,-111.111111111111,4,2,1,5,0,0
54517,-100,4,2,1,65,0,0
55344,-100,4,2,1,5,0,0
55462,-86.9565217391304,4,2,1,75,0,1
69635,-76.9230769230769,4,2,1,75,0,0
70580,-86.9565217391304,4,2,1,75,0,1
81918,-76.9230769230769,4,2,1,75,0,1
83808,-100,4,2,1,40,0,0
84989,-100,4,2,1,5,0,0
85107,-100,4,2,1,40,0,0
85344,-100,4,2,1,5,0,0
85462,-100,4,2,1,40,0,0
88533,-100,4,2,1,5,0,0

[Colours]
Combo1 : 249,128,47
Combo2 : 128,94,87
Combo3 : 242,74,55
Combo4 : 186,126,120

[HitObjects]
468,124,422,6,0,L|477:80,1,40,2|0,0:0|0:0,0:0:0:0:
459,58,659,6,0,B|393:71|393:71|369:106|369:106|300:118,1,176.000005371094,6|0,3:2|0:0,0:0:0:0:
215,50,1367,2,0,L|99:33,1,88.000002685547,14|0,0:0|0:0,0:0:0:0:
127,37,1721,1,8,3:0:0:0:
127,37,1840,1,2,3:2:0:0:
34,167,2076,2,0,P|24:119|36:80,1,88.000002685547,8|0,0:0|0:0,0:0:0:0:
132,198,2548,6,0,B|232:204|207:252|307:248,1,176.000005371094,2|0,3:2|0:0,0:0:0:0:
424,220,3257,2,0,L|401:316,1,88.000002685547,8|0,0:0|0:0,0:0:0:0:
403,305,3611,1,8,3:0:0:0:
403,305,3729,1,0,3:0:0:0:
308,368,3966,1,8,3:0:0:0:
218,299,4202,1,8,0:0:0:0:
108,346,4438,6,0,B|26:370|26:370|-19:256,1,176.000005371094,6|0,3:2|0:0,0:0:0:0:
53,186,5147,2,0,L|144:218,1,88.000002685547,14|0,0:0|0:0,0:0:0:0:
136,215,5501,1,8,3:0:0:0:
136,215,5619,1,2,3:2:0:0:
228,157,5855,2,0,P|240:111|223:58,1,88.000002685547,8|0,0:0|0:0,0:0:0:0:
329,23,6328,6,0,L|510:-1,1,176.000005371094,2|0,3:2|0:0,0:0:0:0:
427,103,7036,1,10,0:0:0:0:
502,173,7273,1,0,3:0:0:0:
505,183,7391,1,8,0:0:0:0:
507,194,7509,1,8,0:0:0:0:
510,205,7627,1,8,0:0:0:0:
512,215,7745,2,0,L|501:267,3,44.0000013427735,8|8|8|0,3:0|3:0|3:0|3:0,0:0:0:0:
481,279,8218,6,0,B|424:288|424:288|404:322|404:322|310:339,1,160,4|0,3:2|0:0,0:0:0:0:
246,297,8926,2,0,P|235:258|245:214,1,80,8|0,3:0|0:0,0:0:0:0:
242,219,9281,1,0,3:0:0:0:
242,219,9399,1,2,0:0:0:0:
333,151,9635,2,0,L|350:18,1,120,10|8,0:0|0:0,0:0:0:0:
348,31,10107,5,8,3:0:0:0:
234,0,10344,2,0,L|243:95,1,80,10|0,3:0|0:0,0:0:0:0:
168,143,10816,2,0,P|122:99|13:112,1,160,10|2,0:0|3:2,0:0:0:0:
0,196,11525,5,8,0:0:0:0:
85,273,11761,1,10,0:0:0:0:
12,377,11997,6,0,L|179:347,1,160,8|0,3:0|0:0,0:0:0:0:
263,274,12706,1,8,0:0:0:0:
359,339,12942,1,0,0:0:0:0:
359,339,13060,2,0,P|376:297|369:241,1,80,0|0,3:0|0:0,0:0:0:0:
366,245,13414,1,10,0:0:0:0:
433,169,13651,1,2,0:0:0:0:
451,164,13769,1,8,0:0:0:0:
470,159,13887,5,10,3:0:0:0:
500,66,14123,2,0,L|396:50,1,80,10|0,3:0|0:0,0:0:0:0:
328,2,14596,2,0,P|261:22|235:83,1,120,10|0,0:0|0:0,0:0:0:0:
237,62,15068,6,0,L|250:128,1,47.9999985351563,0|0,3:0|3:0,0:0:0:0:
274,140,15304,2,2,B|261:202|261:202|266:221|266:221|251:292,1,143.999995605469,10|10,0:0|0:0,0:0:0:0:
253,280,15777,5,8,3:0:0:0:
161,350,16013,2,0,L|103:353,2,40,2|2|2,0:0|0:0|0:0,0:0:0:0:
42,299,16485,2,0,P|27:257|44:202,1,80,8|0,0:0|0:0,0:0:0:0:
44,206,16840,1,0,3:0:0:0:
156,117,17194,2,0,L|290:142,1,120,10|0,0:0|0:0,0:0:0:0:
273,139,17666,5,8,3:0:0:0:
375,104,17903,2,0,P|388:60|386:18,1,80,8|0,3:0|0:0,0:0:0:0:
479,151,18375,2,0,P|442:240|484:320,1,160,8|0,3:0|0:0,0:0:0:0:
512,384,19084,5,10,0:0:0:0:
357,298,19320,1,10,0:0:0:0:
270,361,19556,6,0,L|174:376,1,80,8|2,3:0|0:0,0:0:0:0:
190,373,19910,1,2,0:0:0:0:
190,373,20029,1,2,0:0:0:0:
90,310,20265,1,10,0:2:0:0:
177,233,20501,1,0,0:0:0:0:
177,233,20619,2,0,P|190:184|177:140,1,80,0|0,3:0|0:0,0:0:0:0:
175,138,20973,1,8,0:0:0:0:
81,39,21210,1,0,0:0:0:0:
73,57,21328,1,8,0:0:0:0:
68,76,21446,6,0,L|88:196,1,120,8|8,3:0|0:0,0:0:0:0:
252,269,22155,2,0,P|292:235|373:236,1,120,8|8,0:0|0:0,0:0:0:0:
357,230,22627,6,0,L|345:299,1,47.9999985351563,0|0,3:0|3:0,0:0:0:0:
340,359,22863,1,10,0:0:0:0:
340,359,22981,1,10,0:0:0:0:
340,359,23099,1,4,3:0:0:0:
463,257,23336,6,0,L|450:114,1,120,4|8,3:2|3:0,0:0:0:0:
452,137,23808,1,0,3:0:0:0:
370,85,24044,2,0,L|383:-3,1,80,8|0,3:0|0:0,0:0:0:0:
381,5,24399,1,0,3:0:0:0:
381,5,24517,1,2,0:0:0:0:
270,83,24753,2,0,B|216:56|216:56|132:98,1,120,10|8,0:0|0:0,0:0:0:0:
162,82,25225,5,8,3:0:0:0:
101,170,25462,1,10,3:0:0:0:
106,189,25580,1,8,0:0:0:0:
110,208,25698,1,0,0:0:0:0:
195,320,25934,2,0,L|221:157,1,160,10|2,0:0|3:2,0:0:0:0:
403,125,26643,5,8,0:0:0:0:
322,222,26879,1,10,0:0:0:0:
414,287,27115,6,0,L|501:273,1,80,8|0,3:0|0:0,0:0:0:0:
492,274,27470,1,8,0:0:0:0:
492,274,27588,1,0,0:0:0:0:
362,370,27824,2,0,L|283:357,1,80,10|0,3:0|0:0,0:0:0:0:
263,353,28178,1,0,3:0:0:0:
175,245,28533,2,0,B|120:221|120:221|50:257,1,120,8|0,0:0|0:0,0:0:0:0:
66,248,29005,5,8,3:0:0:0:
6,177,29241,1,10,3:0:0:0:
3,153,29359,1,8,0:0:0:0:
0,129,29477,1,0,0:0:0:0:
78,51,29714,2,0,L|220:22,1,120,10|0,0:0|0:0,0:0:0:0:
195,26,30186,6,0,L|210:93,1,47.9999985351563,2|0,3:0|3:0,0:0:0:0:
216,111,30422,2,2,B|275:131|275:131|288:152|288:152|354:173,1,143.999995605469,10|10,0:0|0:0,0:0:0:0:
342,169,30895,5,8,3:0:0:0:
446,128,31131,1,8,3:0:0:0:
451,108,31249,1,8,0:0:0:0:
456,88,31367,1,0,0:0:0:0:
436,226,31603,2,0,L|452:334,1,80,8|0,3:0|0:0,0:0:0:0:
453,324,31958,1,0,3:0:0:0:
309,381,32312,2,0,P|268:346|188:352,1,120,10|8,0:0|0:0,0:0:0:0:
204,344,32784,5,8,3:0:0:0:
90,323,33021,1,8,3:0:0:0:
85,298,33139,1,8,0:0:0:0:
81,274,33257,1,0,0:0:0:0:
161,201,33493,2,0,L|187:32,1,160,10|0,0:0|3:0,0:0:0:0:
11,12,34202,5,8,0:0:0:0:
79,102,34438,1,10,0:0:0:0:
186,43,34674,6,0,P|234:13|314:22,1,120,8|8,3:0|0:0,0:0:0:0:
295,14,35147,1,0,0:0:0:0:
365,98,35383,2,0,L|348:196,1,80,8|0,0:0|0:0,0:0:0:0:
347,196,35737,1,0,3:0:0:0:
452,340,36092,2,0,B|481:289|481:289|450:212,1,120,8|8,0:0|0:0,0:0:0:0:
458,232,36564,5,8,3:0:0:0:
370,290,36800,1,8,3:0:0:0:
346,294,36918,1,8,0:0:0:0:
323,299,37036,1,0,0:0:0:0:
249,218,37273,2,0,B|194:209|194:209|175:182|175:182|95:170,1,143.999995605469,4|8,3:2|0:0,0:0:0:0:
120,173,37745,1,0,3:0:0:0:
33,278,37981,5,10,0:0:0:0:
35,289,38099,1,8,0:0:0:0:
38,301,38217,1,8,3:0:0:0:
40,313,38335,1,0,3:0:0:0:
43,324,38454,6,0,B|146:324|113:378|236:367,1,176.000005371094,6|2,3:2|0:0,0:0:0:0:
315,280,39162,2,0,P|335:225|302:150,1,132.00000402832,10|0,0:0|3:0,0:0:0:0:
310,158,39635,1,2,0:0:0:0:
227,104,39871,1,10,0:0:0:0:
148,168,40107,1,2,0:0:0:0:
145,189,40225,1,8,0:0:0:0:
143,211,40343,5,4,3:0:0:0:
45,147,40580,2,0,P|34:88|51:48,1,88.000002685547,2|0,0:0|0:0,0:0:0:0:
147,8,41052,2,0,L|325:36,1,176.000005371094,10|2,0:0|0:0,0:0:0:0:
466,58,41761,1,10,0:0:0:0:
377,118,41997,6,0,P|361:170|366:210,1,88.000002685547,10|4,0:0|3:0,0:0:0:0:
426,289,42470,2,0,L|523:269,1,88.000002685547,2|0,0:2|0:0,0:0:0:0:
344,367,42942,2,0,B|287:339|287:339|203:375,1,132.00000402832,10|0,0:0|3:0,0:0:0:0:
224,365,43414,1,0,0:0:0:0:
123,294,43651,1,10,0:0:0:0:
210,213,43887,1,2,0:0:0:0:
210,213,44005,1,8,0:0:0:0:
210,213,44123,6,0,P|240:156|196:52,1,176.000005371094,4|2,3:0|0:0,0:0:0:0:
79,16,44832,2,0,L|107:154,1,132.00000402832,10|0,0:0|0:0,0:0:0:0:
108,164,45304,6,0,L|91:227,1,44.0000013427735,2|8,3:0|0:0,0:0:0:0:
30,242,45540,2,0,L|47:304,1,44.0000013427735,0|0,0:0|0:0,0:0:0:0:
92,342,45777,1,10,0:0:0:0:
86,363,45895,1,8,0:0:0:0:
80,384,46013,5,4,3:0:0:0:
163,281,46249,2,0,L|279:260,1,88.000002685547,2|0,0:2|1:0,0:0:0:0:
322,340,46721,2,0,B|405:349|379:378|468:385,1,132.00000402832,10|0,0:0|3:0,0:0:0:0:
445,382,47194,1,0,0:0:0:0:
458,272,47430,2,0,P|475:201|434:146,1,132.00000402832,8|8,0:0|0:0,0:0:0:0:
445,153,47903,5,4,3:0:0:0:
366,51,48139,2,0,L|359:94,2,44.0000013427735,2|2|2,0:0|0:0|0:0,0:0:0:0:
250,16,48611,2,0,L|264:164,1,132.00000402832,8|0,0:0|3:0,0:0:0:0:
262,147,49084,1,2,0:0:0:0:
370,221,49320,1,10,0:0:0:0:
254,280,49556,6,0,L|156:260,1,88.000002685547,10|4,0:0|3:0,0:0:0:0:
54,383,50029,2,0,L|140:365,1,88.000002685547,2|0,0:2|0:0,0:0:0:0:
62,241,50501,2,0,P|37:189|63:116,1,132.00000402832,10|4,0:0|3:0,0:0:0:0:
184,45,51092,5,8,0:0:0:0:
196,63,51210,2,0,L|187:126,3,44.0000013427735,8|0|8|8,0:0|3:0|3:0|3:0,0:0:0:0:
131,174,51682,1,0,3:0:0:0:
131,174,52627,22,0,B|234:172|203:130|316:117,1,180.000006866455,2|0,0:0|0:0,0:0:0:0:
299,34,53572,22,0,P|325:99|456:128,1,215.999993408203,2|0,0:0|0:0,0:0:0:0:
506,58,54517,22,0,L|477:239,1,160,2|2,0:0|0:0,0:0:0:0:
418,331,55225,2,0,L|408:283,1,40,2|0,0:0|0:0,0:0:0:0:
379,272,55462,6,0,B|312:290|312:290|294:327|294:327|214:352,1,184.000003509522,6|0,3:2|3:0,0:0:0:0:
81,380,56170,2,0,B|66:332|66:332|88:282,1,92.0000017547608,8|0,0:0|3:0,0:0:0:0:
100,278,56525,2,0,B|116:239|116:239|101:191,1,92.0000017547608,8|0,0:0|0:0,0:0:0:0:
87,173,56879,1,2,3:0:0:0:
10,100,57115,1,2,0:0:0:0:
15,77,57233,1,8,0:0:0:0:
20,55,57351,5,0,3:0:0:0:
118,9,57588,2,0,P|164:25|223:38,1,92.0000017547608,2|0,0:0|3:0,0:0:0:0:
277,134,58060,2,0,P|323:117|382:105,1,92.0000017547608,10|0,0:0|3:0,0:0:0:0:
364,107,58414,1,8,0:0:0:0:
364,107,58533,1,2,0:0:0:0:
451,44,58769,1,0,3:0:0:0:
505,153,59005,1,10,0:0:0:0:
500,175,59123,1,8,0:0:0:0:
496,197,59241,6,0,L|469:363,1,138.000002632141,6|0,3:2|0:0,0:0:0:0:
473,333,59714,1,0,3:0:0:0:
355,384,59950,2,0,P|339:335|354:292,1,92.0000017547608,12|0,0:0|3:0,0:0:0:0:
363,278,60304,2,0,L|250:292,1,92.0000017547608,8|0,0:0|0:0,0:0:0:0:
248,291,60659,1,2,3:0:0:0:
153,359,60895,1,2,0:0:0:0:
130,353,61013,1,8,0:0:0:0:
107,348,61131,5,0,3:0:0:0:
20,284,61367,2,0,B|8:235|8:235|27:184,1,92.0000017547608,2|0,0:0|3:0,0:0:0:0:
133,35,61840,2,0,B|145:84|145:84|126:135,1,92.0000017547608,10|0,0:0|3:0,0:0:0:0:
130,122,62194,1,8,0:0:0:0:
130,122,62312,1,2,3:0:0:0:
34,80,62548,1,0,3:0:0:0:
115,216,62784,1,10,0:0:0:0:
134,227,62903,1,8,0:0:0:0:
154,236,63021,6,0,B|213:221|213:221|233:177|233:177|315:157,1,184.000003509522,6|0,3:2|3:0,0:0:0:0:
407,264,63729,1,10,0:0:0:0:
494,185,63966,1,2,3:0:0:0:
494,185,64084,2,0,L|511:57,1,92.0000017547608,8|0,0:0|0:0,0:0:0:0:
511,71,64438,1,0,3:0:0:0:
387,10,64674,2,0,L|393:67,1,46.0000008773804,10|8,3:0|3:0,0:0:0:0:
394,94,64910,6,0,P|336:52|236:67,1,138.000002632141,2|0,3:0|0:0,0:0:0:0:
271,50,65383,1,0,3:0:0:0:
195,131,65619,2,0,L|210:228,1,92.0000017547608,10|0,0:0|3:0,0:0:0:0:
336,350,66092,1,10,3:0:0:0:
353,222,66328,1,2,3:0:0:0:
226,315,66564,1,10,0:0:0:0:
204,329,66682,1,8,0:0:0:0:
185,342,66800,6,0,B|82:329|121:276|10:270,1,184.000003509522,6|0,3:2|3:0,0:0:0:0:
130,183,67509,1,8,0:0:0:0:
15,59,67745,1,2,3:0:0:0:
15,59,67863,2,0,L|29:156,1,92.0000017547608,8|0,0:0|0:0,0:0:0:0:
33,172,68218,1,0,3:0:0:0:
179,88,68572,5,8,3:0:0:0:
179,88,68690,1,4,3:2:0:0:
249,176,68926,1,8,0:0:0:0:
349,113,69162,1,8,0:0:0:0:
349,113,69281,2,0,L|361:6,1,92.0000017547608,8|0,0:0|0:0,0:0:0:0:
359,21,69635,22,0,L|411:32,1,51.999997619629,2|0,3:0|3:0,0:0:0:0:
495,96,69871,2,0,L|443:106,1,51.999997619629,2|0,3:0|3:0,0:0:0:0:
402,184,70107,21,10,0:0:0:0:
404,196,70225,1,8,0:0:0:0:
406,209,70343,1,10,3:0:0:0:
408,222,70461,1,8,3:0:0:0:
410,235,70580,6,0,L|393:384,1,138.000002632141,14|8,3:2|0:0,0:0:0:0:
394,372,71052,1,0,3:0:0:0:
295,323,71288,2,0,P|249:303|195:324,1,92.0000017547608,12|0,0:0|3:0,0:0:0:0:
191,326,71643,2,0,P|145:346|91:325,1,92.0000017547608,8|0,0:0|0:0,0:0:0:0:
88,321,71997,1,10,0:0:0:0:
158,193,72233,1,2,3:0:0:0:
154,215,72351,1,8,3:0:0:0:
149,237,72470,5,8,3:0:0:0:
31,103,72706,2,0,L|53:219,1,92.0000017547608,10|0,3:0|3:0,0:0:0:0:
186,26,73178,2,0,L|164:142,1,92.0000017547608,10|0,0:0|3:0,0:0:0:0:
168,116,73533,1,0,3:0:0:0:
168,116,73651,1,0,3:0:0:0:
84,17,73887,1,2,0:0:0:0:
267,90,74123,1,10,0:0:0:0:
289,85,74241,1,8,0:0:0:0:
311,82,74359,6,0,L|480:51,1,138.000002632141,6|8,3:2|0:0,0:0:0:0:
446,57,74832,1,0,3:0:0:0:
507,142,75068,2,0,B|524:189|524:189|496:251,1,92.0000017547608,14|0,0:0|3:0,0:0:0:0:
494,246,75422,2,0,L|385:226,1,92.0000017547608,8|0,0:0|0:0,0:0:0:0:
380,224,75777,1,8,0:0:0:0:
248,273,76013,1,2,3:0:0:0:
269,279,76131,1,8,3:0:0:0:
290,286,76249,6,0,L|303:365,1,46.0000008773804,2|8,3:0|3:0,0:0:0:0:
312,360,76485,1,0,0:0:0:0:
185,206,76721,2,0,L|163:353,1,138.000002632141,10|8,0:0|0:0,0:0:0:0:
164,342,77194,2,0,L|96:358,1,46.0000008773804,2|8,3:0|3:0,0:0:0:0:
36,367,77430,1,0,3:0:0:0:
86,249,77666,1,8,0:0:0:0:
19,158,77903,1,2,3:0:0:0:
14,135,78021,1,8,0:0:0:0:
8,112,78139,6,0,B|69:83|69:83|141:113,1,138.000002632141,6|8,3:2|0:0,0:0:0:0:
134,110,78611,1,0,3:0:0:0:
310,34,78847,2,0,L|184:50,1,92.0000017547608,14|0,0:0|3:0,0:0:0:0:
218,45,79202,1,8,3:0:0:0:
218,45,79320,1,10,3:0:0:0:
304,150,79556,1,8,0:0:0:0:
399,83,79792,2,0,P|408:59|413:28,1,46.0000008773804,2|8,3:0|3:0,0:0:0:0:
416,20,80029,6,0,L|438:172,1,138.000002632141,10|8,3:0|0:0,0:0:0:0:
454,169,80501,2,0,L|471:290,1,92.0000017547608,2|8,3:0|0:0,0:0:0:0:
489,358,80973,1,2,3:0:0:0:
362,250,81210,1,8,3:0:0:0:
362,250,81328,1,8,3:0:0:0:
362,250,81446,1,12,3:0:0:0:
268,349,81682,2,0,L|204:363,1,46.0000008773804,2|8,3:0|0:0,0:0:0:0:
148,376,81918,5,6,3:2:0:0:
148,376,82036,2,0,B|124:324|124:324|147:254,1,103.999995239258,8|0,0:0|3:0,0:0:0:0:
154,259,82391,1,0,3:0:0:0:
142,111,82627,2,0,L|10:80,1,103.999995239258,14|2,0:0|3:0,0:0:0:0:
21,104,82981,1,8,3:0:0:0:
3,123,83099,2,0,L|16:195,1,51.999997619629,8|8,3:0|3:0,0:0:0:0:
61,239,83336,1,10,0:0:0:0:
59,252,83454,1,8,0:0:0:0:
57,265,83572,1,8,0:0:0:0:
54,277,83690,1,8,0:0:0:0:
52,290,83808,5,2,0:0:0:0:
259,115,84281,1,2,0:0:0:0:
110,82,84753,5,2,0:0:0:0:
156,203,85107,1,2,0:0:0:0:
202,324,85462,1,2,0:0:0:0:
256,192,85698,12,0,88533,0:0:0:0:
