osu file format v14

[General]
AudioFilename: audio.mp3
AudioLeadIn: 0
PreviewTime: 128389
Countdown: 0
SampleSet: Soft
StackLeniency: 0.7
Mode: 0
LetterboxInBreaks: 0
WidescreenStoryboard: 1

[Editor]
DistanceSpacing: 0.6
BeatDivisor: 4
GridSize: 32
TimelineZoom: 2

[Metadata]
Title:escalate
TitleUnicode:escalate
Artist:Aimer
ArtistUnicode:Aimer
Creator:Hyokar
Version:45[X]747261
Source:NieR:Automata Ver1.1a
Tags:ニーア オートマタ japanese anime nier automata opening op pop j-pop jpop jrock j-rock rock
BeatmapID:3970781
BeatmapSetID:1923494

[Difficulty]
HPDrainRate:5.5
CircleSize:4.2
OverallDifficulty:9
ApproachRate:9.3
SliderMultiplier:1.72
SliderTickRate:1

[Events]
//Background and Video events
0,0,"2B.jpg",0,0
//Break Periods
//Storyboard Layer 0 (Background)
//Storyboard Layer 1 (Fail)
//Storyboard Layer 2 (Pass)
//Storyboard Layer 3 (Foreground)
//Storyboard Layer 4 (Overlay)
//Storyboard Sound Samples

[TimingPoints]
161,342.857142857143,4,2,1,45,1,0
161,-125,4,2,1,45,0,0
10446,-125,4,2,1,50,0,0
11132,-166.666666666667,4,2,1,40,0,0
12846,-125,4,2,1,40,0,0
13189,-100,4,2,1,40,0,0
13532,-166.666666666667,4,2,1,40,0,0
15075,-125,4,2,1,40,0,0
15932,-100,4,2,1,40,0,0
16275,-166.666666666667,4,2,1,40,0,0
16618,-100,4,2,1,40,0,0
17303,-83.3333333333333,4,2,1,40,0,0
18332,-125,4,2,1,40,0,0
18675,-100,4,2,1,40,0,0
19018,-166.666666666667,4,2,1,40,0,0
19703,-166.666666666667,4,2,1,40,0,0
20561,-200,4,2,1,40,0,0
21075,-166.666666666667,4,2,1,40,0,0
21418,-133.333333333333,4,2,1,40,0,0
22789,-100,4,2,1,40,0,0
23303,-166.666666666667,4,2,1,40,0,0
23646,-125,4,2,1,40,0,0
26903,-83.3333333333333,4,2,1,40,0,0
27932,-125,4,2,1,40,0,0
28275,-83.3333333333333,4,2,1,40,0,0
29303,-125,4,2,1,40,0,0
29646,-83.3333333333333,4,2,1,40,0,0
29989,-166.666666666667,4,2,1,40,0,0
31361,-125,4,2,1,40,0,0
32389,-125,4,2,1,50,0,0
33075,-100,4,2,1,62,0,0
48161,-100,4,2,1,68,0,0
49532,-100,4,2,1,72,0,0
52275,-86.9565217391304,4,2,1,55,0,0
52618,-86.9565217391304,4,2,1,62,0,0
52961,-86.9565217391304,4,2,1,68,0,0
53303,-86.9565217391304,4,2,1,74,0,0
53646,-66.6666666666667,4,2,1,80,0,0
54332,-100,4,2,1,65,0,0
54675,-100,4,2,1,75,0,0
55018,-80,4,2,1,85,0,1
56389,-90.9090909090909,4,2,1,85,0,1
57589,-80,4,2,1,85,0,1
58103,-75.7575757575758,4,2,1,85,0,1
58446,-80,4,2,1,85,0,1
59132,-90.9090909090909,4,2,1,85,0,1
60503,-80,4,2,1,85,0,1
60846,-71.4285714285714,4,2,1,85,0,1
61875,-86.9565217391304,4,2,1,85,0,1
62389,-80,4,2,1,85,0,1
63761,-90.9090909090909,4,2,1,85,0,1
65989,-75.7575757575758,4,2,1,85,0,1
66332,-80,4,2,1,85,0,1
67361,-90.9090909090909,4,2,1,85,0,1
67875,-80,4,2,1,85,0,1
68561,-71.4285714285714,4,2,1,85,0,1
69418,-90.9090909090909,4,2,1,85,0,1
70103,-80,4,2,1,85,0,1
71475,-75.7575757575758,4,2,1,85,0,1
72846,-90.9090909090909,4,2,1,85,0,1
74218,-75.7575757575758,4,2,1,85,0,1
74561,-80,4,2,1,85,0,1
75589,-71.4285714285714,4,2,1,85,0,1
75932,-80,4,2,1,85,0,1
76961,-90.9090909090909,4,2,1,70,0,0
87932,-125,4,2,1,55,0,0
88275,-83.3333333333333,4,2,1,55,0,0
89303,-83.3333333333333,4,2,1,75,0,0
89561,-142.857142857143,4,2,1,75,0,0
89818,-66.6666666666667,4,2,1,75,0,0
89989,-100,4,2,1,75,0,0
90675,-100,4,2,1,65,0,0
93418,-125,4,2,1,52,0,0
94103,-166.666666666667,4,2,1,52,0,0
95132,-125,4,2,1,52,0,0
95475,-250.000000000001,4,2,1,52,0,0
97361,-166.666666666667,4,2,1,52,0,0
97875,-125,4,2,1,52,0,0
98218,-100,4,2,1,52,0,0
99075,-125,4,2,1,52,0,0
99589,-100,4,2,1,52,0,0
100618,-125,4,2,1,52,0,0
100961,-250,4,2,1,52,0,0
102846,-166.666666666667,4,2,1,52,0,0
103703,-100,4,2,1,58,0,0
104046,-90.9090909090909,4,2,1,58,0,0
104389,-100,4,2,1,62,0,0
120846,-100,4,2,1,68,0,0
123246,-100,4,2,1,72,0,0
123589,-90.9090909090909,4,2,1,55,0,0
123932,-90.9090909090909,4,2,1,62,0,0
124275,-90.9090909090909,4,2,1,68,0,0
124618,-90.9090909090909,4,2,1,72,0,0
124961,-90.9090909090909,4,2,1,65,0,0
127018,-90.9090909090909,4,2,1,50,0,0
127361,-90.9090909090909,4,2,1,62,0,0
127703,-90.9090909090909,4,2,1,74,0,0
128389,-100,4,2,1,65,0,0
128732,-100,4,2,1,75,0,0
129075,-80,4,2,1,85,0,1
130446,-90.9090909090909,4,2,1,85,0,1
131646,-80,4,2,1,85,0,1
132161,-75.7575757575758,4,2,1,85,0,1
133189,-90.9090909090909,4,2,1,85,0,1
134561,-80,4,2,1,85,0,1
134903,-71.4285714285714,4,2,1,85,0,1
136446,-80,4,2,1,85,0,1
137646,-90.9090909090909,4,2,1,85,0,1
140046,-75.7575757575758,4,2,1,85,0,1
140389,-80,4,2,1,85,0,1
141418,-90.9090909090909,4,2,1,85,0,1
142618,-71.4285714285714,4,2,1,85,0,1
143475,-90.9090909090909,4,2,1,85,0,1
144161,-80,4,2,1,85,0,1
145532,-75.7575757575758,4,2,1,85,0,1
146903,-90.9090909090909,4,2,1,85,0,1
148275,-75.7575757575758,4,2,1,85,0,1
148618,-80,4,2,1,85,0,1
149646,-71.4285714285714,4,2,1,85,0,1
149989,-80,4,2,1,85,0,1
151018,-90.9090909090909,4,2,1,70,0,0
161989,-83.3333333333333,4,2,1,75,0,0
172103,-83.3333333333333,4,2,1,80,0,0
172961,-75.7575757575758,4,2,1,85,0,0
181189,-75.7575757575758,4,2,1,75,0,0
181875,-75.7575757575758,4,2,1,78,0,0
182389,-75.7575757575758,4,2,1,80,0,0
182903,-75.7575757575758,4,2,1,82,0,0
183246,-75.7575757575758,4,2,1,85,0,0
183589,-75.7575757575758,4,2,1,90,0,0
183932,-166.666666666667,4,2,1,50,0,0
188046,-125,4,2,1,60,0,0
188389,-125,4,2,1,65,0,0
188732,-100,4,2,1,70,0,0
189075,-100,4,2,1,75,0,0
189418,-100,4,2,1,30,0,0
190103,-100,4,2,1,65,0,0
190446,-100,4,2,1,75,0,0
190789,-80,4,2,1,78,0,0
193361,-75.7575757575758,4,2,1,85,0,0
193875,-71.4285714285714,4,2,1,85,0,0
194218,-90.9090909090909,4,2,1,85,0,1
195418,-80,4,2,1,85,0,1
196618,-75.7575757575758,4,2,1,85,0,1
197646,-90.9090909090909,4,2,1,85,0,1
199018,-80,4,2,1,85,0,1
199532,-90.9090909090909,4,2,1,85,0,1
200389,-80,4,2,1,85,0,1
203132,-90.9090909090909,4,2,1,85,0,1
203646,-80,4,2,1,85,0,1
204846,-71.4285714285714,4,2,1,85,0,1
205875,-90.9090909090909,4,2,1,85,0,1
206389,-80,4,2,1,85,0,1
207246,-75.7575757575758,4,2,1,85,0,1
208618,-90.9090909090909,4,2,1,85,0,1
209989,-75.7575757575758,4,2,1,85,0,1
210332,-80,4,2,1,85,0,1
212732,-90.9090909090909,4,2,1,70,0,0
220961,-76.9230769230769,4,2,1,82,0,0
222332,-76.9230769230769,4,2,1,62,0,0
222675,-76.9230769230769,4,2,1,65,0,0
223018,-76.9230769230769,4,2,1,68,0,0
223361,-76.9230769230769,4,2,1,72,0,0
223703,-83.3333333333333,4,2,1,75,0,0
234675,-100,4,2,1,55,0,0
236046,-83.3333333333333,4,2,1,62,0,0
236303,-166.666666666667,4,2,1,62,0,0
236561,-66.6666666666667,4,2,1,62,0,0
236732,-100,4,2,1,62,0,0
237418,-222.222222222222,4,2,1,70,0,0
240161,-222.222222222222,4,2,2,50,0,0

[Colours]
Combo1 : 179,165,138
Combo2 : 187,187,187
Combo3 : 241,193,122

[HitObjects]
99,30,161,6,0,L|123:103,1,68.8,4|0,1:2|0:0,0:0:0:0:
136,140,418,1,0,0:0:0:0:
136,140,503,1,2,0:0:0:0:
216,246,675,2,0,L|237:180,1,68.8,2|0,0:0|0:0,0:0:0:0:
109,259,1018,6,0,P|63:284|72:371,1,137.6,2|2,0:0|0:0,0:0:0:0:
63,361,1532,1,0,0:0:0:0:
156,335,1703,1,2,0:0:0:0:
156,335,1789,1,0,0:0:0:0:
156,335,1875,2,0,P|192:342|225:355,1,68.8,0|2,0:0|0:0,0:0:0:0:
304,295,2218,1,2,0:0:0:0:
454,360,2389,5,2,0:0:0:0:
454,360,2903,6,0,L|430:287,1,68.8,2|0,1:2|0:0,0:0:0:0:
417,250,3160,1,0,0:0:0:0:
417,250,3245,1,2,0:0:0:0:
337,144,3417,2,0,L|315:209,1,68.8,2|0,0:0|0:0,0:0:0:0:
439,123,3761,6,0,P|442:88|413:58,1,68.8,2|0,0:0|0:0,0:0:0:0:
452,210,4103,2,0,P|480:230|521:219,1,68.8,2|0,0:0|0:0,0:0:0:0:
359,164,4446,2,0,P|327:178|315:219,1,68.8,2|0,0:0|0:0,0:0:0:0:
264,284,4789,1,2,0:0:0:0:
264,284,4875,1,2,0:0:0:0:
264,284,4961,2,0,L|285:333,1,34.4,2|0,0:0|0:0,0:0:0:0:
197,220,5132,2,0,L|210:188,1,34.4,2|0,0:0|0:0,0:0:0:0:
128,280,5303,5,2,0:0:0:0:
128,280,5646,2,0,P|88:293|62:302,1,68.8,2|0,1:0|0:0,0:0:0:0:
18,314,5903,1,0,0:0:0:0:
18,314,5989,1,2,0:0:0:0:
60,165,6161,6,0,L|44:119,2,34.4,2|0|0,0:0|0:0|0:0,0:0:0:0:
16,48,6503,2,0,L|63:57,2,34.4,2|0|0,0:0|0:0|0:0,0:0:0:0:
141,66,6846,2,0,L|109:102,2,34.4,2|0|0,0:0|0:0|0:0,0:0:0:0:
206,138,7189,5,2,0:0:0:0:
206,138,7275,1,0,0:0:0:0:
206,138,7361,2,0,P|242:149|276:122,1,68.8,0|2,0:0|0:0,0:0:0:0:
341,70,7703,1,2,0:0:0:0:
341,70,7789,1,0,0:0:0:0:
341,70,7875,1,2,0:0:0:0:
420,126,8046,2,0,L|405:168,1,34.4
353,237,8218,2,0,L|339:198,1,34.4
476,333,8389,6,0,P|448:313|415:319,1,68.8,2|0,1:2|0:0,0:0:0:0:
379,355,8646,1,0,0:0:0:0:
379,355,8732,1,2,0:0:0:0:
230,364,8903,6,0,L|246:318,2,34.4,2|0|0,0:0|0:0|0:0,0:0:0:0:
274,247,9245,2,0,L|226:256,2,34.4,2|0|0,0:0|0:0|0:0,0:0:0:0:
149,265,9588,2,0,L|180:301,2,34.4,2|0|0,0:0|0:0|0:0,0:0:0:0:
21,364,9932,5,2,0:0:0:0:
21,364,10103,2,0,L|49:281,1,68.8,0|2,0:0|0:0,0:0:0:0:
206,148,10446,5,2,0:0:0:0:
16,24,10789,1,2,0:0:0:0:
149,265,11132,6,0,B|233:260|195:202|309:211,1,154.799995275879,4|0,1:2|0:0,0:0:0:0:
395,185,11818,2,0,P|347:163|348:109,1,103.199996850586,2|2,0:0|0:0,0:0:0:0:
391,37,12332,1,2,0:0:0:0:
486,208,12675,5,0,0:0:0:0:
485,299,12846,2,0,P|455:286|411:272,1,68.8
312,195,13189,2,0,P|275:216|219:237,1,86,10|2,0:1|0:0,0:0:0:0:
148,199,13532,2,0,P|128:226|154:288,1,103.199996850586,2|2,0:0|0:0,0:0:0:0:
150,285,14218,1,2,0:0:0:0:
453,118,14903,5,2,0:0:0:0:
383,54,15075,2,0,P|369:87|357:123,1,68.8,2|0,0:0|0:0,0:0:0:0:
299,272,15418,5,2,0:0:0:0:
236,338,15589,2,0,P|223:307|209:275,1,68.8,2|2,0:0|0:0,0:0:0:0:
16,381,15932,6,0,P|38:342|87:353,1,86,10|2,0:1|0:0,0:0:0:0:
163,363,16275,2,0,P|199:348|244:337,1,77.3999976379395,2|0,0:0|0:0,0:0:0:0:
247,348,16618,6,0,B|343:344|296:286|418:289,1,172,2|2,1:2|0:0,0:0:0:0:
485,325,17132,1,2,0:0:0:0:
494,316,17218,1,0,0:0:0:0:
506,307,17303,2,0,P|468:211|420:109,1,206.399993701172,2|2,0:0|0:0,0:0:0:0:
483,29,17818,1,2,0:0:0:0:
483,29,18161,5,2,0:0:0:0:
423,120,18332,2,0,P|405:160|394:197,1,68.8,2|2,0:0|0:0,0:0:0:0:
317,324,18675,2,0,P|300:275|279:232,1,86,10|2,0:1|0:0,0:0:0:0:
246,131,19018,2,0,P|290:150|328:157,1,77.3999976379395,2|0,0:0|0:0,0:0:0:0:
328,149,19361,1,2,0:0:0:0:
204,295,19703,6,0,P|151:293|121:338,1,103.199996850586,2|0,0:0|0:0,0:0:0:0:
122,329,20389,1,2,0:0:0:0:
9,372,20561,2,0,L|51:256,1,107.5,2|0,0:0|0:0,0:0:0:0:
100,222,21075,2,0,L|79:163,1,51.599998425293,2|0,0:0|0:0,0:0:0:0:
0,13,21418,6,0,P|41:31|67:38,1,64.5000024604798,10|0,0:1|0:0,0:0:0:0:
74,40,21675,1,0,0:0:0:0:
88,41,21761,2,0,L|108:2,1,32.2500012302399,2|0,0:0|0:0,0:0:0:0:
178,111,21932,2,0,L|192:143,1,32.2500012302399
254,25,22103,5,4,1:2:0:0:
100,222,22275,1,0,1:0:0:0:
309,366,22618,5,2,0:0:0:0:
309,366,22789,2,0,P|372:314|332:226,1,172,2|2,0:0|0:0,0:0:0:0:
280,169,23303,2,0,P|254:183|224:196,1,51.599998425293,2|0,0:0|0:0,0:0:0:0:
324,97,23646,1,0,1:2:0:0:
453,8,23818,6,0,P|487:21|530:31,1,68.8,2|2,1:2|0:0,0:0:0:0:
461,212,24161,2,0,P|411:166|437:89,1,137.6,10|2,0:0|0:0,0:0:0:0:
422,103,24846,1,0,1:0:0:0:
294,17,25018,1,0,1:0:0:0:
350,88,25189,6,0,L|382:10,1,68.8,2|0,0:0|0:0,0:0:0:0:
261,138,25532,2,0,L|287:201,1,68.8
431,271,25875,6,0,P|373:288|296:328,1,137.6,2|0,0:0|0:0,0:0:0:0:
231,379,26389,1,2,1:2:0:0:
159,318,26561,1,2,1:2:0:0:
6,153,26903,6,0,P|56:135|108:112,1,103.199996850586,10|2,0:0|0:0,0:0:0:0:
112,106,27161,1,0,0:0:0:0:
123,95,27246,2,0,P|132:67|145:43,1,51.599998425293,2|0,0:0|0:0,0:0:0:0:
75,206,27418,2,0,P|86:229|94:253,1,51.599998425293
181,311,27589,5,0,1:0:0:0:
2,254,27761,1,0,1:0:0:0:
166,157,27932,6,0,P|219:145|259:190,1,103.2,2|0,0:0|0:0,0:0:0:0:
259,187,28275,2,0,B|375:188|326:262|458:271,1,206.399993701172,2|2,0:0|0:0,0:0:0:0:
511,203,28789,1,2,0:0:0:0:
259,69,29132,5,2,1:2:0:0:
188,9,29303,2,0,P|178:45|155:95,1,68.8,2|0,1:2|0:0,0:0:0:0:
12,193,29646,6,0,P|28:137|117:142,1,154.799995275879,10|0,0:0|0:0,0:0:0:0:
119,145,29989,2,0,P|131:188|146:226,1,77.3999976379395,2|0,0:0|0:0,0:0:0:0:
150,230,30332,1,0,1:0:0:0:
208,153,30503,1,0,1:0:0:0:
125,331,30675,6,0,P|173:312|222:297,1,103.199996850586,2|0,0:0|0:0,0:0:0:0:
502,107,31361,5,2,0:0:0:0:
430,168,31532,2,0,P|451:217|477:302,1,137.6,2|0,0:0|1:0,0:0:0:0:
423,370,32046,1,2,1:2:0:0:
216,166,32389,6,0,P|185:181|137:196,1,68.8,10|2,0:0|0:0,0:0:0:0:
87,257,32732,1,2,0:0:0:0:
78,251,32818,1,0,0:0:0:0:
69,245,32903,1,0,0:0:0:0:
60,239,32989,1,0,0:0:0:0:
49,231,33075,6,0,P|35:186|74:146,1,86,4|0,1:2|0:0,0:0:0:0:
182,55,33418,1,2,1:2:0:0:
84,24,33589,1,2,0:0:0:0:
216,166,33761,2,0,P|256:179|296:195,1,86,10|2,0:0|0:0,0:0:0:0:
446,366,34103,5,2,1:2:0:0:
247,259,34275,1,8,0:0:0:0:
369,302,34446,2,0,P|409:286|449:272,1,86,2|0,1:2|0:0,0:0:0:0:
505,197,34789,5,2,1:2:0:0:
341,40,34961,2,0,P|361:84|386:143,1,86,10|0,0:0|1:0,0:0:0:0:
337,205,35303,1,2,0:0:0:0:
172,362,35475,2,0,P|192:318|217:259,1,86,2|8,1:2|0:0,0:0:0:0:
225,241,35732,1,0,1:0:0:0:
225,241,35818,6,0,P|230:196|183:164,1,86,2|0,1:2|0:0,0:0:0:0:
76,78,36161,1,2,1:2:0:0:
16,152,36332,1,2,0:0:0:0:
190,39,36503,2,0,P|236:60|276:73,1,86,10|2,0:0|0:0,0:0:0:0:
114,226,36846,2,0,P|73:240|34:258,1,86,2|8,1:2|0:0,0:0:0:0:
2,286,37103,1,8,0:0:0:0:
2,286,37189,6,0,P|-7:335|42:355,1,86,2|0,1:2|0:0,0:0:0:0:
106,381,37532,1,2,1:2:0:0:
238,199,37703,6,0,P|223:160|205:119,1,86,10|2,0:0|0:0,0:0:0:0:
332,261,38046,1,10,0:0:0:0:
459,11,38218,6,0,P|441:50|426:90,1,86,2|0,0:0|1:0,0:0:0:0:
422,103,38475,1,0,1:0:0:0:
415,115,38561,6,0,P|456:150|496:134,1,86,4|0,1:2|0:0,0:0:0:0:
332,261,38903,2,0,P|290:258|263:290,1,86,2|2,1:2|0:0,0:0:0:0:
467,374,39246,6,0,B|507:330|507:330|457:208,1,172,10|2,0:0|1:2,0:0:0:0:
423,137,39761,1,8,0:0:0:0:
344,72,39932,2,0,P|389:55|434:32,1,86,2|2,1:2|0:0,0:0:0:0:
306,190,40275,5,0,1:0:0:0:
316,292,40446,2,0,P|277:273|236:258,1,86,10|0,0:0|1:0,0:0:0:0:
176,182,40789,1,2,0:0:0:0:
61,285,40961,1,2,1:2:0:0:
13,205,41132,1,10,0:0:0:0:
115,357,41303,6,0,P|136:304|155:261,1,86,2|0,1:2|0:0,0:0:0:0:
270,124,41646,2,0,P|286:163|302:203,1,86,2|2,1:2|0:0,0:0:0:0:
148,86,41989,2,0,P|162:37|198:26,1,86,8|2,0:0|0:0,0:0:0:0:
86,7,42332,1,0,1:0:0:0:
6,146,42503,5,8,0:0:0:0:
6,146,42589,1,8,0:0:0:0:
6,146,42675,2,0,P|48:161|88:177,1,86,0|2,1:0|0:0,0:0:0:0:
146,245,43018,1,0,1:0:0:0:
329,375,43189,5,10,0:0:0:0:
355,277,43361,2,0,P|304:294|267:309,1,86,2|10,1:2|0:0,0:0:0:0:
457,249,43703,1,0,1:0:0:0:
457,214,43789,1,8,2:3:0:0:
439,184,43875,1,0,1:0:0:0:
409,166,43961,1,8,2:3:0:0:
374,166,44046,6,0,P|346:93|323:37,1,129,4|0,1:2|0:0,0:0:0:0:
335,37,44389,2,0,P|382:25|413:57,1,86,2|2,1:2|0:0,0:0:0:0:
228,176,44732,2,0,P|241:129|284:118,1,86,10|2,0:0|0:0,0:0:0:0:
312,207,45075,1,2,1:2:0:0:
161,98,45246,1,8,0:0:0:0:
79,292,45418,6,0,P|124:273|166:262,1,86,2|0,1:2|0:0,0:0:0:0:
90,200,45761,1,2,1:2:0:0:
266,305,45932,6,0,P|245:246|232:208,1,86,8|2,0:0|1:2,0:0:0:0:
201,140,46275,1,2,0:0:0:0:
61,3,46446,6,0,P|40:62|27:100,1,86,10|8,1:2|0:0,0:0:0:0:
22,94,46703,1,0,1:0:0:0:
14,104,46789,2,0,P|60:99|90:199,1,172,2|2,1:2|1:2,0:0:0:0:
37,277,47303,1,2,0:0:0:0:
202,373,47475,6,0,P|257:353|294:344,1,86,10|2,0:0|0:0,0:0:0:0:
372,257,47818,2,0,P|427:277|464:286,1,86,2|8,1:2|0:0,0:0:0:0:
465,276,48075,1,8,0:0:0:0:
477,271,48161,2,0,P|514:237|499:189,1,86,2|0,1:2|0:0,0:0:0:0:
469,125,48503,1,2,1:2:0:0:
278,8,48675,6,0,P|258:59|249:106,1,86,10|0,0:0|1:0,0:0:0:0:
186,154,49018,1,10,0:0:0:0:
381,334,49189,6,0,P|370:292|354:252,1,86,2|2,1:2|0:0,0:0:0:0:
346,244,49446,1,0,1:0:0:0:
337,232,49532,6,0,B|235:251|276:291|168:307,1,172,4|10,1:2|0:0,0:0:0:0:
102,244,50046,1,0,0:0:0:0:
3,370,50218,2,0,P|51:344|92:333,1,86,2|8,1:2|0:0,0:0:0:0:
187,183,50561,2,0,P|146:169|109:148,1,86,2|0,1:2|0:0,0:0:0:0:
93,25,50903,6,0,P|42:14|13:114,1,172,2|2,1:2|1:2,0:0:0:0:
109,148,51418,1,10,0:0:0:0:
252,16,51589,6,0,P|270:63|281:101,1,86,0|0,1:0|1:0,0:0:0:0:
117,305,51932,2,0,P|129:263|145:223,1,86,10|0,0:0|1:0,0:0:0:0:
156,214,52189,1,0,1:0:0:0:
165,204,52275,6,0,P|195:192|223:177,1,49.4500009431839,4|0,1:2|0:0,0:0:0:0:
45,267,52446,2,0,P|22:256|0:247,1,49.4500009431839,8|0,0:0|0:0,0:0:0:0:
189,362,52618,6,0,P|237:378|279:332,1,98.9000018863678,2|8,1:2|0:0,0:0:0:0:
281,340,52875,1,8,0:0:0:0:
290,328,52961,2,0,L|265:259,1,49.4500009431839,10|8,0:0|0:0,0:0:0:0:
396,136,53132,2,0,L|379:182,1,49.4500009431839,8|8,2:3|2:3,0:0:0:0:
216,78,53303,6,0,L|191:9,1,49.4500009431839,10|8,0:0|2:3,0:0:0:0:
285,0,53475,2,0,L|310:69,1,49.4500009431839,4|4,2:3|2:3,0:0:0:0:
202,207,53646,6,0,P|168:158|95:177,1,129.00000492096,10|0,0:0|0:0,0:0:0:0:
411,220,54332,5,2,0:0:0:0:
437,193,54447,5,2,0:0:0:0:
446,229,54561,5,2,0:0:0:0:
490,140,54675,6,0,L|513:177,1,43,2|0,0:0|0:0,0:0:0:0:
355,273,54846,2,0,L|333:235,1,43,2|0,0:0|0:0,0:0:0:0:
217,11,55018,6,0,P|150:42|173:120,1,161.25,4|0,1:0|0:0,0:0:0:0:
133,188,55361,2,0,P|182:167|234:153,1,107.5,10|0,1:2|0:0,0:0:0:0:
424,37,55703,1,0,1:0:0:0:
358,155,55875,1,0,0:0:0:0:
217,11,56046,1,2,1:2:0:0:
461,166,56218,5,8,0:0:0:0:
461,166,56303,1,0,0:0:0:0:
461,166,56389,2,0,P|437:213|414:272,1,94.600002886963,2|0,1:2|0:0,0:0:0:0:
247,369,56732,5,2,1:2:0:0:
114,116,56903,1,8,0:0:0:0:
364,181,57075,5,2,1:2:0:0:
178,305,57246,1,8,0:0:0:0:
175,64,57418,2,0,L|198:126,1,47.3000014434815,0|0,1:0|0:0,0:0:0:0:
6,306,57589,6,0,B|127:287|78:229|210:214,1,215,4|0,1:2|0:0,0:0:0:0:
454,361,58103,2,0,P|501:316|461:231,1,170.279999480347,10|0,1:2|0:0,0:0:0:0:
418,176,58446,2,0,P|372:202|311:230,1,107.5,0|0,1:0|0:0,0:0:0:0:
456,91,58789,5,2,1:2:0:0:
219,0,58961,1,8,0:0:0:0:
368,113,59132,2,0,P|381:62|403:3,1,94.600002886963,2|2,1:2|0:0,0:0:0:0:
262,172,59475,5,2,1:2:0:0:
510,321,59646,1,8,0:0:0:0:
387,375,59818,5,2,1:2:0:0:
512,123,59989,1,8,0:0:0:0:
276,216,60161,6,0,L|260:167,1,47.3000014434815,0|0,1:0|0:0,0:0:0:0:
203,87,60332,2,0,L|185:135,1,47.3000014434815
19,238,60503,6,0,P|78:209|127:291,1,161.25,4|0,1:2|0:0,0:0:0:0:
201,325,60846,2,0,P|143:345|87:371,1,120.399996325684,10|0,1:2|0:0,0:0:0:0:
279,217,61189,1,0,1:0:0:0:
183,137,61361,1,0,0:0:0:0:
312,320,61532,1,2,1:2:0:0:
474,125,61703,5,8,0:0:0:0:
474,125,61789,1,0,1:0:0:0:
474,125,61875,2,0,P|416:105|368:84,1,98.9000018863678,0|0,1:2|0:0,0:0:0:0:
309,16,62218,1,0,1:0:0:0:
124,195,62389,6,0,P|94:144|119:99,1,107.5,8|0,0:0|1:0,0:0:0:0:
287,240,62732,1,8,0:0:0:0:
122,384,62903,1,2,1:2:0:0:
92,371,62989,1,8,2:3:0:0:
61,358,63075,1,8,0:0:0:0:
30,346,63161,1,8,0:0:0:0:
0,333,63246,6,0,P|23:278|46:219,1,107.5,4|0,1:2|0:0,0:0:0:0:
252,50,63589,5,10,1:2:0:0:
158,30,63761,2,0,P|181:85|203:140,1,94.600002886963,2|0,0:0|1:0,0:0:0:0:
286,175,64103,1,0,0:0:0:0:
152,316,64275,1,2,1:2:0:0:
370,373,64446,5,8,0:0:0:0:
370,373,64532,1,0,0:0:0:0:
370,373,64618,2,0,P|406:321|388:276,1,94.600002886963,2|2,1:2|0:0,0:0:0:0:
189,211,64961,2,0,P|216:268|266:274,1,94.600002886963,0|8,1:0|0:0,0:0:0:0:
408,163,65303,1,2,1:2:0:0:
208,6,65475,1,8,0:0:0:0:
289,110,65646,1,2,1:2:0:0:
319,99,65732,1,8,2:3:0:0:
349,88,65818,1,0,1:0:0:0:
379,78,65903,1,8,0:0:0:0:
408,65,65989,6,0,P|474:83|493:175,1,170.279999480347,4|0,1:2|0:0,0:0:0:0:
507,252,66332,2,0,P|456:232|400:211,1,107.5,10|0,1:2|0:0,0:0:0:0:
233,350,66675,1,0,1:0:0:0:
307,246,66846,1,0,0:0:0:0:
441,380,67018,1,2,1:2:0:0:
201,259,67189,5,8,0:0:0:0:
201,259,67275,1,0,0:0:0:0:
201,259,67361,2,0,P|219:206|242:153,1,94.600002886963,0|2,1:1|0:0,0:0:0:0:
276,80,67703,1,2,1:2:0:0:
86,216,67875,5,8,0:0:0:0:
350,327,68046,1,2,1:2:0:0:
276,80,68218,5,8,0:0:0:0:
150,339,68389,1,2,1:2:0:0:
0,126,68561,6,0,P|53:107|116:81,1,120.399996325684,4|0,1:2|1:0,0:0:0:0:
173,8,68903,1,0,0:0:0:0:
250,253,69075,2,0,P|303:272|366:297,1,120.399996325684,10|0,1:2|0:0,0:0:0:0:
503,188,69418,5,2,0:0:0:0:
498,178,69503,1,2,0:0:0:0:
493,168,69589,1,2,0:0:0:0:
488,158,69675,1,2,0:0:0:0:
482,148,69761,2,0,P|510:135|538:120,1,47.3000014434815,2|0,1:2|0:0,0:0:0:0:
413,237,69932,2,0,P|389:223|366:214,1,47.3000014434815,8|0,0:0|1:0,0:0:0:0:
457,384,70103,6,0,P|508:356|485:265,1,161.25,2|0,1:2|0:0,0:0:0:0:
483,258,70446,1,2,1:2:0:0:
326,17,70618,1,10,0:0:0:0:
482,148,70789,1,0,1:0:0:0:
274,252,70961,2,0,P|292:195|314:135,1,107.5,8|0,0:0|1:0,0:0:0:0:
507,16,71303,5,0,0:0:0:0:
507,16,71389,1,0,0:0:0:0:
507,16,71475,2,0,B|409:22|455:76|336:88,1,170.279999480347,4|0,1:2|0:0,0:0:0:0:
281,55,71818,2,0,P|305:8|366:6,1,113.519999653564,10|0,1:2|0:0,0:0:0:0:
444,175,72161,2,0,P|417:219|357:219,1,113.519999653564,0|0,1:0|0:0,0:0:0:0:
137,198,72503,5,2,1:2:0:0:
21,359,72675,1,8,0:0:0:0:
21,359,72761,1,0,1:0:0:0:
21,359,72846,2,0,P|58:318|109:335,1,94.600002886963,2|0,1:2|0:0,0:0:0:0:
179,363,73189,1,2,1:2:0:0:
276,160,73361,6,0,P|257:112|238:57,1,94.600002886963,8|2,0:0|1:2,0:0:0:0:
334,88,73703,1,8,0:0:0:0:
141,251,73875,1,0,1:0:0:0:
111,237,73961,1,8,2:3:0:0:
82,223,74046,1,8,0:0:0:0:
52,208,74132,1,8,0:0:0:0:
22,195,74218,6,0,B|-15:145|-15:145|55:30,1,170.279999480347,4|0,1:2|0:0,0:0:0:0:
103,8,74561,2,0,P|155:38|212:62,1,107.5,10|2,1:2|0:0,0:0:0:0:
361,203,74903,2,0,P|311:224|265:252,1,107.5,2|4,1:2|2:3,0:0:0:0:
393,113,75246,5,2,1:2:0:0:
373,338,75418,1,8,0:0:0:0:
177,238,75589,2,0,P|195:180|265:173,1,120.399996325684,4|10,1:2|0:0,0:0:0:0:
498,31,75932,5,2,1:2:0:0:
487,72,76018,1,8,0:0:0:0:
476,113,76103,1,8,2:3:0:0:
466,155,76189,1,8,2:3:0:0:
453,196,76275,2,0,P|422:182|385:173,1,53.75,2|8,1:2|0:0,0:0:0:0:
259,317,76446,5,8,2:3:0:0:
250,330,76532,1,8,2:3:0:0:
240,342,76618,2,0,P|214:350|189:361,1,53.75,2|8,1:2|2:3,0:0:0:0:
313,244,76789,2,0,P|338:252|363:263,1,53.75,0|0,1:0|1:0,0:0:0:0:
104,303,76961,5,4,1:2:0:0:
225,158,77132,1,0,1:2:0:0:
123,140,77303,2,0,L|165:247,1,94.600002886963,2|0,0:0|1:0,0:0:0:0:
332,358,77646,6,0,L|366:269,1,94.600002886963,10|0,0:0|0:0,0:0:0:0:
440,213,77989,1,2,1:2:0:0:
494,28,78161,6,0,P|466:70|405:60,1,94.600002886963,2|0,1:2|0:0,0:0:0:0:
352,20,78503,1,2,1:2:0:0:
505,140,78675,1,2,1:2:0:0:
505,140,78846,1,2,0:0:0:0:
283,281,79018,5,12,0:0:0:0:
175,212,79189,1,2,0:0:0:0:
7,93,79361,5,2,0:0:0:0:
181,3,79532,1,2,1:2:0:0:
0,249,79703,5,4,1:2:0:0:
63,318,79875,2,0,P|80:269|106:203,1,94.600002886963,2|2,1:2|0:0,0:0:0:0:
159,300,80218,1,0,1:2:0:0:
268,42,80389,6,0,P|285:91|311:157,1,94.600002886963,10|0,0:0|0:0,0:0:0:0:
360,52,80732,1,2,1:2:0:0:
495,255,80903,6,0,P|458:292|413:288,1,94.600002886963,10|0,0:0|1:0,0:0:0:0:
340,246,81246,1,10,0:0:0:0:
241,370,81418,2,0,P|190:354|137:341,1,94.600002886963,2|0,1:2|1:0,0:0:0:0:
340,246,81761,5,12,0:0:0:0:
440,371,81932,1,2,1:2:0:0:
279,175,82103,2,0,P|324:163|369:148,1,94.600002886963,8|0,2:3|1:0,0:0:0:0:
218,14,82446,5,4,1:2:0:0:
136,66,82618,1,2,1:2:0:0:
1,183,82789,5,2,0:0:0:0:
142,262,82961,1,0,1:2:0:0:
0,384,83132,6,0,L|38:281,1,94.600002886963,10|0,0:0|0:0,0:0:0:0:
101,364,83475,1,2,1:2:0:0:
204,136,83646,6,0,L|242:239,1,94.600002886963,2|0,1:2|0:0,0:0:0:0:
292,151,83989,1,2,1:2:0:0:
301,354,84161,6,0,P|352:373|397:348,1,94.600002886963,0|2,1:2|0:0,0:0:0:0:
505,210,84503,1,12,0:0:0:0:
368,137,84675,1,2,0:0:0:0:
368,137,84846,1,2,0:0:0:0:
450,275,85018,1,0,1:0:0:0:
467,88,85189,6,0,P|452:124|433:182,1,94.600002886963,4|0,1:2|1:0,0:0:0:0:
301,354,85532,2,0,P|286:309|268:265,1,94.600002886963,2|0,0:0|1:0,0:0:0:0:
130,130,85875,5,8,0:0:0:0:
130,130,86218,5,4,1:2:0:0:
261,47,86389,1,8,0:0:0:0:
144,213,86561,2,0,P|94:194|43:180,1,94.600002886963,0|10,1:0|1:2,0:0:0:0:
203,307,86903,5,2,1:2:0:0:
245,329,86989,1,0,1:0:0:0:
292,327,87075,1,8,0:0:0:0:
331,301,87161,1,8,0:0:0:0:
351,259,87246,1,10,0:0:0:0:
382,223,87332,1,8,0:0:0:0:
427,208,87418,1,8,2:3:0:0:
473,215,87503,1,8,2:3:0:0:
505,249,87589,6,0,L|482:309,1,47.3000014434815,2|8,1:2|0:0,0:0:0:0:
343,161,87761,2,0,L|326:116,1,47.3000014434815,8|8,2:3|2:3,0:0:0:0:
497,7,87932,6,0,P|451:33|402:53,1,103.2,4|0,1:2|0:0,0:0:0:0:
395,62,88275,2,0,P|348:23|302:41,1,103.199996850586,10|0,0:0|0:0,0:0:0:0:
242,91,88618,1,0,1:0:0:0:
137,248,88789,6,0,P|186:254|220:218,1,103.199996850586,10|0,0:0|0:0,0:0:0:0:
185,11,89132,5,0,1:0:0:0:
185,11,89218,1,8,0:0:0:0:
185,11,89303,2,0,L|145:124,1,103.199996850586,4|0,1:2|0:0,0:0:0:0:
33,177,89561,6,0,L|93:147,1,60.1999981628419,0|0,1:0|0:0,0:0:0:0:
225,220,89818,6,0,L|158:176,1,64.5000024604798,10|0,0:0|0:0,0:0:0:0:
58,257,89989,6,0,L|75:297,1,43
138,362,90161,2,0,L|155:322,1,43,0|0,1:0|1:0,0:0:0:0:
293,177,90332,5,10,0:0:0:0:
319,210,90418,1,8,0:0:0:0:
316,252,90503,1,8,2:3:0:0:
292,288,90589,1,0,1:0:0:0:
250,301,90675,1,4,1:2:0:0:
256,192,90761,12,0,93332,0:0:0:0:
367,283,93418,5,4,1:0:0:0:
296,227,93589,2,0,P|250:243|160:286,1,137.6,0|0,1:0|0:0,0:0:0:0:
88,241,94103,2,0,P|71:214|119:157,1,103.199996850586,2|2,0:0|0:0,0:0:0:0:
170,95,94618,1,2,0:0:0:0:
499,18,94961,5,2,1:2:0:0:
505,109,95132,2,0,P|463:92|427:79,1,68.8,2|2,1:2|0:0,0:0:0:0:
372,18,95475,2,0,P|319:42|266:63,1,103.2,10|0,0:0|0:0,0:0:0:0:
190,20,96161,1,0,1:0:0:0:
190,20,96332,1,0,1:0:0:0:
136,96,96503,1,2,0:0:0:0:
21,370,97189,5,2,0:0:0:0:
91,310,97361,2,0,L|55:209,1,103.199996850586,2|2,0:0|1:2,0:0:0:0:
61,119,97875,2,0,P|29:138|-7:154,1,68.8,2|0,1:2|0:0,0:0:0:0:
143,233,98218,6,0,P|179:244|222:264,1,86,10|0,0:0|0:0,0:0:0:0:
298,212,98561,1,2,0:0:0:0:
499,371,98903,5,2,1:2:0:0:
423,321,99075,2,0,P|383:282|414:210,1,137.6,0|0,1:0|0:0,0:0:0:0:
494,169,99589,2,0,B|485:76|419:111|437:-12,1,172,2|2,0:0|0:0,0:0:0:0:
434,13,100103,1,2,0:0:0:0:
358,151,100446,5,2,1:2:0:0:
352,242,100618,2,0,P|314:226|279:214,1,68.8,2|0,1:2|0:0,0:0:0:0:
232,140,100961,2,0,P|178:163|126:181,1,103.2,10|0,0:0|0:0,0:0:0:0:
55,225,101646,1,0,1:0:0:0:
55,225,101818,1,0,1:0:0:0:
3,149,101989,1,2,0:0:0:0:
211,366,102675,5,2,0:0:0:0:
260,288,102846,2,0,P|291:255|360:270,1,103.199996850586,2|0,0:0|1:0,0:0:0:0:
425,308,103361,1,2,1:2:0:0:
512,140,103703,6,0,P|469:125|419:104,1,86,10|2,0:0|0:0,0:0:0:0:
404,21,104046,2,0,P|339:37|329:104,1,141.900004330444,2|0,0:0|0:0,0:0:0:0:
335,122,104389,6,0,P|295:141|253:164,1,86,4|0,1:2|0:0,0:0:0:0:
116,87,104732,1,2,1:2:0:0:
185,21,104903,1,0,0:0:0:0:
43,145,105075,2,0,P|82:162|121:179,1,86,10|0,1:2|0:0,0:0:0:0:
213,309,105417,5,2,1:2:0:0:
334,205,105589,1,8,0:0:0:0:
312,367,105761,2,0,P|296:320|278:272,1,86,2|0,1:2|0:0,0:0:0:0:
496,147,106103,5,2,1:2:0:0:
428,78,106275,2,0,P|412:118|399:159,1,86,10|0,0:0|1:0,0:0:0:0:
247,44,106618,5,2,0:0:0:0:
155,14,106789,2,0,P|170:54|183:95,1,86,2|8,1:2|0:0,0:0:0:0:
187,110,107046,1,8,0:0:0:0:
194,125,107132,6,0,P|235:127|263:158,1,86,2|0,1:2|0:0,0:0:0:0:
140,262,107475,1,2,1:2:0:0:
232,298,107646,1,0,0:0:0:0:
107,191,107817,2,0,P|66:205|21:225,1,86,10|0,1:2|0:0,0:0:0:0:
169,353,108161,2,0,P|208:370|249:384,1,86,2|8,1:2|0:0,0:0:0:0:
265,379,108417,1,8,0:0:0:0:
278,373,108503,6,0,P|312:340|312:290,1,86,2|0,1:2|0:0,0:0:0:0:
263,220,108846,1,2,1:2:0:0:
412,104,109017,6,0,P|427:65|445:24,1,86,10|0,0:0|1:0,0:0:0:0:
504,97,109360,1,4,1:2:0:0:
367,227,109532,2,0,P|385:266|400:306,1,86,0|8,1:0|2:3,0:0:0:0:
405,319,109789,1,0,1:0:0:0:
412,331,109875,6,0,P|375:364|339:360,1,86,4|0,2:0|0:0,0:0:0:0:
206,268,110218,1,2,1:2:0:0:
282,215,110389,1,2,0:0:0:0:
198,382,110561,6,0,B|105:364|152:321|30:309,1,172,10|2,0:0|1:2,0:0:0:0:
0,230,111075,1,8,0:0:0:0:
114,118,111246,2,0,P|90:159|70:206,1,86,2|2,1:2|0:0,0:0:0:0:
191,74,111589,1,0,1:0:0:0:
10,121,111761,1,10,0:0:0:0:
147,259,111932,6,0,P|190:242|245:228,1,86,0|2,1:0|0:0,0:0:0:0:
310,139,112275,2,0,P|353:155|408:170,1,86,2|8,1:2|0:0,0:0:0:0:
400,175,112532,1,0,1:0:0:0:
413,182,112618,2,0,P|453:155|454:115,1,86,2|0,1:2|0:0,0:0:0:0:
332,14,112961,6,0,B|244:16|274:75|174:82,1,172,2|8,1:2|0:0,0:0:0:0:
112,11,113475,2,0,P|76:42|83:84,1,86,2|0,0:0|1:0,0:0:0:0:
13,221,113818,5,8,0:0:0:0:
13,221,113903,1,0,1:0:0:0:
13,221,113989,2,0,P|72:198|105:186,1,86,2|2,1:2|0:0,0:0:0:0:
179,81,114332,1,2,1:2:0:0:
303,226,114503,1,8,0:0:0:0:
370,111,114675,5,2,1:0:0:0:
214,222,114846,1,10,0:0:0:0:
350,305,115018,1,2,1:2:0:0:
372,293,115103,1,8,2:3:0:0:
395,281,115189,1,8,2:3:0:0:
418,269,115275,1,4,2:3:0:0:
441,259,115361,6,0,P|471:213|408:161,1,129,4|0,1:2|0:0,0:0:0:0:
370,111,115703,2,0,L|341:201,1,86,2|0,1:2|0:0,0:0:0:0:
281,375,116046,2,0,L|254:293,1,86,10|0,1:2|0:0,0:0:0:0:
192,219,116389,1,2,1:2:0:0:
55,351,116561,1,8,0:0:0:0:
44,255,116732,6,0,P|86:277|136:297,1,86,2|0,1:2|0:0,0:0:0:0:
192,219,117075,1,2,1:2:0:0:
320,368,117246,6,0,P|359:347|412:326,1,86,10|0,0:0|1:0,0:0:0:0:
485,364,117589,1,2,0:0:0:0:
403,180,117761,2,0,P|359:213|373:255,1,86,0|0,1:0|1:0,0:0:0:0:
367,248,118018,1,0,1:0:0:0:
375,256,118103,1,2,1:2:0:0:
499,24,118446,6,0,P|461:42|412:60,1,86,2|0,1:2|0:0,0:0:0:0:
269,55,118789,2,0,B|262:32|235:14|235:14|371:74,1,172,8|2,1:2|1:2,0:0:0:0:
278,143,119303,1,8,0:0:0:0:
278,143,119389,1,0,1:0:0:0:
278,143,119475,2,0,P|240:125|191:107,1,86,2|0,1:2|0:0,0:0:0:0:
135,38,119818,1,2,1:2:0:0:
8,184,119989,6,0,P|1:135|34:109,1,86,10|0,0:0|1:0,0:0:0:0:
165,240,120332,1,8,0:0:0:0:
103,311,120503,1,2,1:2:0:0:
91,304,120589,1,0,0:0:0:0:
79,297,120675,1,8,2:3:0:0:
68,290,120761,1,0,1:0:0:0:
56,283,120846,6,0,P|34:328|14:369,1,86,4|0,1:2|0:0,0:0:0:0:
255,247,121189,2,0,P|233:202|213:161,1,86,10|0,1:2|0:0,0:0:0:0:
96,64,121532,1,2,1:2:0:0:
165,240,121703,1,8,0:0:0:0:
282,112,121875,2,0,P|244:80|206:89,1,86,2|0,1:2|0:0,0:0:0:0:
201,321,122218,6,0,B|290:316|260:261|374:257,1,172,2|2,1:2|1:2,0:0:0:0:
506,376,122732,2,0,P|456:351|414:338,1,86,8|0,0:0|1:0,0:0:0:0:
290,194,123075,1,0,1:0:0:0:
290,194,123246,2,0,P|330:179|368:159,1,86,10|0,0:0|1:0,0:0:0:0:
375,150,123503,1,8,2:3:0:0:
384,141,123589,6,0,P|372:114|358:82,1,47.3000014434815,2|0,1:2|0:0,0:0:0:0:
483,204,123761,2,0,P|471:231|457:263,1,47.3000014434815,8|0,0:0|0:0,0:0:0:0:
362,384,123932,2,0,P|335:342|352:301,1,94.600002886963,2|0,1:2|1:0,0:0:0:0:
284,110,124275,5,2,1:2:0:0:
257,82,124361,1,8,2:3:0:0:
220,75,124446,1,8,2:3:0:0:
183,85,124532,1,0,1:0:0:0:
155,110,124618,2,0,P|129:122|91:137,1,47.3000014434815,10|8,0:0|0:0,0:0:0:0:
235,230,124789,2,0,P|256:239|277:249,1,47.3000014434815,0|8,1:0|2:3,0:0:0:0:
163,362,124961,5,4,1:2:0:0:
32,143,125132,1,2,1:2:0:0:
77,302,125303,5,10,0:0:0:0:
121,215,125475,1,2,1:2:0:0:
206,10,125646,5,12,0:0:0:0:
323,165,125818,1,2,1:2:0:0:
163,284,125989,1,2,1:2:0:0:
45,133,126161,1,12,0:0:0:0:
315,259,126332,6,0,P|356:237|401:221,1,94.600002886963,2|8,1:2|2:3,0:0:0:0:
216,96,126675,2,0,P|171:81|129:59,1,94.600002886963,2|0,1:2|1:0,0:0:0:0:
349,19,127018,5,10,0:0:0:0:
365,28,127103,1,8,0:0:0:0:
380,51,127189,1,8,2:3:0:0:
384,88,127275,1,8,2:3:0:0:
355,125,127361,1,10,0:0:0:0:
305,139,127446,1,0,1:0:0:0:
263,185,127532,1,0,1:0:0:0:
266,251,127618,1,0,1:0:0:0:
318,297,127703,2,0,L|356:198,1,94.600002886963,10|0,0:0|0:0,0:0:0:0:
75,265,128389,5,2,0:0:0:0:
66,301,128503,5,2,0:0:0:0:
101,292,128618,5,2,0:0:0:0:
22,212,128732,6,0,L|-1:249,1,43,2|0,0:0|0:0,0:0:0:0:
157,345,128903,2,0,L|179:307,1,43,2|0,0:0|0:0,0:0:0:0:
230,53,129075,6,0,P|163:39|130:114,1,161.25,4|0,1:2|0:0,0:0:0:0:
100,183,129418,2,0,P|156:158|208:138,1,107.5,10|0,1:2|0:0,0:0:0:0:
395,250,129761,1,0,1:0:0:0:
283,307,129933,1,0,0:0:0:0:
465,132,130104,1,2,1:2:0:0:
493,369,130276,5,8,0:0:0:0:
493,369,130361,1,0,1:0:0:0:
493,369,130446,2,0,P|446:348|389:329,1,94.600002886963,2|2,1:2|0:0,0:0:0:0:
271,168,130790,5,2,1:2:0:0:
83,384,130961,1,8,0:0:0:0:
316,275,131133,5,2,1:2:0:0:
63,146,131304,1,8,0:0:0:0:
231,378,131476,2,0,L|248:330,1,47.3000014434815,0|0,1:0|0:0,0:0:0:0:
461,257,131647,6,0,B|340:238|389:180|257:166,1,215,12|0,0:0|0:0,0:0:0:0:
66,10,132161,2,0,P|4:39|25:135,1,170.279999480347,10|0,1:2|0:0,0:0:0:0:
62,208,132504,2,0,P|80:157|107:100,1,113.519999653564,0|0,1:0|0:0,0:0:0:0:
194,271,132847,5,2,1:2:0:0:
358,117,133019,1,8,0:0:0:0:
276,292,133190,2,0,P|291:336|303:383,1,94.600002886963,0|0,1:2|0:0,0:0:0:0:
395,219,133533,5,2,1:2:0:0:
177,80,133704,1,10,0:0:0:0:
371,16,133876,5,0,1:0:0:0:
238,194,134047,1,8,0:0:0:0:
477,216,134219,6,0,L|462:170,1,47.3000014434815,2|0,1:2|0:0,0:0:0:0:
397,92,134389,2,0,L|382:136,1,47.3000014434815
284,298,134561,6,0,P|221:272|178:348,1,161.25,4|0,1:2|0:0,0:0:0:0:
117,382,134904,2,0,P|61:359|0:344,1,120.399996325684,10|0,1:2|0:0,0:0:0:0:
196,187,135247,1,0,1:0:0:0:
86,125,135419,1,2,0:0:0:0:
284,298,135590,1,2,1:2:0:0:
379,51,135761,5,8,0:0:0:0:
379,51,135847,1,0,1:0:0:0:
379,51,135933,2,0,P|331:74|269:101,1,120.399996325684,2|0,1:2|0:0,0:0:0:0:
186,62,136276,1,2,1:2:0:0:
370,216,136447,6,0,P|400:267|375:312,1,107.5,10|0,0:0|1:0,0:0:0:0:
196,187,136790,1,10,0:0:0:0:
165,384,136961,1,0,1:0:0:0:
195,371,137047,1,8,2:3:0:0:
226,358,137133,1,8,0:0:0:0:
257,346,137219,1,8,0:0:0:0:
304,325,137304,6,0,P|281:270|258:211,1,107.5,4|0,1:2|0:0,0:0:0:0:
40,39,137647,5,10,1:2:0:0:
134,19,137819,2,0,P|111:74|89:129,1,94.600002886963,2|0,0:0|1:0,0:0:0:0:
148,184,138161,1,2,0:0:0:0:
329,50,138332,1,2,1:2:0:0:
446,241,138504,5,8,0:0:0:0:
446,241,138590,1,0,1:0:0:0:
446,241,138676,2,0,P|413:277|356:261,1,94.600002886963,2|2,1:2|0:0,0:0:0:0:
229,103,139018,2,0,P|276:113|291:170,1,94.600002886963,0|8,1:0|0:0,0:0:0:0:
152,268,139361,5,2,1:2:0:0:
378,376,139533,1,10,0:0:0:0:
263,311,139704,1,2,1:2:0:0:
227,325,139790,1,8,2:3:0:0:
191,339,139876,1,8,2:3:0:0:
155,351,139961,1,8,0:0:0:0:
111,363,140047,6,0,P|46:333|49:243,1,170.279999480347,4|0,1:2|0:0,0:0:0:0:
62,166,140390,2,0,P|112:188|161:205,1,107.5,10|0,1:2|0:0,0:0:0:0:
358,89,140733,1,2,1:0:0:0:
294,197,140904,1,0,0:0:0:0:
172,47,141076,1,2,1:2:0:0:
276,294,141247,5,10,0:0:0:0:
276,294,141333,1,8,0:0:0:0:
276,294,141419,2,0,P|319:274|379:256,1,94.600002886963,2|0,1:2|0:0,0:0:0:0:
416,179,141761,1,2,1:2:0:0:
256,25,141932,5,8,0:0:0:0:
124,276,142103,1,2,1:2:0:0:
347,105,142275,5,8,0:0:0:0:
60,131,142446,1,2,1:0:0:0:
275,361,142618,6,0,P|294:308|320:245,1,120.399996325684,12|0,0:0|1:0,0:0:0:0:
395,191,142961,1,0,0:0:0:0:
152,9,143132,2,0,P|171:62|197:125,1,120.399996325684,10|0,1:2|0:0,0:0:0:0:
48,224,143476,5,2,1:2:0:0:
53,234,143561,1,2,0:0:0:0:
58,244,143647,1,2,0:0:0:0:
63,254,143733,1,2,0:0:0:0:
69,264,143819,2,0,P|41:277|13:292,1,47.3000014434815,2|0,1:2|0:0,0:0:0:0:
138,175,143990,2,0,P|162:189|185:198,1,47.3000014434815,8|0,0:0|1:0,0:0:0:0:
90,60,144161,6,0,P|25:69|17:167,1,161.25,2|0,1:2|0:0,0:0:0:0:
6,152,144504,1,2,1:2:0:0:
162,322,144676,1,10,0:0:0:0:
274,156,144847,1,0,1:0:0:0:
69,264,145018,1,8,0:0:0:0:
179,105,145189,1,2,1:2:0:0:
285,290,145361,5,2,0:0:0:0:
285,290,145447,1,0,0:0:0:0:
285,290,145533,2,0,B|383:296|337:350|456:362,1,170.279999480347,4|0,1:2|0:0,0:0:0:0:
495,311,145876,2,0,P|527:267|506:216,1,113.519999653564,10|0,1:2|0:0,0:0:0:0:
301,119,146218,2,0,P|323:168|376:176,1,113.519999653564,0|0,1:0|0:0,0:0:0:0:
501,19,146561,5,2,1:2:0:0:
511,115,146733,1,8,0:0:0:0:
511,115,146819,1,0,1:0:0:0:
511,115,146904,2,0,P|466:98|410:78,1,94.600002886963,2|0,1:2|0:0,0:0:0:0:
359,15,147247,1,2,1:2:0:0:
248,211,147418,6,0,P|203:228|147:248,1,94.600002886963,10|0,0:0|1:0,0:0:0:0:
103,317,147761,1,8,0:0:0:0:
350,371,147933,1,2,1:2:0:0:
388,343,148019,1,8,2:3:0:0:
396,296,148104,1,8,0:0:0:0:
381,250,148190,1,8,0:0:0:0:
344,219,148276,6,0,P|318:156|279:60,1,170.279999480347,4|0,1:2|0:0,0:0:0:0:
265,57,148619,2,0,P|289:111|308:160,1,107.5,10|2,1:2|0:0,0:0:0:0:
101,314,148961,2,0,P|120:263|142:214,1,107.5,0|8,1:0|2:3,0:0:0:0:
39,56,149304,5,2,1:2:0:0:
223,186,149476,1,10,0:0:0:0:
34,197,149647,2,0,P|52:139|122:132,1,120.399996325684,4|10,1:2|0:0,0:0:0:0:
226,349,149989,5,10,1:2:0:0:
276,329,150075,1,8,0:0:0:0:
325,312,150161,1,8,2:3:0:0:
376,294,150246,1,8,2:3:0:0:
424,271,150332,2,0,L|483:293,1,53.75,2|0,1:2|1:0,0:0:0:0:
350,140,150503,5,8,2:3:0:0:
342,129,150589,1,8,2:3:0:0:
334,117,150675,2,0,L|355:61,1,53.75,2|0,1:2|1:0,0:0:0:0:
257,192,150846,2,0,L|282:254,1,53.75,8|8,2:3|2:3,0:0:0:0:
60,58,151018,5,4,1:2:0:0:
173,209,151189,1,0,1:0:0:0:
108,138,151360,2,0,L|66:245,1,94.600002886963,2|2,0:0|1:2,0:0:0:0:
248,375,151703,6,0,L|214:286,1,94.600002886963,10|0,0:0|0:0,0:0:0:0:
257,192,152046,1,2,1:2:0:0:
400,68,152218,6,0,P|372:31|326:30,1,94.600002886963,2|0,1:2|0:0,0:0:0:0:
251,80,152560,1,2,1:2:0:0:
395,209,152732,1,2,1:2:0:0:
395,209,152903,1,0,0:0:0:0:
248,375,153075,5,12,0:0:0:0:
190,261,153246,1,2,0:0:0:0:
100,36,153418,5,2,0:0:0:0:
15,201,153589,1,0,1:0:0:0:
251,80,153760,5,4,1:2:0:0:
345,95,153932,2,0,P|328:46|302:-20,1,94.600002886963,0|2,1:0|0:0,0:0:0:0:
410,28,154275,1,2,1:2:0:0:
512,232,154446,6,0,P|491:283|469:347,1,94.600002886963,10|0,0:0|0:0,0:0:0:0:
421,240,154789,1,2,1:2:0:0:
197,368,154960,6,0,P|224:330|272:331,1,94.600002886963,10|0,0:0|1:0,0:0:0:0:
353,372,155303,1,10,0:0:0:0:
192,262,155475,2,0,P|144:244|91:229,1,94.600002886963,2|0,1:2|1:0,0:0:0:0:
325,116,155818,5,12,0:0:0:0:
256,217,155989,1,2,1:2:0:0:
351,16,156161,2,0,P|303:34|250:49,1,94.600002886963,4|8,2:3|2:3,0:0:0:0:
85,0,156503,5,4,1:2:0:0:
144,83,156675,1,2,1:2:0:0:
0,279,156846,5,2,0:0:0:0:
80,145,157018,1,2,1:2:0:0:
204,285,157189,6,0,L|172:374,1,94.600002886963,10|0,0:0|0:0,0:0:0:0:
102,302,157532,1,0,1:0:0:0:
315,199,157703,6,0,L|283:111,1,94.600002886963,2|0,1:2|0:0,0:0:0:0:
374,122,158046,1,2,1:2:0:0:
493,334,158218,6,0,P|457:369|412:361,1,94.600002886963,2|2,1:2|0:0,0:0:0:0:
263,257,158560,1,12,0:0:0:0:
408,192,158732,1,2,0:0:0:0:
408,192,158903,1,2,0:0:0:0:
319,322,159075,1,0,1:0:0:0:
268,153,159246,6,0,P|225:175|182:191,1,94.600002886963,4|0,1:2|1:0,0:0:0:0:
388,276,159589,2,0,P|432:292|474:313,1,94.600002886963,2|0,0:0|1:0,0:0:0:0:
397,100,159932,5,8,0:0:0:0:
397,100,160275,5,4,1:2:0:0:
271,8,160446,1,8,0:0:0:0:
447,170,160618,2,0,P|467:124|490:76,1,94.600002886963,0|8,1:0|0:0,0:0:0:0:
331,219,160960,5,2,1:2:0:0:
289,241,161046,1,8,2:3:0:0:
242,239,161132,1,8,0:0:0:0:
203,213,161218,1,8,0:0:0:0:
183,171,161303,1,2,1:2:0:0:
152,135,161389,1,8,0:0:0:0:
107,120,161475,1,8,2:3:0:0:
61,127,161560,1,8,2:3:0:0:
28,166,161646,6,0,L|5:226,1,47.3000014434815,2|8,1:2|0:0,0:0:0:0:
159,53,161818,2,0,L|142:8,1,47.3000014434815,8|8,2:3|2:3,0:0:0:0:
271,167,161989,6,0,P|318:147|390:122,1,103.199996850586,4|0,1:2|0:0,0:0:0:0:
209,282,162332,5,10,0:0:0:0:
228,377,162503,2,0,P|171:354|116:342,1,103.199996850586,2|0,0:0|1:0,0:0:0:0:
67,273,162846,1,2,0:0:0:0:
202,124,163018,1,2,1:2:0:0:
13,59,163189,5,10,0:0:0:0:
13,59,163275,1,0,0:0:0:0:
13,59,163361,2,0,L|50:166,1,103.199996850586,2|2,1:2|0:0,0:0:0:0:
125,212,163703,1,2,1:2:0:0:
0,355,163875,1,10,0:0:0:0:
220,303,164046,6,0,L|253:205,1,103.199996850586,2|10,1:2|0:0,0:0:0:0:
324,143,164389,1,2,1:2:0:0:
467,318,164561,1,12,0:0:0:0:
503,93,164732,6,0,P|441:120|450:173,1,103.199996850586,2|0,1:2|0:0,0:0:0:0:
347,317,165075,1,10,0:0:0:0:
431,255,165246,2,0,P|379:235|334:216,1,103.199996850586,2|0,0:0|1:0,0:0:0:0:
235,89,165589,1,2,0:0:0:0:
417,31,165761,1,2,1:2:0:0:
257,190,165932,1,10,0:0:0:0:
235,1,166103,6,0,P|183:21|138:40,1,103.199996850586,2|2,1:2|0:0,0:0:0:0:
16,185,166446,2,0,P|-12:141|12:93,1,103.199996850586,2|10,1:2|0:0,0:0:0:0:
54,18,166789,1,2,1:2:0:0:
195,142,166961,1,10,0:0:0:0:
134,223,167132,2,0,L|91:109,1,103.199996850586,2|2,1:2|0:0,0:0:0:0:
304,278,167475,6,0,L|267:374,1,103.199996850586,4|0,1:2|0:0,0:0:0:0:
418,262,167818,1,10,0:0:0:0:
274,136,167989,2,0,P|309:97|359:108,1,103.199996850586,2|0,0:0|1:0,0:0:0:0:
441,151,168332,1,2,0:0:0:0:
304,278,168503,1,2,1:2:0:0:
505,371,168675,6,0,L|472:260,1,103.199996850586,8|0,0:0|1:0,0:0:0:0:
354,104,169018,2,0,L|324:202,1,103.199996850586,2|0,0:0|1:0,0:0:0:0:
177,378,169361,2,0,P|193:320|240:313,1,103.199996850586,10|0,0:0|1:0,0:0:0:0:
403,226,169703,1,10,0:0:0:0:
267,128,169875,1,0,1:2:0:0:
228,143,169961,1,8,0:0:0:0:
189,157,170046,1,10,0:0:0:0:
150,172,170132,1,8,0:0:0:0:
112,190,170218,6,0,P|61:168|10:153,1,103.199996850586,4|0,1:2|0:0,0:0:0:0:
97,94,170561,1,10,0:0:0:0:
230,311,170732,6,0,P|281:289|332:274,1,103.199996850586,2|0,0:0|1:0,0:0:0:0:
448,168,171075,1,2,0:0:0:0:
273,94,171246,1,0,1:0:0:0:
423,303,171418,2,0,P|403:255|374:189,1,103.199996850586,10|0,0:0|1:0,0:0:0:0:
473,34,171761,1,2,0:0:0:0:
400,92,171932,1,2,1:2:0:0:
186,9,172103,5,10,0:0:0:0:
329,148,172275,1,2,1:2:0:0:
101,270,172446,6,0,L|80:216,1,51.599998425293,10|0,0:0|0:0,0:0:0:0:
185,101,172618,1,0,0:0:0:0:
191,110,172703,1,8,2:3:0:0:
196,119,172789,2,0,L|177:167,1,51.599998425293,0|8,1:0|0:0,0:0:0:0:
12,71,172961,6,0,P|28:7|92:14,1,113.519999653564,4|0,1:2|0:0,0:0:0:0:
256,177,173303,1,10,0:0:0:0:
43,328,173475,2,0,L|85:214,1,113.519999653564,2|0,0:0|1:0,0:0:0:0:
232,57,173818,5,2,0:0:0:0:
64,141,173989,1,2,1:2:0:0:
269,305,174161,1,8,0:0:0:0:
269,305,174246,1,0,1:0:0:0:
269,305,174332,1,0,1:2:0:0:
176,130,174503,2,0,L|136:23,1,113.519999653564,2|2,0:0|1:2,0:0:0:0:
306,160,174846,5,10,0:0:0:0:
399,92,175018,2,0,P|334:70|290:50,1,113.519999653564,2|10,1:2|0:0,0:0:0:0:
176,130,175361,1,2,1:2:0:0:
363,3,175532,1,12,0:0:0:0:
512,244,175703,6,0,B|390:233|433:156|282:161,1,227.039999307129,2|10,1:2|0:0,0:0:0:0:
92,355,176218,2,0,P|118:292|176:301,1,113.519999653564,2|0,0:0|1:0,0:0:0:0:
243,319,176561,1,2,0:0:0:0:
77,180,176732,1,2,1:2:0:0:
278,21,176903,6,0,P|256:74|238:143,1,113.519999653564,8|0,0:0|1:0,0:0:0:0:
177,193,177246,1,2,0:0:0:0:
395,321,177418,2,0,P|379:266|358:213,1,113.519999653564,2|10,1:2|0:0,0:0:0:0:
473,15,177761,5,2,0:0:0:0:
240,128,177932,1,10,0:0:0:0:
354,16,178103,1,2,1:2:0:0:
199,17,178275,1,2,0:0:0:0:
384,105,178446,2,0,P|331:88|280:63,1,113.519999653564,6|2,1:2|0:0,0:0:0:0:
35,213,178789,6,0,B|150:201|118:124|256:128,1,227.039999307129,8|0,0:0|1:0,0:0:0:0:
328,195,179303,1,2,0:0:0:0:
182,315,179475,1,2,1:2:0:0:
328,374,179646,1,10,0:0:0:0:
144,162,179818,2,0,L|188:42,1,113.519999653564,2|2,1:2|0:0,0:0:0:0:
66,215,180161,1,2,1:2:0:0:
288,267,180332,6,0,L|327:373,1,113.519999653564,10|0,0:0|1:0,0:0:0:0:
406,205,180675,1,10,0:0:0:0:
198,69,180846,5,2,1:2:0:0:
156,88,180932,1,8,2:3:0:0:
131,126,181018,1,8,0:0:0:0:
133,170,181103,1,8,0:0:0:0:
157,208,181189,6,0,B|241:185|241:185|270:140|270:140|375:108,1,227.039999307129,4|10,1:2|0:0,0:0:0:0:
476,17,181703,1,2,0:0:0:0:
483,210,181875,2,0,P|461:157|430:85,1,113.519999653564,2|0,1:2|0:0,0:0:0:0:
389,26,182218,1,2,1:2:0:0:
291,227,182389,6,0,P|268:279|246:331,1,113.519999653564,10|0,0:0|1:0,0:0:0:0:
135,169,182732,1,10,0:0:0:0:
9,355,182903,1,10,1:2:0:0:
175,253,183075,1,8,0:0:0:0:
0,121,183246,5,2,1:2:0:0:
252,7,183418,1,8,0:0:0:0:
380,237,183590,1,2,1:2:0:0:
132,377,183761,1,10,0:0:0:0:
148,162,183932,5,4,1:2:0:0:
148,162,184103,2,0,P|201:153|237:196,1,103.199996850586,0|0,1:0|0:0,0:0:0:0:
298,263,184618,1,0,1:0:0:0:
298,263,184789,1,0,1:0:0:0:
371,317,184961,6,0,P|388:270|395:250,1,51.599998425293,2|2,0:0|0:0,0:0:0:0:
228,370,185303,5,2,1:2:0:0:
228,370,185474,2,0,P|193:328|212:275,1,103.199996850586,0|0,1:0|0:0,0:0:0:0:
240,189,185989,1,0,1:0:0:0:
240,189,186160,1,0,1:0:0:0:
250,99,186332,6,0,P|200:107|179:111,1,51.599998425293,2|2,0:0|0:0,0:0:0:0:
403,109,186675,5,2,1:2:0:0:
403,109,186846,2,0,P|384:159|329:169,1,103.199996850586,0|0,1:0|0:0,0:0:0:0:
240,189,187361,1,0,1:0:0:0:
240,189,187532,1,0,1:0:0:0:
157,225,187704,6,0,P|189:263|203:279,1,51.599998425293,2|2,0:0|0:0,0:0:0:0:
345,378,188046,5,2,1:2:0:0:
345,378,188218,2,0,L|374:366,8,17.2,2|2|2|2|2|2|2|2|2,1:2|0:0|0:0|0:0|0:0|0:0|0:0|0:0|0:0,0:0:0:0:
434,176,188732,5,0,1:0:0:0:
434,176,188903,2,0,L|460:118,1,43,0|0,1:0|0:0,0:0:0:0:
502,16,189074,6,0,L|438:22,1,43,2|2,0:0|0:0,0:0:0:0:
308,41,189246,6,0,L|345:92,1,43,2|2,0:0|0:0,0:0:0:0:
408,74,189418,5,2,0:0:0:0:
104,59,190103,5,2,0:0:0:0:
78,86,190218,5,2,0:0:0:0:
113,95,190332,5,2,0:0:0:0:
180,43,190446,6,0,L|157:6,1,43,2|0,0:0|0:0,0:0:0:0:
0,101,190618,2,0,L|22:139,1,43,2|0,0:0|0:0,0:0:0:0:
232,282,190789,6,0,L|257:217,1,53.75,12|0,0:0|0:0,0:0:0:0:
334,97,190961,2,0,L|353:147,1,53.75,0|0,1:0|0:0,0:0:0:0:
479,299,191132,6,0,P|416:276|355:263,1,107.5,2|0,1:2|0:0,0:0:0:0:
288,353,191475,1,2,1:2:0:0:
273,360,191561,1,8,0:0:0:0:
258,367,191646,1,0,1:0:0:0:
243,374,191732,1,8,0:0:0:0:
228,380,191818,1,2,1:2:0:0:
83,248,191989,1,8,0:0:0:0:
132,335,192161,6,0,P|155:277|180:224,1,107.5,0|0,1:2|0:0,0:0:0:0:
285,65,192503,2,0,P|307:113|326:163,1,107.5,2|0,1:2|1:0,0:0:0:0:
438,32,192846,5,10,0:0:0:0:
431,43,192932,1,8,0:0:0:0:
422,55,193018,2,0,P|395:67|369:85,1,53.75,8|8,2:3|2:3,0:0:0:0:
201,151,193189,2,0,P|227:163|254:181,1,53.75,10|0,0:0|0:0,0:0:0:0:
413,308,193361,6,0,P|434:224|311:170,1,227.039999307129,4|0,1:2|0:0,0:0:0:0:
169,320,193875,2,0,B|262:307|229:253|353:253,1,180.599994488526,10|0,1:2|0:0,0:0:0:0:
344,243,194218,2,0,P|353:191|318:161,1,94.600002886963,0|0,1:0|0:0,0:0:0:0:
188,25,194561,1,2,1:2:0:0:
269,84,194732,1,8,0:0:0:0:
269,84,194818,1,0,1:0:0:0:
269,84,194903,2,0,P|218:111|169:131,1,94.600002886963,2|2,1:2|0:0,0:0:0:0:
125,197,195246,1,2,1:2:0:0:
345,324,195418,6,0,P|388:342|448:373,1,107.5,10|0,0:0|1:0,0:0:0:0:
511,309,195761,1,8,0:0:0:0:
376,128,195932,1,2,1:2:0:0:
483,108,196103,1,8,2:3:0:0:
483,108,196189,1,0,1:0:0:0:
483,108,196275,2,0,P|462:158|444:209,1,107.5,2|0,1:2|0:0,0:0:0:0:
222,270,196618,6,0,P|242:319|265:388,1,113.519999653564,10|0,1:2|0:0,0:0:0:0:
304,242,196961,2,0,P|278:182|214:188,1,113.519999653564,0|0,1:0|0:0,0:0:0:0:
150,135,197303,1,2,1:2:0:0:
12,273,197475,5,8,0:0:0:0:
12,273,197561,1,0,1:0:0:0:
12,273,197646,2,0,P|63:248|116:230,1,94.600002886963,2|0,1:2|0:0,0:0:0:0:
150,135,197989,1,2,1:2:0:0:
364,55,198161,6,0,P|319:38|277:17,1,94.600002886963,10|0,0:0|1:0,0:0:0:0:
399,169,198503,1,8,0:0:0:0:
260,259,198675,2,0,P|249:230|228:192,1,47.3000014434815,2|8,1:2|2:3,0:0:0:0:
323,179,198846,2,0,P|334:208|355:246,1,47.3000014434815,8|8,0:0|0:0,0:0:0:0:
228,379,199018,6,0,P|248:308|328:303,1,161.25,4|0,1:2|0:0,0:0:0:0:
325,301,199361,1,10,1:2:0:0:
489,196,199532,2,0,P|440:182|373:159,1,94.600002886963,2|0,0:0|1:0,0:0:0:0:
342,88,199875,5,4,2:3:0:0:
335,79,199961,1,0,0:0:0:0:
326,71,200046,2,0,L|349:11,1,47.3000014434815,2|8,1:2|2:3,0:0:0:0:
237,136,200218,2,0,L|258:183,1,47.3000014434815,8|8,0:0|0:0,0:0:0:0:
141,77,200389,6,0,P|174:23|232:34,1,107.5,2|10,1:2|0:0,0:0:0:0:
101,184,200732,1,2,1:2:0:0:
101,184,200818,1,8,0:0:0:0:
101,184,200903,1,8,2:3:0:0:
22,10,201075,1,2,1:2:0:0:
141,77,201246,2,0,P|110:89|77:104,1,53.75,0|0,1:0|1:0,0:0:0:0:
7,269,201418,5,10,1:2:0:0:
38,311,201503,1,8,0:0:0:0:
88,330,201589,1,0,1:0:0:0:
140,316,201675,1,0,1:0:0:0:
177,277,201761,6,0,B|222:232|222:232|179:122,1,161.25,4|0,1:2|0:0,0:0:0:0:
141,77,202103,2,0,P|99:106|107:165,1,107.5,10|0,1:2|0:0,0:0:0:0:
294,238,202446,2,0,P|336:209|328:150,1,107.5,0|0,1:0|0:0,0:0:0:0:
264,14,202789,5,2,1:2:0:0:
249,109,202961,1,10,0:0:0:0:
249,109,203046,1,0,0:0:0:0:
249,109,203132,2,0,P|294:90|358:68,1,94.600002886963,2|2,1:2|0:0,0:0:0:0:
423,110,203475,1,2,1:2:0:0:
251,295,203646,6,0,P|197:270|137:251,1,107.5,10|0,0:0|1:0,0:0:0:0:
319,162,203989,1,8,0:0:0:0:
157,58,204161,1,2,1:2:0:0:
355,268,204332,1,12,0:0:0:0:
400,40,204503,6,0,P|454:15|514:-4,1,107.5,0|0,1:0|0:0,0:0:0:0:
391,194,204846,2,0,B|286:179|334:133|212:128,1,180.599994488526,10|0,1:2|0:0,0:0:0:0:
219,138,205189,1,2,1:2:0:0:
213,148,205275,1,2,0:0:0:0:
207,158,205361,1,2,0:0:0:0:
201,168,205446,1,2,0:0:0:0:
194,178,205532,2,0,P|161:189|127:210,1,60.1999981628419,2|0,1:2|0:0,0:0:0:0:
233,42,205703,2,0,P|259:56|288:65,1,60.1999981628419,10|0,0:0|1:0,0:0:0:0:
99,9,205875,6,0,P|54:30|58:89,1,94.600002886963,2|2,1:2|0:0,0:0:0:0:
29,164,206218,1,2,1:2:0:0:
179,367,206389,6,0,P|223:344|293:324,1,107.5,10|0,0:0|1:0,0:0:0:0:
485,173,206732,2,0,P|433:157|385:132,1,107.5,10|0,0:0|1:0,0:0:0:0:
410,375,207075,5,8,2:3:0:0:
410,375,207161,1,0,0:0:0:0:
410,375,207246,2,0,P|466:331|430:246,1,170.279999480347,4|0,1:2|0:0,0:0:0:0:
370,205,207589,2,0,P|316:226|261:258,1,113.519999653564,10|0,1:2|0:0,0:0:0:0:
139,104,207932,2,0,P|85:83|30:51,1,113.519999653564,0|0,1:0|0:0,0:0:0:0:
68,161,208275,1,2,1:2:0:0:
235,15,208446,5,8,0:0:0:0:
235,15,208532,1,0,1:0:0:0:
235,15,208618,2,0,P|274:59|257:102,1,94.600002886963,2|0,1:2|0:0,0:0:0:0:
223,173,208961,1,2,1:2:0:0:
59,329,209132,6,0,P|56:283|91:254,1,94.600002886963,10|0,0:0|1:0,0:0:0:0:
235,379,209475,1,8,0:0:0:0:
335,204,209646,1,2,1:2:0:0:
301,222,209732,1,0,2:3:0:0:
267,240,209818,1,8,0:0:0:0:
234,258,209903,1,8,0:0:0:0:
201,278,209989,6,0,P|168:193|126:98,1,170.279999480347,4|0,1:2|0:0,0:0:0:0:
105,40,210332,2,0,P|143:82|196:68,1,107.5,10|2,0:0|0:0,0:0:0:0:
254,12,210675,1,2,1:2:0:0:
366,143,210846,1,8,2:3:0:0:
439,81,211018,1,2,1:2:0:0:
291,248,211189,1,8,0:0:0:0:
324,43,211361,2,0,P|346:92|368:147,1,107.5,4|8,1:2|0:0,0:0:0:0:
512,312,211703,5,2,1:2:0:0:
488,348,211789,1,8,0:0:0:0:
452,371,211875,1,8,2:3:0:0:
409,374,211961,1,8,2:3:0:0:
369,358,212046,2,0,L|306:332,1,53.75,2|8,1:2|0:0,0:0:0:0:
160,232,212218,5,8,2:3:0:0:
166,220,212303,1,8,2:3:0:0:
174,210,212389,2,0,L|223:189,1,53.75,2|8,1:2|0:0,0:0:0:0:
352,256,212561,2,0,L|289:230,1,53.75,8|8,2:3|2:3,0:0:0:0:
152,66,212732,5,4,1:2:0:0:
6,177,212903,1,2,1:2:0:0:
67,252,213075,2,0,L|104:158,1,94.600002886963,2|0,0:0|1:0,0:0:0:0:
266,4,213418,6,0,L|300:92,1,94.600002886963,10|0,0:0|0:0,0:0:0:0:
363,162,213761,1,2,1:2:0:0:
499,298,213932,6,0,P|457:260|411:280,1,94.600002886963,2|0,1:2|0:0,0:0:0:0:
347,318,214275,1,2,1:2:0:0:
500,193,214446,1,2,1:2:0:0:
500,193,214618,1,2,0:0:0:0:
300,92,214789,5,12,0:0:0:0:
192,166,214961,1,2,0:0:0:0:
72,315,215132,5,2,0:0:0:0:
248,381,215303,1,0,1:0:0:0:
28,155,215475,5,4,1:2:0:0:
93,214,215647,2,0,P|49:231|4:247,1,94.600002886963,2|2,1:2|0:0,0:0:0:0:
172,263,215990,1,2,1:2:0:0:
223,90,216161,6,0,P|267:106|312:123,1,94.600002886963,10|0,0:0|0:0,0:0:0:0:
163,4,216504,1,2,1:2:0:0:
365,196,216675,6,0,P|402:159|398:114,1,94.600002886963,10|0,0:0|1:0,0:0:0:0:
348,45,217018,1,10,0:0:0:0:
258,213,217190,2,0,P|274:257|288:302,1,94.600002886963,2|2,1:2|1:2,0:0:0:0:
400,119,217533,5,12,0:0:0:0:
228,27,217704,1,2,1:2:0:0:
487,102,217875,2,0,P|470:146|456:191,1,94.600002886963,8|0,2:3|1:0,0:0:0:0:
493,375,218218,5,4,1:2:0:0:
410,329,218389,1,2,1:2:0:0:
292,169,218561,5,2,0:0:0:0:
150,252,218732,1,2,1:2:0:0:
0,377,218904,6,0,L|38:274,1,94.600002886963,12|0,0:0|0:0,0:0:0:0:
96,357,219247,1,2,1:2:0:0:
207,178,219418,6,0,L|245:281,1,94.600002886963,2|0,1:2|0:0,0:0:0:0:
140,249,219761,1,2,1:2:0:0:
286,150,219933,6,0,P|274:105|211:101,1,94.600002886963,2|2,1:2|0:0,0:0:0:0:
17,16,220275,1,12,0:0:0:0:
91,127,220447,1,2,0:0:0:0:
91,127,220618,1,2,0:0:0:0:
202,11,220790,1,0,1:0:0:0:
0,175,220961,5,2,1:2:0:0:
23,225,221046,1,10,0:0:0:0:
73,249,221132,1,4,2:3:0:0:
128,244,221218,1,8,2:3:0:0:
134,230,221303,5,2,1:2:0:0:
173,175,221389,1,0,1:0:0:0:
238,160,221475,1,8,2:3:0:0:
295,195,221561,1,8,2:3:0:0:
342,241,221646,6,0,L|320:300,1,55.8999974411012,10|0,0:0|0:0,0:0:0:0:
235,383,221818,2,0,L|215:330,1,55.8999974411012,0|8,1:0|0:0,0:0:0:0:
374,161,221989,6,0,P|430:195|423:249,1,111.799994882202,4|8,1:2|0:0,0:0:0:0:
230,241,222332,1,0,1:0:0:0:
379,77,222503,1,8,0:0:0:0:
438,311,222675,5,2,1:2:0:0:
431,320,222761,1,0,1:0:0:0:
425,329,222846,1,8,0:0:0:0:
418,338,222932,1,8,0:0:0:0:
408,349,223018,5,10,0:0:0:0:
379,366,223103,1,8,0:0:0:0:
334,367,223189,1,8,2:3:0:0:
290,331,223275,1,8,2:3:0:0:
270,278,223361,1,2,1:2:0:0:
223,247,223446,1,8,0:0:0:0:
161,243,223532,1,8,2:3:0:0:
111,279,223618,1,8,2:3:0:0:
99,339,223703,6,0,P|152:322|206:310,1,103.199996850586,4|0,1:0|0:0,0:0:0:0:
279,363,224046,1,10,0:0:0:0:
433,192,224218,6,0,P|382:180|333:164,1,103.199996850586,2|0,0:0|1:0,0:0:0:0:
217,48,224561,1,2,0:0:0:0:
356,267,224732,1,10,0:0:0:0:
254,193,224903,1,2,1:2:0:0:
362,30,225075,6,0,P|405:64|390:121,1,103.199996850586,0|2,1:0|0:0,0:0:0:0:
205,273,225418,2,0,P|164:244|166:195,1,103.199996850586,10|10,1:2|0:0,0:0:0:0:
141,102,225761,1,0,1:0:0:0:
0,282,225932,1,10,0:0:0:0:
165,195,226103,1,0,1:0:0:0:
7,37,226275,1,12,0:0:0:0:
125,267,226446,6,0,P|105:312|81:373,1,103.199996850586,2|0,1:2|0:0,0:0:0:0:
183,333,226789,1,10,0:0:0:0:
299,142,226961,6,0,P|279:97|255:36,1,103.199996850586,2|0,0:0|1:0,0:0:0:0:
353,78,227303,1,2,0:0:0:0:
223,221,227475,1,2,1:2:0:0:
426,316,227646,1,10,0:0:0:0:
358,246,227818,6,0,P|410:222|460:204,1,103.199996850586,2|2,1:2|0:0,0:0:0:0:
217,106,228161,2,0,P|168:88|121:66,1,103.199996850586,10|2,0:0|0:0,0:0:0:0:
7,237,228503,5,2,1:2:0:0:
202,22,228675,1,12,0:0:0:0:
137,163,228846,5,8,2:3:0:0:
60,112,229018,1,4,2:3:0:0:
194,316,229189,6,0,P|212:264|230:208,1,103.199996850586,4|0,1:2|0:0,0:0:0:0:
391,63,229532,1,8,0:0:0:0:
289,31,229703,2,0,P|307:83|325:139,1,103.199996850586,2|0,0:0|1:0,0:0:0:0:
403,181,230046,5,0,0:0:0:0:
194,316,230218,1,10,0:0:0:0:
477,378,230389,1,8,0:0:0:0:
312,270,230561,1,0,1:0:0:0:
289,376,230732,6,0,P|336:354|385:338,1,103.199996850586,2|8,0:0|0:0,0:0:0:0:
512,138,231075,2,0,P|463:121|416:99,1,103.199996850586,8|4,0:0|1:2,0:0:0:0:
365,22,231418,1,10,0:0:0:0:
228,198,231589,5,2,1:2:0:0:
191,217,231675,1,8,2:3:0:0:
154,236,231761,1,8,0:0:0:0:
118,256,231846,1,8,0:0:0:0:
80,273,231932,6,0,P|30:240|56:147,1,154.799995275879,4|0,1:2|0:0,0:0:0:0:
59,146,232275,1,8,0:0:0:0:
105,15,232446,2,0,P|131:69|150:112,1,103.199996850586,2|0,0:0|1:0,0:0:0:0:
328,242,232789,1,2,1:2:0:0:
150,333,232961,1,0,1:0:0:0:
287,120,233132,2,0,P|261:174|242:217,1,103.199996850586,12|0,0:0|1:0,0:0:0:0:
268,304,233475,1,10,0:0:0:0:
409,101,233646,5,2,1:2:0:0:
398,50,233732,1,8,0:0:0:0:
353,22,233818,1,8,2:3:0:0:
301,24,233903,1,8,2:3:0:0:
257,51,233989,1,2,1:2:0:0:
262,62,234075,1,0,1:0:0:0:
267,72,234161,2,0,L|293:136,1,51.599998425293,8|8,2:3|2:3,0:0:0:0:
462,169,234332,6,0,P|436:177|409:190,1,51.599998425293,2|0,1:2|1:0,0:0:0:0:
268,304,234503,2,0,P|294:312|321:325,1,51.599998425293,8|8,2:3|2:3,0:0:0:0:
501,377,234675,6,0,P|475:321|408:324,1,129,4|0,1:2|0:0,0:0:0:0:
406,332,235018,2,0,L|376:240,1,86,10|0,0:0|0:0,0:0:0:0:
307,195,235361,1,0,1:0:0:0:
187,14,235532,6,0,L|160:95,1,86,10|0,0:0|0:0,0:0:0:0:
84,153,235875,1,8,0:0:0:0:
84,153,235961,1,8,0:0:0:0:
84,153,236046,6,0,P|134:168|189:197,1,103.199996850586,4|0,1:2|0:0,0:0:0:0:
229,310,236303,6,0,P|222:283|221:250,1,51.599998425293,0|0,1:0|0:0,0:0:0:0:
311,149,236561,6,0,P|290:167|258:187,1,64.5000024604798,10|0,0:0|0:0,0:0:0:0:
59,239,236732,6,0,P|49:263|37:286,1,43
121,315,236903,2,0,P|131:291|143:268,1,43,0|8,1:0|0:0,0:0:0:0:
160,95,237075,5,8,0:0:0:0:
204,68,237161,1,0,1:0:0:0:
255,68,237246,1,0,1:0:0:0:
295,100,237332,1,8,0:0:0:0:
311,149,237418,6,0,B|339:184|375:192|419:168|419:168|380:195|382:307|382:307|339:311|306:373|306:373|311:308|275:276|275:276|334:186|309:149,1,619.199981103516,4|10,1:0|2:1,0:0:0:0:
