osu file format v14

[General]
AudioFilename: audio.mp3
AudioLeadIn: 0
PreviewTime: 128389
Countdown: 0
SampleSet: Soft
StackLeniency: 0.7
Mode: 0
LetterboxInBreaks: 0
WidescreenStoryboard: 1

[Editor]
DistanceSpacing: 0.6
BeatDivisor: 4
GridSize: 16
TimelineZoom: 2.5

[Metadata]
Title:escalate
TitleUnicode:escalate
Artist:Aimer
ArtistUnicode:Aimer
Creator:Hyokar
Version:[I]6e73616e65
Source:NieR:Automata Ver1.1a
Tags:ニーア オートマタ japanese anime nier automata opening op pop j-pop jpop jrock j-rock rock
BeatmapID:3970783
BeatmapSetID:1923494

[Difficulty]
HPDrainRate:5
CircleSize:3.8
OverallDifficulty:8.2
ApproachRate:9
SliderMultiplier:1.6
SliderTickRate:1

[Events]
//Background and Video events
0,0,"A2.jpg",0,0
//Break Periods
//Storyboard Layer 0 (Background)
//Storyboard Layer 1 (Fail)
//Storyboard Layer 2 (Pass)
//Storyboard Layer 3 (Foreground)
//Storyboard Layer 4 (Overlay)
//Storyboard Sound Samples

[TimingPoints]
161,342.857142857143,4,2,1,45,1,0
161,-166.666666666667,4,2,1,45,0,0
10446,-166.666666666667,4,2,1,50,0,0
11132,-125,4,2,1,40,0,0
13189,-100,4,2,1,40,0,0
13532,-250,4,2,1,40,0,0
15075,-166.666666666667,4,2,1,40,0,0
15932,-100,4,2,1,40,0,0
16275,-250,4,2,1,40,0,0
16618,-100,4,2,1,40,0,0
17646,-166.666666666667,4,2,1,40,0,0
18675,-100,4,2,1,40,0,0
19018,-250,4,2,1,40,0,0
20389,-166.666666666667,4,2,1,40,0,0
21075,-125,4,2,1,40,0,0
24161,-90.9090909090909,4,2,1,40,0,0
24503,-125,4,2,1,40,0,0
26903,-90.9090909090909,4,2,1,40,0,0
27589,-125,4,2,1,40,0,0
28275,-100,4,2,1,40,0,0
28789,-125,4,2,1,40,0,0
29646,-90.9090909090909,4,2,1,40,0,0
30675,-125,4,2,1,40,0,0
32389,-90.9090909090909,4,2,1,40,0,0
32732,-125,4,2,1,58,0,0
33075,-100,4,2,1,62,0,0
48161,-100,4,2,1,68,0,0
49532,-100,4,2,1,72,0,0
52275,-90.9090909090909,4,2,1,55,0,0
52618,-90.9090909090909,4,2,1,62,0,0
52961,-90.9090909090909,4,2,1,68,0,0
53303,-90.9090909090909,4,2,1,74,0,0
53646,-90.9090909090909,4,2,1,80,0,0
54332,-111.111111111111,4,2,1,65,0,0
54675,-111.111111111111,4,2,1,75,0,0
55018,-71.4285714285714,4,2,1,85,0,1
55361,-83.3333333333333,4,2,1,85,0,1
58103,-71.4285714285714,4,2,1,85,0,1
58446,-83.3333333333333,4,2,1,85,0,1
59132,-71.4285714285714,4,2,1,85,0,1
59475,-83.3333333333333,4,2,1,85,0,1
59818,-71.4285714285714,4,2,1,85,0,1
61875,-83.3333333333333,4,2,1,85,0,1
63246,-71.4285714285714,4,2,1,85,0,1
63588,-100,4,2,1,85,0,1
64275,-83.3333333333333,4,2,1,85,0,1
65989,-71.4285714285714,4,2,1,85,0,1
66332,-83.3333333333333,4,2,1,85,0,1
68732,-71.4285714285714,4,2,1,85,0,1
69761,-83.3333333333333,4,2,1,85,0,1
71475,-71.4285714285714,4,2,1,85,0,1
72503,-83.3333333333333,4,2,1,85,0,1
74218,-71.4285714285714,4,2,1,85,0,1
74561,-100,4,2,1,85,0,1
76961,-90.9090909090909,4,2,1,70,0,0
87932,-100,4,2,1,55,0,0
88275,-83.3333333333333,4,2,1,55,0,0
89303,-66.6666666666667,4,2,1,75,0,0
89561,-83.3333333333333,4,2,1,75,0,0
89818,-125,4,2,1,75,0,0
90161,-100,4,2,1,75,0,0
90675,-100,4,2,1,65,0,0
93418,-125,4,2,1,52,0,0
94103,-166.666666666667,4,2,1,52,0,0
95132,-125,4,2,1,52,0,0
95475,-250,4,2,1,52,0,0
96503,-166.666666666667,4,2,1,52,0,0
97875,-125,4,2,1,52,0,0
98218,-83.3333333333333,4,2,1,52,0,0
98561,-250,4,2,1,52,0,0
99075,-125,4,2,1,52,0,0
99589,-100,4,2,1,52,0,0
100961,-250,4,2,1,52,0,0
102846,-166.666666666667,4,2,1,52,0,0
103361,-125,4,2,1,52,0,0
103703,-83.3333333333333,4,2,1,58,0,0
104046,-125,4,2,1,58,0,0
104389,-100,4,2,1,62,0,0
110561,-83.3333333333333,4,2,1,62,0,0
111246,-100,4,2,1,62,0,0
112961,-125,4,2,1,62,0,0
114332,-100,4,2,1,62,0,0
120846,-100,4,2,1,68,0,0
123246,-100,4,2,1,72,0,0
123589,-100,4,2,1,55,0,0
123932,-100,4,2,1,62,0,0
124275,-100,4,2,1,68,0,0
124618,-100,4,2,1,72,0,0
124961,-90.9090909090909,4,2,1,65,0,0
127018,-90.9090909090909,4,2,1,50,0,0
127361,-90.9090909090909,4,2,1,62,0,0
127703,-90.9090909090909,4,2,1,74,0,0
128389,-111.111111111111,4,2,1,65,0,0
128732,-111.111111111111,4,2,1,75,0,0
129075,-71.4285714285714,4,2,1,85,0,1
129418,-83.3333333333333,4,2,1,85,0,1
132161,-71.4285714285714,4,2,1,85,0,1
132503,-83.3333333333333,4,2,1,85,0,1
133189,-71.4285714285714,4,2,1,85,0,1
133532,-83.3333333333333,4,2,1,85,0,1
133875,-71.4285714285714,4,2,1,85,0,1
135589,-83.3333333333333,4,2,1,85,0,1
137303,-71.4285714285714,4,2,1,85,0,1
137646,-100,4,2,1,85,0,1
138332,-83.3333333333333,4,2,1,85,0,1
140046,-71.4285714285714,4,2,1,85,0,1
140389,-83.3333333333333,4,2,1,85,0,1
142789,-71.4285714285714,4,2,1,85,0,1
143475,-83.3333333333333,4,2,1,85,0,1
145532,-71.4285714285714,4,2,1,85,0,1
146732,-83.3333333333333,4,2,1,85,0,1
148275,-71.4285714285714,4,2,1,85,0,1
148618,-100,4,2,1,85,0,1
151018,-90.9090909090909,4,2,1,70,0,0
161989,-83.3333333333333,4,2,1,75,0,0
172103,-83.3333333333333,4,2,1,80,0,0
172275,-80,4,2,1,80,0,0
172961,-74.0740740740741,4,2,1,85,0,0
181189,-74.0740740740741,4,2,1,75,0,0
181875,-74.0740740740741,4,2,1,78,0,0
182389,-74.0740740740741,4,2,1,80,0,0
182903,-74.0740740740741,4,2,1,82,0,0
183246,-74.0740740740741,4,2,1,85,0,0
183589,-74.0740740740741,4,2,1,90,0,0
183932,-166.666666666667,4,2,1,50,0,0
186332,-125,4,2,1,50,0,0
186675,-166.666666666667,4,2,1,50,0,0
187703,-125,4,2,1,50,0,0
188046,-200,4,2,1,60,0,0
188389,-200,4,2,1,65,0,0
188732,-100,4,2,1,70,0,0
189075,-100,4,2,1,75,0,0
189418,-100,4,2,1,30,0,0
190103,-111.111111111111,4,2,1,65,0,0
190446,-111.111111111111,4,2,1,75,0,0
190789,-90.9090909090909,4,2,1,78,0,0
193361,-83.3333333333333,4,2,1,85,0,1
193875,-71.4285714285714,4,2,1,85,0,1
194561,-83.3333333333333,4,2,1,85,0,1
196275,-71.4285714285714,4,2,1,85,0,1
197303,-83.3333333333333,4,2,1,85,0,1
199018,-71.4285714285714,4,2,1,85,0,1
199361,-83.3333333333333,4,2,1,85,0,1
201761,-71.4285714285714,4,2,1,85,0,1
202103,-100,4,2,1,85,0,1
202789,-83.3333333333333,4,2,1,85,0,1
204846,-71.4285714285714,4,2,1,85,0,1
205532,-83.3333333333333,4,2,1,85,0,1
207246,-71.4285714285714,4,2,1,85,0,1
208618,-83.3333333333333,4,2,1,85,0,1
210332,-71.4285714285714,4,2,1,85,0,1
212732,-90.9090909090909,4,2,1,70,0,0
220961,-90.9090909090909,4,2,1,82,0,0
222332,-90.9090909090909,4,2,1,62,0,0
222675,-90.9090909090909,4,2,1,65,0,0
223018,-90.9090909090909,4,2,1,68,0,0
223361,-90.9090909090909,4,2,1,72,0,0
223703,-83.3333333333333,4,2,1,75,0,0
234675,-100,4,2,1,55,0,0
235018,-76.9230769230769,4,2,1,55,0,0
236046,-66.6666666666667,4,2,1,62,0,0
236303,-83.3333333333333,4,2,1,62,0,0
236561,-125,4,2,1,62,0,0
237075,-100,4,2,1,62,0,0
237418,-100,4,2,1,70,0,0
240161,-100,4,2,2,50,0,0

[Colours]
Combo1 : 125,125,125
Combo2 : 195,195,195
Combo3 : 252,176,101

[HitObjects]
351,341,161,6,0,P|392:317|445:308,1,95.9999970703126,4|2,1:2|0:0,0:0:0:0:
364,242,675,1,2,0:0:0:0:
282,199,1018,1,2,0:0:0:0:
331,121,1360,1,2,0:0:0:0:
415,161,1703,1,2,0:0:0:0:
302,35,2046,6,0,L|289:-2,2,23.9999992675781,2|2|2,0:0|0:0|0:0,0:0:0:0:
331,121,2389,1,2,0:0:0:0:
86,33,2903,6,0,P|127:57|180:66,1,95.9999970703126,2|2,1:2|0:0,0:0:0:0:
99,132,3418,1,2,0:0:0:0:
150,213,3760,1,2,0:0:0:0:
66,253,4103,1,2,0:0:0:0:
17,175,4445,1,2,0:0:0:0:
28,338,4789,6,0,L|10:383,2,47.9999985351563,2|2|2,0:0|0:0|0:0,0:0:0:0:
66,253,5303,1,2,0:0:0:0:
277,97,5646,6,0,P|313:83|363:128,1,95.9999970703126,2|2,1:0|0:0,0:0:0:0:
429,178,6161,2,0,L|460:197,2,23.9999992675781,2|0|0,0:0|0:0|0:0,0:0:0:0:
358,111,6503,2,0,L|358:74,2,23.9999992675781,2|0|0,0:0|0:0|0:0,0:0:0:0:
350,202,6846,2,0,L|318:219,2,23.9999992675781,2|0|0,0:0|0:0|0:0,0:0:0:0:
490,286,7189,5,2,0:0:0:0:
481,295,7275,2,0,L|413:326,1,71.9999978027344,0|2,0:0|0:0,0:0:0:0:
331,288,7703,1,2,0:0:0:0:
253,199,7875,2,0,L|191:179,1,47.9999985351563,2|0,0:0|0:0,0:0:0:0:
114,192,8218,1,0,0:0:0:0:
114,192,8303,1,0,0:0:0:0:
114,192,8389,6,0,P|110:141|155:112,1,95.9999970703126,2|2,1:2|0:0,0:0:0:0:
217,55,8903,1,2,0:0:0:0:
217,55,8989,1,0,0:0:0:0:
217,55,9075,1,0,0:0:0:0:
142,0,9246,1,2,0:0:0:0:
137,10,9332,1,0,0:0:0:0:
207,184,9503,5,0,0:0:0:0:
214,173,9589,2,0,L|303:146,1,71.9999978027344,2|0,0:0|0:0,0:0:0:0:
393,160,9932,2,0,P|352:119|362:72,1,95.9999970703126,2|2,0:0|0:0,0:0:0:0:
413,9,10446,1,2,0:0:0:0:
233,68,10789,1,2,0:0:0:0:
393,160,11132,6,0,B|403:220|357:255|347:218|294:264|311:321,1,192,4|0,1:2|0:0,0:0:0:0:
469,363,11818,2,0,P|453:313|368:320,1,128,2|2,0:0|0:0,0:0:0:0:
242,369,12332,6,0,L|172:344,1,64,2|0,0:0|0:0,0:0:0:0:
117,278,12675,1,0,0:0:0:0:
107,266,12846,1,0,0:0:0:0:
37,331,13018,1,0,0:0:0:0:
202,224,13189,2,0,L|237:135,1,80,10|2,0:1|0:0,0:0:0:0:
300,32,13532,6,0,L|325:105,1,64,2|2,0:0|0:0,0:0:0:0:
320,92,14218,1,2,0:0:0:0:
503,368,14903,5,2,0:0:0:0:
432,306,15075,2,0,P|405:296|354:344,1,95.9999970703126,2|2,0:0|0:0,0:0:0:0:
363,228,15589,1,2,0:0:0:0:
356,213,15761,1,2,0:0:0:0:
278,366,15932,6,0,L|251:277,1,80,10|2,0:1|0:0,0:0:0:0:
192,208,16275,2,0,L|176:249,1,32,2|0,0:0|0:0,0:0:0:0:
3,357,16618,6,0,P|32:313|106:322,1,120,2|0,1:2|0:0,0:0:0:0:
104,322,16961,1,2,0:0:0:0:
9,18,17646,5,2,0:0:0:0:
62,96,17818,2,0,P|107:78|171:64,1,95.9999970703126,2|2,0:0|0:0,0:0:0:0:
237,113,18332,1,2,0:0:0:0:
251,122,18503,1,2,0:0:0:0:
376,15,18675,2,0,P|355:59|341:104,1,80,10|2,0:1|0:0,0:0:0:0:
457,207,19018,6,0,P|443:166|432:143,1,64,2|2,0:0|0:0,0:0:0:0:
434,147,19703,1,2,0:0:0:0:
179,365,20389,5,2,0:0:0:0:
142,283,20561,2,0,P|143:245|194:217,1,95.9999970703126,2|0,0:0|0:0,0:0:0:0:
302,148,21075,2,0,P|283:182|269:217,1,64,2|0,0:0|0:0,0:0:0:0:
174,84,21418,6,0,P|161:54|145:26,1,64,10|0,0:1|0:0,0:0:0:0:
76,95,21761,1,2,0:0:0:0:
65,102,21846,1,0,0:0:0:0:
54,109,21932,1,0,0:0:0:0:
43,116,22018,1,0,0:0:0:0:
34,124,22103,5,4,1:2:0:0:
106,267,22275,2,0,P|117:234|137:191,1,64,0|0,1:0|0:0,0:0:0:0:
33,313,22618,2,0,P|61:349|157:330,1,128,2|0,0:0|0:0,0:0:0:0:
221,298,23132,1,2,0:0:0:0:
339,366,23303,2,0,L|311:285,1,64,2|0,0:0|0:0,0:0:0:0:
285,215,23646,1,0,1:2:0:0:
415,115,23818,2,0,L|388:188,1,64,2|2,1:2|0:0,0:0:0:0:
287,45,24161,6,0,P|338:25|391:-3,1,88.000002685547,10|2,0:0|0:0,0:0:0:0:
227,146,24503,2,0,P|187:126|98:96,1,128,2|0,0:0|1:0,0:0:0:0:
34,27,25018,1,0,1:0:0:0:
59,190,25189,2,0,P|98:176|104:93,1,128,2|0,0:0|0:0,0:0:0:0:
5,364,25875,6,0,B|87:354|39:318|130:315,1,128,2|0,0:0|0:0,0:0:0:0:
204,366,26389,1,2,1:2:0:0:
260,294,26561,2,0,L|237:211,1,64,2|2,1:2|0:0,0:0:0:0:
138,107,26903,6,0,L|174:6,1,88.000002685547,10|2,0:0|0:0,0:0:0:0:
232,98,27246,1,2,0:0:0:0:
247,105,27332,1,0,0:0:0:0:
262,113,27418,1,0,0:0:0:0:
277,120,27503,1,0,0:0:0:0:
292,128,27589,5,0,1:0:0:0:
440,194,27761,1,0,1:0:0:0:
446,100,27932,2,0,L|363:133,1,64,2|0,0:0|0:0,0:0:0:0:
251,262,28275,2,0,P|277:212|369:234,1,160,2|2,0:0|0:0,0:0:0:0:
501,320,28789,6,0,L|421:291,1,64,2|0,0:0|0:0,0:0:0:0:
366,229,29132,1,2,1:2:0:0:
290,343,29303,6,0,L|202:378,1,64,2|0,1:2|0:0,0:0:0:0:
90,289,29646,2,0,P|108:246|127:197,1,88.000002685547,10|2,0:0|0:0,0:0:0:0:
183,284,29989,1,2,0:0:0:0:
195,289,30161,1,0,0:0:0:0:
91,123,30332,6,0,P|51:137|38:192,1,88.000002685547,0|0,1:0|1:0,0:0:0:0:
123,207,30675,2,0,B|201:206|160:155|265:157,1,128,2|0,0:0|0:0,0:0:0:0:
497,18,31361,5,2,0:0:0:0:
434,87,31532,2,0,P|452:124|486:211,1,128,2|0,0:0|1:0,0:0:0:0:
424,287,32046,1,2,1:2:0:0:
183,375,32389,6,0,P|197:324|214:275,1,88.000002685547,10|2,0:0|0:0,0:0:0:0:
211,186,32732,2,0,P|178:224|119:213,1,96,2|0,0:0|0:0,0:0:0:0:
119,222,33075,6,0,B|75:179|75:179|126:62,1,160,4|2,1:2|1:2,0:0:0:0:
196,29,33589,1,2,0:0:0:0:
284,164,33761,2,0,P|328:146|371:133,1,80,10|2,0:0|0:0,0:0:0:0:
399,50,34103,5,2,1:2:0:0:
495,136,34275,1,8,0:0:0:0:
418,284,34446,2,0,L|358:133,1,160,2|2,1:2|1:2,0:0:0:0:
290,280,34961,2,0,L|263:368,1,80,10|0,0:0|1:0,0:0:0:0:
203,289,35303,1,2,0:0:0:0:
364,246,35475,2,0,P|338:206|303:206,1,80,2|8,1:2|0:0,0:0:0:0:
299,197,35732,1,0,1:0:0:0:
288,189,35818,1,2,1:2:0:0:
138,25,36161,6,0,P|121:76|107:106,1,80,2|2,1:2|0:0,0:0:0:0:
7,270,36503,2,0,P|-15:198|44:152,1,160,10|2,0:0|1:2,0:0:0:0:
99,232,37018,1,8,0:0:0:0:
99,232,37103,1,8,0:0:0:0:
99,232,37189,2,0,P|141:244|190:265,1,80,2|0,1:2|0:0,0:0:0:0:
237,334,37532,5,2,1:2:0:0:
324,197,37703,2,0,P|333:153|294:118,1,80,10|2,0:0|0:0,0:0:0:0:
326,316,38046,5,10,0:0:0:0:
250,172,38217,2,0,P|216:142|166:158,1,80,2|0,0:0|1:0,0:0:0:0:
174,151,38475,1,0,1:0:0:0:
163,159,38561,1,4,1:2:0:0:
346,16,38903,6,0,P|368:54|390:98,1,80,2|2,1:2|0:0,0:0:0:0:
512,178,39246,2,0,P|455:171|417:266,1,160,10|2,0:0|1:2,0:0:0:0:
505,283,39761,1,8,0:0:0:0:
438,361,39932,2,0,P|393:348|340:338,1,80,2|2,1:2|0:0,0:0:0:0:
290,272,40275,5,0,1:0:0:0:
161,177,40446,2,0,P|123:193|78:208,1,80,10|0,0:0|1:0,0:0:0:0:
12,151,40789,1,2,0:0:0:0:
0,141,40961,1,2,1:2:0:0:
34,268,41132,1,10,0:0:0:0:
101,117,41303,6,0,P|112:79|129:40,1,80,2|0,1:2|0:0,0:0:0:0:
240,152,41646,2,0,P|255:188|267:227,1,80,2|2,1:2|0:0,0:0:0:0:
179,368,41989,2,0,P|200:315|292:322,1,160,8|0,0:0|1:0,0:0:0:0:
381,362,42503,1,8,0:0:0:0:
381,362,42589,1,8,0:0:0:0:
381,362,42675,1,0,1:0:0:0:
437,275,42846,6,0,P|479:256|517:244,1,80,2|0,0:0|1:0,0:0:0:0:
375,155,43189,1,10,0:0:0:0:
319,233,43361,1,2,1:2:0:0:
461,149,43532,1,10,0:0:0:0:
325,63,43703,1,0,1:0:0:0:
311,71,43789,1,8,2:3:0:0:
297,79,43875,1,0,1:0:0:0:
283,88,43961,1,8,2:3:0:0:
269,96,44046,5,4,1:2:0:0:
94,0,44389,6,0,P|124:37|117:72,1,80,2|2,1:2|0:0,0:0:0:0:
21,196,44732,2,0,B|-6:156|-6:156|49:58,1,160,10|2,0:0|1:2,0:0:0:0:
95,149,45246,1,8,0:0:0:0:
183,279,45418,6,0,P|197:315|208:364,1,80,2|0,1:2|0:0,0:0:0:0:
277,290,45761,1,2,1:2:0:0:
376,317,45932,2,0,P|362:281|351:232,1,80,8|2,0:0|1:2,0:0:0:0:
448,251,46275,5,2,0:0:0:0:
502,166,46446,2,0,P|464:140|432:147,1,80,10|8,1:2|0:0,0:0:0:0:
425,157,46703,1,0,1:0:0:0:
417,168,46789,1,2,1:2:0:0:
506,373,47132,6,0,P|465:356|421:346,1,80,2|2,1:2|0:0,0:0:0:0:
330,235,47475,2,0,B|427:270|427:270|392:272|374:298,1,160,10|2,0:0|1:2,0:0:0:0:
273,300,47989,1,8,0:0:0:0:
273,300,48075,1,8,0:0:0:0:
273,300,48161,2,0,P|232:316|188:327,1,80,2|0,1:2|0:0,0:0:0:0:
119,380,48503,5,2,1:2:0:0:
6,257,48675,2,0,P|28:303|41:339,1,80,10|0,0:0|1:0,0:0:0:0:
129,198,49018,5,10,0:0:0:0:
186,118,49190,2,0,P|171:80|153:44,1,80,2|2,1:2|0:0,0:0:0:0:
164,38,49446,1,0,1:0:0:0:
177,30,49532,6,0,P|251:11|296:88,1,160,4|10,1:2|0:0,0:0:0:0:
430,160,50046,1,0,0:0:0:0:
510,58,50218,2,0,P|470:44|429:25,1,80,2|8,1:2|0:0,0:0:0:0:
288,152,50561,2,0,P|324:135|362:122,1,80,2|0,1:2|0:0,0:0:0:0:
223,26,50903,6,0,B|126:33|174:73|79:89,1,160,2|2,1:2|1:2,0:0:0:0:
11,23,51418,1,10,0:0:0:0:
112,174,51589,1,0,1:0:0:0:
112,174,51761,1,0,1:0:0:0:
8,289,51932,6,0,L|40:208,1,80,10|0,0:0|1:0,0:0:0:0:
31,203,52189,1,0,1:0:0:0:
25,193,52275,1,4,1:2:0:0:
150,291,52446,1,8,0:0:0:0:
5,382,52618,6,0,L|46:367,3,44.0000013427735,2|0|8|8,1:2|0:0|0:0|0:0,0:0:0:0:
150,291,52961,2,0,L|191:305,3,44.0000013427735,10|8|8|8,0:0|0:0|2:3|2:3,0:0:0:0:
297,377,53303,1,10,0:0:0:0:
321,367,53389,1,8,2:3:0:0:
345,357,53475,1,4,2:3:0:0:
369,347,53561,1,4,2:3:0:0:
393,338,53646,5,10,0:0:0:0:
468,66,54332,6,0,L|494:0,2,47.9999985351563,2|2|2,0:0|0:0|0:0,0:0:0:0:
372,188,54675,6,0,L|389:240,1,35.9999989013672,2|0,0:0|0:0,0:0:0:0:
470,198,54846,2,0,L|458:159,1,35.9999989013672,2|0,0:0|0:0,0:0:0:0:
421,322,55018,6,0,P|378:267|288:291,1,167.999994873047,4|0,1:0|0:0,0:0:0:0:
285,295,55361,2,0,L|182:342,1,95.9999970703126,10|0,1:2|0:0,0:0:0:0:
2,206,55703,1,0,1:0:0:0:
85,157,55875,1,0,0:0:0:0:
13,302,56046,5,2,1:2:0:0:
70,384,56218,1,8,0:0:0:0:
70,384,56303,1,0,0:0:0:0:
70,384,56389,2,0,P|90:327|112:275,1,95.9999970703126,2|0,1:2|0:0,0:0:0:0:
184,219,56732,1,2,1:2:0:0:
273,9,56903,6,0,P|293:66|316:118,1,95.9999970703126,8|2,0:0|1:2,0:0:0:0:
443,210,57246,1,8,0:0:0:0:
372,277,57418,1,0,1:0:0:0:
500,133,57589,6,0,P|445:104|405:126,1,95.9999970703126,4|0,1:2|1:0,0:0:0:0:
183,259,57932,1,0,0:0:0:0:
183,259,58103,2,0,B|276:246|239:195|356:191,1,167.999994873047,10|0,1:2|0:0,0:0:0:0:
344,196,58446,2,0,P|351:145|314:110,1,95.9999970703126,0|0,1:0|0:0,0:0:0:0:
265,36,58789,1,2,1:2:0:0:
127,166,58961,1,8,0:0:0:0:
0,11,59132,6,0,P|62:40|169:84,1,167.999994873047,2|0,1:2|0:0,0:0:0:0:
158,86,59475,2,0,P|110:73|66:111,1,95.9999970703126,2|8,1:2|0:0,0:0:0:0:
215,229,59818,1,2,1:2:0:0:
30,360,59989,1,8,0:0:0:0:
1,260,60161,2,0,P|57:281|113:312,1,111.999996582031,0|0,1:0|0:0,0:0:0:0:
283,374,60503,6,0,B|374:366|340:313|447:311,1,167.999994873047,4|0,1:2|0:0,0:0:0:0:
447,320,60846,2,0,P|494:278|473:230,1,111.999996582031,10|0,1:2|0:0,0:0:0:0:
387,112,61189,1,0,1:0:0:0:
471,62,61361,1,0,0:0:0:0:
396,238,61532,1,2,1:2:0:0:
277,67,61703,5,8,0:0:0:0:
277,67,61789,1,0,1:0:0:0:
277,67,61875,2,0,P|257:118|241:170,1,95.9999970703126,0|0,1:2|0:0,0:0:0:0:
183,85,62218,1,0,1:0:0:0:
93,271,62389,6,0,P|113:323|126:368,1,95.9999970703126,8|0,0:0|1:0,0:0:0:0:
183,284,62732,1,8,0:0:0:0:
6,203,62903,5,2,1:2:0:0:
6,203,62989,1,8,2:3:0:0:
6,203,63075,1,8,0:0:0:0:
6,203,63161,1,8,0:0:0:0:
6,203,63246,2,0,B|104:191|47:138|168:134,1,167.999994873047,4|0,1:2|0:0,0:0:0:0:
220,195,63589,2,0,P|168:208|128:233,1,80,10|2,1:2|0:0,0:0:0:0:
96,67,63932,2,0,P|148:54|189:28,1,80,0|0,1:0|0:0,0:0:0:0:
366,64,64275,6,0,P|396:64|422:92,1,47.9999985351563,2|0,1:2|0:0,0:0:0:0:
452,140,64446,1,8,0:0:0:0:
293,125,64618,2,0,L|253:13,1,95.9999970703126,2|2,1:2|0:0,0:0:0:0:
407,209,64961,2,0,L|374:299,1,95.9999970703126,0|8,1:0|0:0,0:0:0:0:
241,210,65303,5,2,1:2:0:0:
241,210,65389,1,0,0:0:0:0:
241,210,65475,2,0,P|273:226|310:239,1,47.9999985351563,8|0,0:0|0:0,0:0:0:0:
178,304,65646,2,0,P|155:313|134:324,3,47.9999985351563,2|8|0|8,1:2|2:3|1:0|0:0,0:0:0:0:
82,383,65989,6,0,P|53:320|116:249,1,167.999994873047,4|0,1:2|0:0,0:0:0:0:
120,244,66332,2,0,P|97:184|82:148,1,95.9999970703126,10|0,1:2|0:0,0:0:0:0:
6,16,66675,1,0,1:0:0:0:
6,16,66846,1,0,0:0:0:0:
150,93,67018,1,2,1:2:0:0:
6,226,67189,1,8,0:0:0:0:
85,155,67361,6,0,P|32:135|-7:117,1,95.9999970703126,0|2,1:1|0:0,0:0:0:0:
71,60,67703,1,2,1:2:0:0:
181,263,67875,2,0,P|224:243|269:226,1,95.9999970703126,8|2,0:0|1:2,0:0:0:0:
380,67,68218,1,8,0:0:0:0:
283,15,68389,1,2,1:2:0:0:
370,186,68561,1,4,1:2:0:0:
492,11,68732,6,0,P|408:0|380:71,1,167.999994873047,0|0,1:0|0:0,0:0:0:0:
378,77,69075,2,0,P|325:97|261:131,1,111.999996582031,10|0,1:2|0:0,0:0:0:0:
355,231,69418,1,2,0:0:0:0:
355,231,69503,1,2,0:0:0:0:
355,231,69589,1,2,0:0:0:0:
355,231,69675,1,2,0:0:0:0:
355,231,69761,2,0,L|372:176,1,47.9999985351563,2|0,1:2|0:0,0:0:0:0:
261,76,69932,2,0,L|275:121,1,47.9999985351563,8|0,0:0|1:0,0:0:0:0:
161,249,70103,6,0,P|216:222|263:208,1,95.9999970703126,2|2,1:2|0:0,0:0:0:0:
342,74,70446,1,2,1:2:0:0:
171,156,70618,1,10,0:0:0:0:
286,289,70789,6,0,P|331:304|373:326,1,95.9999970703126,0|8,1:0|0:0,0:0:0:0:
452,269,71132,2,0,P|486:313|469:362,1,95.9999970703126,0|0,1:0|0:0,0:0:0:0:
359,195,71475,6,0,P|387:117|426:31,1,167.999994873047,4|0,1:2|0:0,0:0:0:0:
425,29,71818,2,0,P|356:17|330:61,1,111.999996582031,10|0,1:2|0:0,0:0:0:0:
165,141,72161,2,0,P|206:174|256:155,1,111.999996582031,0|0,1:0|0:0,0:0:0:0:
219,68,72503,1,2,1:2:0:0:
74,199,72675,5,8,0:0:0:0:
74,199,72761,1,0,1:0:0:0:
74,199,72846,2,0,B|37:248|37:248|103:381,1,191.999994140625,2|2,1:2|1:2,0:0:0:0:
139,267,73361,1,8,0:0:0:0:
0,172,73532,1,2,1:2:0:0:
153,57,73703,1,8,0:0:0:0:
85,210,73875,5,0,1:0:0:0:
85,210,73961,1,8,2:3:0:0:
85,210,74046,1,8,0:0:0:0:
85,210,74132,1,8,0:0:0:0:
85,210,74218,2,0,B|179:204|138:151|251:147,1,167.999994873047,4|0,1:2|0:0,0:0:0:0:
289,90,74561,6,0,P|305:130|313:179,1,80,10|2,1:2|0:0,0:0:0:0:
460,118,74903,2,0,P|444:78|436:29,1,80,2|4,1:2|2:3,0:0:0:0:
376,109,75246,5,2,1:2:0:0:
506,249,75418,1,8,0:0:0:0:
372,345,75589,2,0,P|343:304|360:263,1,80,4|10,1:2|0:0,0:0:0:0:
460,118,75932,5,2,1:2:0:0:
453,141,76018,1,8,0:0:0:0:
446,163,76103,1,8,2:3:0:0:
440,186,76189,1,8,2:3:0:0:
434,209,76275,2,0,L|414:273,3,40,2|8|8|8,1:2|0:0|2:3|2:3,0:0:0:0:
342,172,76618,2,0,L|330:133,3,40,2|8|0|0,1:2|2:3|1:0|1:0,0:0:0:0:
268,245,76961,5,4,1:2:0:0:
203,317,77132,2,0,P|157:299|109:286,1,88.000002685547,0|2,1:2|0:0,0:0:0:0:
42,355,77475,1,0,1:0:0:0:
0,202,77646,6,0,L|38:112,1,88.000002685547,10|0,0:0|0:0,0:0:0:0:
95,191,77989,1,2,1:2:0:0:
166,32,78161,6,0,L|206:124,1,88.000002685547,2|0,1:2|0:0,0:0:0:0:
257,33,78503,1,2,1:2:0:0:
115,110,78675,1,2,1:2:0:0:
115,110,78846,1,2,0:0:0:0:
258,287,79018,5,12,0:0:0:0:
412,171,79189,1,2,0:0:0:0:
394,268,79361,5,2,0:0:0:0:
285,194,79532,1,2,1:2:0:0:
186,331,79703,5,4,1:2:0:0:
271,375,79875,2,0,P|318:359|369:345,1,88.000002685547,2|2,1:2|0:0,0:0:0:0:
451,377,80218,1,0,1:2:0:0:
503,226,80389,6,0,L|465:124,1,88.000002685547,10|0,0:0|0:0,0:0:0:0:
409,213,80732,1,2,1:2:0:0:
338,60,80903,6,0,L|304:148,1,88.000002685547,10|0,0:0|1:0,0:0:0:0:
252,70,81246,1,10,0:0:0:0:
397,138,81418,1,2,1:2:0:0:
397,138,81589,1,0,1:0:0:0:
237,252,81761,6,0,P|184:264|153:227,1,88.000002685547,12|2,0:0|1:2,0:0:0:0:
52,127,82103,2,0,P|88:166|73:214,1,88.000002685547,8|0,2:3|1:0,0:0:0:0:
76,208,82361,1,0,1:0:0:0:
66,218,82446,5,4,1:2:0:0:
0,284,82618,2,0,P|18:325|34:372,1,88.000002685547,2|2,1:2|0:0,0:0:0:0:
100,294,82961,1,0,1:2:0:0:
208,176,83132,6,0,P|222:134|240:94,1,88.000002685547,10|0,0:0|0:0,0:0:0:0:
145,116,83475,1,2,1:2:0:0:
278,23,83646,2,0,P|320:50|311:102,1,88.000002685547,2|0,1:2|0:0,0:0:0:0:
353,215,83989,1,2,1:2:0:0:
353,215,84161,2,0,P|355:165|404:146,1,88.000002685547,0|2,1:2|0:0,0:0:0:0:
476,53,84503,2,0,P|431:75|391:42,1,88.000002685547,12|2,0:0|0:0,0:0:0:0:
323,6,84846,1,2,0:0:0:0:
323,6,85018,1,0,1:0:0:0:
215,126,85189,6,0,L|248:216,1,88.000002685547,4|0,1:2|1:0,0:0:0:0:
322,324,85532,2,0,L|352:241,1,88.000002685547,2|0,0:0|1:0,0:0:0:0:
216,376,85875,1,8,0:0:0:0:
219,372,86218,5,4,1:2:0:0:
150,304,86389,1,8,0:0:0:0:
4,377,86561,2,0,L|92:348,1,88.000002685547,0|10,1:0|1:2,0:0:0:0:
145,222,86903,2,0,L|228:249,1,88.000002685547,2|8,1:2|0:0,0:0:0:0:
239,242,87161,1,8,0:0:0:0:
249,237,87246,2,0,L|270:188,3,44.0000013427735,10|8|8|8,0:0|0:0|2:3|2:3,0:0:0:0:
316,312,87589,2,0,L|333:352,3,44.0000013427735,2|8|8|8,1:2|0:0|2:3|2:3,0:0:0:0:
491,371,87932,6,0,P|514:337|498:295,1,80,4|0,1:2|0:0,0:0:0:0:
413,158,88275,6,0,B|375:195|375:195|435:323,1,191.999994140625,10|0,0:0|1:0,0:0:0:0:
254,240,88789,6,0,P|210:262|158:282,1,95.9999970703126,10|0,0:0|0:0,0:0:0:0:
101,348,89132,1,0,1:0:0:0:
101,348,89218,1,8,0:0:0:0:
101,348,89303,6,0,P|59:296|80:241,1,120.000004577637,4|0,1:2|0:0,0:0:0:0:
37,182,89561,6,0,P|55:134|100:126,1,95.9999970703126,0|0,1:0|0:0,0:0:0:0:
134,57,89818,6,0,P|165:49|204:81,1,64,10|0,0:0|0:0,0:0:0:0:
347,159,90161,5,0,1:0:0:0:
354,169,90246,1,0,1:0:0:0:
361,180,90332,2,0,L|421:203,1,40,10|8,0:0|0:0,0:0:0:0:
489,245,90503,2,0,L|429:268,1,40,8|0,2:3|1:0,0:0:0:0:
383,330,90675,5,4,1:2:0:0:
256,192,90761,12,0,93075,0:0:0:0:
8,75,93418,5,4,1:0:0:0:
68,149,93589,2,0,P|111:131|201:103,1,128,0|0,1:0|0:0,0:0:0:0:
253,33,94103,2,0,P|286:60|277:120,1,95.9999970703126,2|2,0:0|0:0,0:0:0:0:
297,204,94618,1,2,0:0:0:0:
128,353,94961,5,2,1:2:0:0:
201,284,95132,2,0,P|231:293|261:305,1,64,2|2,1:2|0:0,0:0:0:0:
367,168,95475,6,0,P|326:163|298:217,1,96,10|0,0:0|0:0,0:0:0:0:
375,258,96161,1,0,1:0:0:0:
447,189,96332,1,0,1:0:0:0:
284,101,96503,6,0,L|239:4,1,95.9999970703126,2|0,0:0|0:0,0:0:0:0:
145,143,97189,5,2,0:0:0:0:
82,209,97361,2,0,L|60:271,1,47.9999985351563,2|0,0:0|0:0,0:0:0:0:
5,322,97703,1,2,1:2:0:0:
83,371,97875,2,0,P|112:359|148:350,1,64,2|0,1:2|0:0,0:0:0:0:
267,246,98218,6,0,P|317:267|375:279,1,95.9999970703126,10|0,0:0|0:0,0:0:0:0:
430,339,98561,1,2,0:0:0:0:
430,339,98903,5,2,1:2:0:0:
496,272,99075,2,0,P|510:219|454:174,1,128,0|0,1:0|0:0,0:0:0:0:
419,39,99589,6,0,B|435:123|360:106|378:193,1,160,2|2,0:0|0:0,0:0:0:0:
310,253,100103,2,0,P|272:266|230:287,1,80,2|0,0:0|0:0,0:0:0:0:
157,238,100446,1,2,1:2:0:0:
75,371,100618,6,0,P|40:356|-3:347,1,80,2|0,1:2|0:0,0:0:0:0:
62,261,100961,2,0,L|96:165,1,96,10|0,0:0|0:0,0:0:0:0:
179,117,101646,1,0,1:0:0:0:
179,117,101818,1,0,1:0:0:0:
126,42,101989,1,2,0:0:0:0:
472,29,102675,5,2,0:0:0:0:
494,122,102846,2,0,P|455:129|408:94,1,95.9999970703126,2|0,0:0|1:0,0:0:0:0:
341,37,103361,6,0,P|313:50|282:61,1,64,2|0,1:2|0:0,0:0:0:0:
183,188,103703,2,0,P|140:167|95:151,1,95.9999970703126,10|2,0:0|0:0,0:0:0:0:
6,181,104046,2,0,P|-8:137|30:94,1,96,2|0,0:0|0:0,0:0:0:0:
31,91,104389,6,0,P|48:49|68:2,1,80,4|0,1:2|0:0,0:0:0:0:
130,83,104732,1,2,1:2:0:0:
130,83,104903,1,0,0:0:0:0:
239,217,105075,6,0,P|254:253|269:290,1,80,10|0,1:2|0:0,0:0:0:0:
225,377,105418,1,2,1:2:0:0:
350,273,105589,1,8,0:0:0:0:
215,369,105761,2,0,P|179:328|194:289,1,80,2|0,1:2|0:0,0:0:0:0:
239,217,106103,1,2,1:2:0:0:
307,63,106275,6,0,P|343:104|328:143,1,80,10|0,0:0|1:0,0:0:0:0:
398,198,106618,1,2,0:0:0:0:
252,127,106789,2,0,P|210:142|174:157,1,80,2|8,1:2|0:0,0:0:0:0:
166,149,107046,1,8,0:0:0:0:
153,141,107132,1,2,1:2:0:0:
10,277,107475,6,0,P|52:262|88:247,1,80,2|0,1:2|0:0,0:0:0:0:
275,219,107818,2,0,P|269:167|163:174,1,160,10|2,1:2|1:2,0:0:0:0:
187,249,108332,1,8,0:0:0:0:
187,249,108418,1,8,0:0:0:0:
187,249,108503,2,0,L|217:332,1,80,2|0,1:2|0:0,0:0:0:0:
299,368,108846,1,2,1:2:0:0:
366,225,109018,6,0,L|393:149,1,80,10|0,0:0|1:0,0:0:0:0:
345,66,109361,1,4,1:2:0:0:
479,174,109532,2,0,P|514:138|501:98,1,80,0|8,1:0|2:3,0:0:0:0:
506,100,109789,1,0,1:0:0:0:
500,86,109875,1,4,2:0:0:0:
426,278,110218,2,0,L|338:312,1,80,2|2,1:2|0:0,0:0:0:0:
228,152,110561,6,0,B|277:193|277:193|218:313,1,191.999994140625,10|2,0:0|1:2,0:0:0:0:
166,384,111075,1,8,0:0:0:0:
82,320,111246,2,0,L|123:221,1,80,2|2,1:2|0:0,0:0:0:0:
149,152,111589,1,0,1:0:0:0:
14,72,111761,6,0,L|44:148,1,80,10|0,0:0|1:0,0:0:0:0:
8,242,112103,1,2,0:0:0:0:
8,242,112275,1,2,1:2:0:0:
149,152,112446,1,8,0:0:0:0:
218,307,112618,6,0,P|173:288|130:275,1,80,2|0,1:2|0:0,0:0:0:0:
268,374,112961,2,0,P|311:335|274:259,1,128,2|8,1:2|0:0,0:0:0:0:
250,189,113475,2,0,P|261:155|282:106,1,64,2|0,0:0|1:0,0:0:0:0:
344,65,113818,1,8,0:0:0:0:
344,65,113903,1,0,1:0:0:0:
344,65,113989,1,2,1:2:0:0:
261,9,114161,5,2,0:0:0:0:
261,9,114332,1,2,1:2:0:0:
149,115,114503,1,8,0:0:0:0:
125,17,114675,2,0,P|174:43|206:57,1,80,2|10,1:0|0:0,0:0:0:0:
270,128,115018,1,2,1:2:0:0:
284,121,115103,1,8,2:3:0:0:
298,114,115189,1,8,2:3:0:0:
312,108,115275,1,4,2:3:0:0:
326,100,115361,6,0,P|375:74|407:60,1,80,4|0,1:2|0:0,0:0:0:0:
463,0,115703,2,0,P|494:28|478:76,1,80,2|0,1:2|0:0,0:0:0:0:
450,214,116046,6,0,P|428:145|395:59,1,160,10|2,1:2|1:2,0:0:0:0:
312,13,116561,1,8,0:0:0:0:
246,157,116732,6,0,P|196:212|106:196,1,160,2|2,1:2|1:2,0:0:0:0:
41,102,117246,2,0,P|22:141|4:177,1,80,10|0,0:0|1:0,0:0:0:0:
165,132,117589,5,2,0:0:0:0:
210,228,117761,2,0,P|229:189|247:153,1,80,0|0,1:0|1:0,0:0:0:0:
254,148,118018,1,0,1:0:0:0:
264,141,118103,1,2,1:2:0:0:
373,291,118446,6,0,P|344:322|292:312,1,80,2|0,1:2|0:0,0:0:0:0:
150,376,118789,2,0,P|140:322|229:280,1,160,8|2,1:2|1:2,0:0:0:0:
297,215,119303,1,8,0:0:0:0:
297,215,119389,1,0,1:0:0:0:
297,215,119475,2,0,L|328:133,1,80,2|0,1:2|0:0,0:0:0:0:
359,51,119818,1,2,1:2:0:0:
440,220,119989,6,0,L|468:294,1,80,10|0,0:0|1:0,0:0:0:0:
503,383,120332,1,8,0:0:0:0:
374,289,120503,6,0,L|292:326,1,80,2|8,1:2|2:3,0:0:0:0:
293,333,120761,1,0,1:0:0:0:
283,346,120846,2,0,B|192:331|236:287|131:286,1,160,4|10,1:2|1:2,0:0:0:0:
39,322,121361,1,0,0:0:0:0:
39,322,121532,2,0,P|58:269|73:228,1,80,2|8,1:2|0:0,0:0:0:0:
133,126,121875,2,0,P|146:163|160:201,1,80,2|0,1:2|0:0,0:0:0:0:
94,42,122218,6,0,P|141:22|216:91,1,160,2|2,1:2|1:2,0:0:0:0:
46,134,122732,1,8,0:0:0:0:
2,54,122903,1,0,1:0:0:0:
2,54,123075,1,0,1:0:0:0:
133,126,123246,6,0,L|99:216,1,80,10|0,0:0|1:0,0:0:0:0:
94,212,123503,1,8,2:3:0:0:
83,223,123589,2,0,L|125:318,1,80,2|8,1:2|0:0,0:0:0:0:
228,373,123932,2,0,L|260:299,1,80,2|0,1:2|1:0,0:0:0:0:
271,291,124189,1,8,0:0:0:0:
282,283,124275,2,0,L|332:309,3,40,2|8|8|0,1:2|2:3|2:3|1:0,0:0:0:0:
191,213,124618,5,10,0:0:0:0:
178,175,124703,1,8,0:0:0:0:
191,137,124789,1,0,1:0:0:0:
220,110,124875,1,8,2:3:0:0:
263,100,124961,5,4,1:2:0:0:
346,151,125132,1,2,1:2:0:0:
448,22,125303,5,10,0:0:0:0:
368,70,125475,1,2,1:2:0:0:
497,173,125646,5,12,0:0:0:0:
445,291,125818,1,2,1:2:0:0:
502,182,125989,1,2,1:2:0:0:
435,286,126161,1,12,0:0:0:0:
413,195,126332,6,0,P|371:216|323:235,1,88.000002685547,2|8,1:2|2:3,0:0:0:0:
268,303,126675,2,0,P|226:281|178:263,1,88.000002685547,2|0,1:2|1:0,0:0:0:0:
134,186,127018,1,10,0:0:0:0:
92,199,127103,1,8,0:0:0:0:
67,235,127189,1,8,2:3:0:0:
67,279,127275,1,8,2:3:0:0:
87,317,127361,2,0,L|116:245,1,44.0000013427735,10|0,0:0|1:0,0:0:0:0:
196,133,127532,2,0,L|212:173,1,44.0000013427735,0|0,1:0|1:0,0:0:0:0:
72,45,127703,5,10,0:0:0:0:
413,195,128389,6,0,P|420:171|435:135,2,47.9999985351563,2|2|2,0:0|0:0|0:0,0:0:0:0:
278,276,128732,6,0,L|290:311,1,35.9999989013672,2|0,0:0|0:0,0:0:0:0:
366,280,128903,2,0,L|355:246,1,35.9999989013672,2|0,0:0|0:0,0:0:0:0:
212,322,129075,6,0,B|139:324|141:378|56:382,1,167.999994873047,4|0,1:2|0:0,0:0:0:0:
46,376,129418,2,0,P|15:334|42:280,1,95.9999970703126,10|0,1:2|0:0,0:0:0:0:
194,131,129761,1,0,1:0:0:0:
134,208,129933,1,0,0:0:0:0:
33,54,130104,5,2,1:2:0:0:
130,34,130276,1,8,0:0:0:0:
130,34,130361,1,0,1:0:0:0:
130,34,130447,2,0,P|111:79|95:126,1,95.9999970703126,2|2,1:2|0:0,0:0:0:0:
134,208,130790,1,2,1:2:0:0:
284,377,130961,6,0,P|264:320|241:270,1,95.9999970703126,8|2,0:0|1:2,0:0:0:0:
333,150,131304,1,8,0:0:0:0:
247,99,131476,1,0,1:0:0:0:
399,217,131646,2,0,P|365:249|311:233,1,95.9999970703126,12|0,0:0|1:0,0:0:0:0:
109,84,131989,5,0,0:0:0:0:
109,84,132161,2,0,B|202:71|165:20|282:16,1,167.999994873047,10|0,1:2|0:0,0:0:0:0:
275,13,132504,2,0,P|321:42|321:88,1,95.9999970703126,0|0,1:0|0:0,0:0:0:0:
265,161,132847,1,2,1:2:0:0:
392,306,133019,1,8,0:0:0:0:
469,170,133190,6,0,P|407:199|300:243,1,167.999994873047,0|0,1:2|0:0,0:0:0:0:
303,248,133533,2,0,P|255:261|211:223,1,95.9999970703126,2|10,1:2|0:0,0:0:0:0:
147,165,133876,1,0,1:0:0:0:
39,327,134047,1,8,0:0:0:0:
2,107,134219,2,0,P|31:159|54:218,1,111.999996582031,2|0,1:2|0:0,0:0:0:0:
246,376,134561,6,0,B|337:368|303:315|410:313,1,167.999994873047,4|0,1:2|0:0,0:0:0:0:
412,315,134904,2,0,P|452:276|434:226,1,111.999996582031,10|0,1:2|0:0,0:0:0:0:
287,99,135247,1,0,1:0:0:0:
239,179,135419,1,2,0:0:0:0:
388,63,135590,1,2,1:2:0:0:
175,10,135761,5,8,0:0:0:0:
175,10,135847,1,0,1:0:0:0:
175,10,135933,2,0,P|195:61|211:113,1,95.9999970703126,2|0,1:2|0:0,0:0:0:0:
274,169,136276,1,2,1:2:0:0:
466,281,136446,6,0,P|446:333|433:373,1,95.9999970703126,10|0,0:0|1:0,0:0:0:0:
365,298,136790,1,10,0:0:0:0:
184,181,136961,5,0,1:0:0:0:
184,181,137047,1,8,2:3:0:0:
184,181,137133,1,8,0:0:0:0:
184,181,137219,1,8,0:0:0:0:
184,181,137304,2,0,B|86:193|143:246|22:250,1,167.999994873047,4|0,1:2|0:0,0:0:0:0:
27,244,137647,6,0,P|1:279|16:325,1,80,10|2,1:2|0:0,0:0:0:0:
156,353,137989,2,0,P|182:318|167:272,1,80,0|2,1:0|0:0,0:0:0:0:
136,114,138333,6,0,L|160:55,1,47.9999985351563,2|0,1:2|0:0,0:0:0:0:
186,2,138504,1,8,0:0:0:0:
274,170,138676,6,0,L|306:260,1,95.9999970703126,2|2,1:2|0:0,0:0:0:0:
410,140,139019,2,0,L|443:50,1,95.9999970703126,0|8,1:0|0:0,0:0:0:0:
307,56,139361,5,2,1:2:0:0:
307,56,139447,1,0,0:0:0:0:
307,56,139533,2,0,P|339:72|376:85,1,47.9999985351563,10|0,0:0|0:0,0:0:0:0:
274,170,139704,2,0,P|251:179|230:190,3,47.9999985351563,2|8|8|8,1:2|2:3|2:3|0:0,0:0:0:0:
199,117,140047,6,0,P|143:163|171:249,1,167.999994873047,4|0,1:2|0:0,0:0:0:0:
173,257,140390,2,0,P|222:275|270:294,1,95.9999970703126,10|0,1:2|0:0,0:0:0:0:
415,176,140733,1,2,1:0:0:0:
415,176,140904,1,0,0:0:0:0:
491,315,141076,1,2,1:2:0:0:
312,182,141247,1,10,0:0:0:0:
378,264,141419,6,0,P|398:211|416:172,1,95.9999970703126,2|0,1:2|0:0,0:0:0:0:
492,122,141761,1,2,1:2:0:0:
282,16,141932,2,0,P|301:59|318:104,1,95.9999970703126,8|2,0:0|1:2,0:0:0:0:
278,171,142276,1,8,0:0:0:0:
376,38,142446,1,2,1:0:0:0:
187,0,142619,1,12,0:0:0:0:
385,164,142789,6,0,B|420:200|420:200|360:323,1,167.999994873047,0|0,1:0|0:0,0:0:0:0:
358,318,143133,2,0,P|315:281|263:295,1,111.999996582031,10|0,1:2|0:0,0:0:0:0:
188,358,143476,1,2,1:2:0:0:
188,358,143561,1,2,0:0:0:0:
188,358,143647,1,2,0:0:0:0:
188,358,143733,1,2,0:0:0:0:
188,358,143819,2,0,L|169:305,1,47.9999985351563,2|0,1:2|0:0,0:0:0:0:
113,202,143990,2,0,L|89:259,1,47.9999985351563,8|0,0:0|1:0,0:0:0:0:
0,362,144161,6,0,P|55:335|102:321,1,95.9999970703126,2|2,1:2|0:0,0:0:0:0:
198,204,144504,1,2,1:2:0:0:
23,131,144676,1,10,0:0:0:0:
123,258,144847,6,0,P|168:273|210:295,1,95.9999970703126,0|8,1:0|0:0,0:0:0:0:
285,365,145190,2,0,P|319:321|302:272,1,95.9999970703126,2|2,1:2|0:0,0:0:0:0:
157,162,145532,6,0,B|175:65|219:116|233:9,1,167.999994873047,4|0,1:2|0:0,0:0:0:0:
221,10,145876,2,0,P|153:2|130:46,1,111.999996582031,10|0,1:2|0:0,0:0:0:0:
244,154,146219,2,0,P|297:166|339:128,1,111.999996582031,0|0,1:0|0:0,0:0:0:0:
404,55,146561,1,2,1:2:0:0:
485,210,146733,5,8,0:0:0:0:
485,210,146819,1,0,1:0:0:0:
485,210,146904,2,0,B|522:259|522:259|456:392,1,191.999994140625,2|2,1:2|1:2,0:0:0:0:
416,281,147419,1,10,0:0:0:0:
249,373,147590,1,0,1:0:0:0:
286,184,147761,1,8,0:0:0:0:
351,326,147933,5,2,1:2:0:0:
351,326,148019,1,8,2:3:0:0:
351,326,148104,1,8,0:0:0:0:
351,326,148190,1,8,0:0:0:0:
351,326,148276,2,0,B|257:320|298:267|185:263,1,167.999994873047,4|0,1:2|0:0,0:0:0:0:
136,200,148619,6,0,P|175:192|212:176,1,80,10|2,1:2|0:0,0:0:0:0:
260,330,148961,2,0,P|220:337|183:353,1,80,0|8,1:0|2:3,0:0:0:0:
307,221,149304,5,2,1:2:0:0:
149,107,149476,1,10,0:0:0:0:
314,11,149646,2,0,P|340:60|313:94,1,80,4|10,1:2|0:0,0:0:0:0:
152,15,149989,5,10,1:2:0:0:
122,27,150075,1,8,0:0:0:0:
92,39,150161,1,8,2:3:0:0:
63,52,150246,1,8,2:3:0:0:
34,66,150332,2,0,L|-14:86,3,40,2|0|8|8,1:2|1:0|2:3|2:3,0:0:0:0:
87,144,150675,2,0,L|135:164,3,40,2|0|8|8,1:2|1:0|2:3|2:3,0:0:0:0:
16,222,151018,5,4,1:2:0:0:
42,355,151189,2,0,L|76:256,1,88.000002685547,0|2,1:0|0:0,0:0:0:0:
130,340,151532,1,2,1:2:0:0:
213,159,151703,6,0,L|247:240,1,88.000002685547,10|0,0:0|0:0,0:0:0:0:
324,289,152046,1,2,1:2:0:0:
448,190,152218,6,0,P|413:163|359:187,1,88.000002685547,2|0,1:2|0:0,0:0:0:0:
434,286,152560,1,2,1:2:0:0:
512,238,152732,1,2,1:2:0:0:
512,238,152903,1,0,0:0:0:0:
300,92,153075,5,12,0:0:0:0:
221,36,153246,1,2,0:0:0:0:
345,5,153418,5,2,0:0:0:0:
185,123,153589,1,0,1:0:0:0:
372,171,153760,5,4,1:2:0:0:
299,224,153932,2,0,P|283:271|269:322,1,88.000002685547,0|2,1:0|0:0,0:0:0:0:
209,373,154275,1,2,1:2:0:0:
113,193,154446,6,0,P|100:150|86:109,1,88.000002685547,10|0,0:0|0:0,0:0:0:0:
16,50,154789,1,2,1:2:0:0:
185,123,154960,6,0,P|227:123|254:156,1,88.000002685547,10|0,0:0|1:0,0:0:0:0:
185,213,155303,1,10,0:0:0:0:
185,213,155475,1,2,1:2:0:0:
267,44,155646,1,0,1:0:0:0:
391,152,155818,6,0,P|369:188|327:195,1,88.000002685547,12|2,0:0|1:2,0:0:0:0:
255,324,156161,2,0,P|233:287|248:247,1,88.000002685547,4|8,2:3|2:3,0:0:0:0:
256,240,156418,1,0,1:0:0:0:
266,232,156503,5,4,1:2:0:0:
417,314,156675,2,0,P|376:296|329:280,1,88.000002685547,2|2,1:2|0:0,0:0:0:0:
255,324,157018,1,2,1:2:0:0:
153,206,157189,6,0,P|112:224|65:240,1,88.000002685547,10|0,0:0|0:0,0:0:0:0:
4,304,157532,1,0,1:0:0:0:
80,154,157703,2,0,P|81:111|47:85,1,88.000002685547,2|0,1:2|0:0,0:0:0:0:
204,249,158046,1,2,1:2:0:0:
204,249,158218,2,0,P|240:271|279:255,1,88.000002685547,2|2,1:2|0:0,0:0:0:0:
46,297,158561,2,0,P|8:317|3:359,1,88.000002685547,12|2,0:0|0:0,0:0:0:0:
102,375,158903,1,2,0:0:0:0:
102,375,159075,1,0,1:0:0:0:
204,249,159246,6,0,L|178:163,1,88.000002685547,4|0,1:2|1:0,0:0:0:0:
343,74,159589,2,0,L|317:158,1,88.000002685547,2|0,0:0|1:0,0:0:0:0:
204,10,159932,1,8,0:0:0:0:
204,10,160275,5,4,1:2:0:0:
255,96,160446,1,8,0:0:0:0:
94,131,160618,2,0,P|130:84|171:95,1,88.000002685547,0|8,1:0|0:0,0:0:0:0:
168,180,160961,1,2,1:2:0:0:
180,212,161046,1,8,2:3:0:0:
192,245,161132,1,8,0:0:0:0:
204,277,161218,1,8,0:0:0:0:
218,308,161303,2,0,L|199:366,3,44.0000013427735,2|8|8|8,1:2|0:0|2:3|2:3,0:0:0:0:
329,258,161646,2,0,L|315:216,3,44.0000013427735,2|8|8|8,1:2|0:0|2:3|2:3,0:0:0:0:
413,355,161989,6,0,P|469:339|464:248,1,143.999995605469,4|0,1:2|0:0,0:0:0:0:
465,249,162332,1,10,0:0:0:0:
475,121,162503,2,0,P|430:142|383:162,1,95.9999970703126,2|0,0:0|1:0,0:0:0:0:
307,112,162846,1,2,0:0:0:0:
206,235,163018,1,2,1:2:0:0:
198,69,163189,1,10,0:0:0:0:
198,69,163275,1,0,0:0:0:0:
198,69,163361,2,0,P|220:118|239:167,1,95.9999970703126,2|2,1:2|0:0,0:0:0:0:
362,243,163703,5,2,1:2:0:0:
190,327,163875,1,10,0:0:0:0:
262,384,164046,2,0,P|279:339|299:295,1,95.9999970703126,2|10,1:2|0:0,0:0:0:0:
435,160,164389,1,2,1:2:0:0:
374,343,164561,1,12,0:0:0:0:
190,251,164732,6,0,B|110:242|142:197|53:197,1,143.999995605469,2|0,1:2|0:0,0:0:0:0:
48,204,165075,1,10,0:0:0:0:
77,43,165246,2,0,P|119:76|107:134,1,95.9999970703126,2|0,0:0|1:0,0:0:0:0:
191,174,165589,1,2,0:0:0:0:
79,292,165761,1,2,1:2:0:0:
248,370,165932,1,10,0:0:0:0:
173,305,166103,2,0,P|217:287|266:265,1,95.9999970703126,2|2,1:2|0:0,0:0:0:0:
370,156,166446,5,2,1:2:0:0:
442,328,166618,1,10,0:0:0:0:
512,276,166789,2,0,P|468:257|424:239,1,95.9999970703126,2|10,1:2|0:0,0:0:0:0:
357,305,167132,2,0,P|323:276|334:219,1,95.9999970703126,2|2,1:2|0:0,0:0:0:0:
481,107,167475,6,0,P|447:176|419:255,1,143.999995605469,4|0,1:2|0:0,0:0:0:0:
429,253,167818,1,10,0:0:0:0:
425,366,167989,2,0,P|366:343|314:331,1,95.9999970703126,2|0,0:0|1:0,0:0:0:0:
276,262,168332,1,2,0:0:0:0:
152,367,168503,1,2,1:2:0:0:
146,191,168675,6,0,P|166:238|185:288,1,95.9999970703126,8|0,0:0|1:0,0:0:0:0:
276,143,169018,2,0,P|293:98|312:54,1,95.9999970703126,2|0,0:0|1:0,0:0:0:0:
150,15,169361,2,0,P|177:60|219:58,1,95.9999970703126,10|0,0:0|1:0,0:0:0:0:
392,3,169703,1,10,0:0:0:0:
451,151,169875,1,0,1:2:0:0:
414,138,169961,1,8,0:0:0:0:
378,125,170046,1,10,0:0:0:0:
341,111,170132,1,8,0:0:0:0:
304,98,170218,6,0,B|270:140|270:140|315:246,1,143.999995605469,4|0,1:2|0:0,0:0:0:0:
313,235,170561,1,10,0:0:0:0:
391,333,170732,2,0,P|343:368|297:346,1,95.9999970703126,2|0,0:0|1:0,0:0:0:0:
240,304,171075,1,2,0:0:0:0:
385,218,171246,1,0,1:0:0:0:
218,116,171418,2,0,P|238:62|260:12,1,95.9999970703126,10|0,0:0|1:0,0:0:0:0:
288,183,171761,2,0,P|306:227|323:272,1,95.9999970703126,2|2,0:0|1:2,0:0:0:0:
181,200,172103,5,10,0:0:0:0:
51,294,172275,1,2,1:2:0:0:
224,371,172446,1,10,0:0:0:0:
84,197,172618,1,0,0:0:0:0:
141,384,172789,1,0,1:0:0:0:
141,384,172875,1,8,0:0:0:0:
141,384,172961,2,0,L|186:254,1,108.000000411987,4|0,1:2|0:0,0:0:0:0:
18,130,173303,1,10,0:0:0:0:
228,9,173475,6,0,L|274:124,1,108.000000411987,2|0,0:0|1:0,0:0:0:0:
344,163,173818,1,2,0:0:0:0:
170,90,173989,1,2,1:2:0:0:
350,24,174161,2,0,P|407:23|435:84,1,108.000000411987,8|0,0:0|1:2,0:0:0:0:
424,280,174503,6,0,B|311:269|368:187|213:193,1,216.000000823975,2|10,0:0|0:0,0:0:0:0:
66,104,175018,1,2,1:2:0:0:
155,272,175189,1,10,0:0:0:0:
19,371,175361,5,2,1:2:0:0:
114,170,175532,1,12,0:0:0:0:
0,282,175703,2,0,P|56:303|100:326,1,108.000000411987,2|0,1:2|0:0,0:0:0:0:
234,192,176046,1,10,0:0:0:0:
383,367,176218,6,0,P|459:319|429:198,1,216.000000823975,2|2,0:0|0:0,0:0:0:0:
362,143,176732,1,2,1:2:0:0:
257,271,176903,1,8,0:0:0:0:
175,95,177075,1,0,1:0:0:0:
361,225,177246,2,0,P|306:200|235:179,1,108.000000411987,2|2,0:0|1:2,0:0:0:0:
7,321,177589,6,0,P|58:338|107:360,1,108.000000411987,10|2,0:0|1:2,0:0:0:0:
190,316,177932,1,10,0:0:0:0:
124,174,178103,2,0,P|80:202|82:253,1,108.000000411987,2|2,1:2|0:0,0:0:0:0:
260,185,178446,6,0,B|287:149|287:149|239:22,1,162.000000617981,4|0,1:2|0:0,0:0:0:0:
239,28,178789,2,0,P|288:-4|333:19,1,108.000000411987,8|2,0:0|0:0,0:0:0:0:
453,162,179132,2,0,P|404:179|362:148,1,108.000000411987,0|2,1:0|0:0,0:0:0:0:
425,78,179475,5,2,1:2:0:0:
255,176,179646,1,10,0:0:0:0:
396,250,179818,2,0,L|357:131,1,108.000000411987,2|2,1:2|0:0,0:0:0:0:
460,182,180161,5,2,1:2:0:0:
291,268,180332,2,0,L|257:370,1,108.000000411987,10|0,0:0|1:0,0:0:0:0:
201,288,180675,1,10,0:0:0:0:
23,368,180846,5,2,1:2:0:0:
17,324,180932,1,8,2:3:0:0:
38,286,181018,1,8,0:0:0:0:
77,269,181103,1,8,0:0:0:0:
119,276,181189,6,0,L|59:98,1,162.000000617981,4|0,1:2|0:0,0:0:0:0:
43,39,181532,2,0,P|86:83|140:61,1,108.000000411987,10|2,0:0|0:0,0:0:0:0:
267,144,181875,2,0,P|215:138|183:179,1,108.000000411987,2|0,1:2|0:0,0:0:0:0:
131,257,182218,1,2,1:2:0:0:
319,372,182389,6,0,B|437:360|384:296|526:289,1,216.000000823975,10|10,0:0|0:0,0:0:0:0:
386,171,182903,5,10,1:2:0:0:
338,253,183075,1,8,0:0:0:0:
492,128,183246,5,2,1:2:0:0:
382,52,183418,1,8,0:0:0:0:
246,254,183589,5,2,1:2:0:0:
386,171,183761,1,10,0:0:0:0:
169,24,183932,5,4,1:2:0:0:
103,86,184103,2,0,P|151:126|223:96,1,143.999995605469,0|0,1:0|1:0,0:0:0:0:
220,99,184789,1,0,1:0:0:0:
413,183,185132,5,2,0:0:0:0:
413,183,185303,1,2,1:2:0:0:
326,277,185475,2,0,P|336:215|274:168,1,143.999995605469,0|0,1:0|1:0,0:0:0:0:
278,168,186160,1,0,1:0:0:0:
413,183,186332,2,0,L|486:155,1,64,2|2,0:0|0:0,0:0:0:0:
373,0,186675,5,2,1:2:0:0:
373,0,186846,2,0,P|314:21|304:98,1,143.999995605469,0|0,1:0|1:0,0:0:0:0:
302,95,187532,1,0,1:0:0:0:
255,180,187703,2,0,L|186:157,1,64,2|2,0:0|0:0,0:0:0:0:
120,35,188046,6,0,P|103:76|69:151,1,120,2|2,1:2|0:0,0:0:0:0:
154,253,188732,6,0,P|180:266|211:276,1,40,0|0,1:0|0:0,0:0:0:0:
32,278,188903,6,0,P|14:288|0:300,1,40,0|0,1:0|0:0,0:0:0:0:
71,144,189075,6,0,P|70:124|68:104,1,40,2|2,0:0|0:0,0:0:0:0:
85,221,189246,5,2,0:0:0:0:
487,359,190103,6,0,L|516:288,2,47.9999985351563,2|2|2,0:0|0:0|0:0,0:0:0:0:
371,228,190446,6,0,L|384:266,1,35.9999989013672,2|0,0:0|0:0,0:0:0:0:
466,228,190618,2,0,L|453:190,1,35.9999989013672,2|0,0:0|0:0,0:0:0:0:
410,344,190789,6,0,P|374:298|296:324,1,132.00000402832,12|0,0:0|0:0,0:0:0:0:
299,320,191132,2,0,P|252:338|217:356,1,88.000002685547,2|0,1:2|0:0,0:0:0:0:
143,294,191475,1,2,1:2:0:0:
126,286,191561,1,8,0:0:0:0:
109,279,191646,1,0,1:0:0:0:
92,271,191732,1,8,0:0:0:0:
76,263,191818,5,2,1:2:0:0:
77,357,191989,1,8,0:0:0:0:
214,257,192161,2,0,L|178:157,1,88.000002685547,0|0,1:2|0:0,0:0:0:0:
226,93,192503,1,2,1:2:0:0:
57,12,192675,5,0,1:0:0:0:
57,12,192761,1,0,1:0:0:0:
57,12,192846,2,0,L|38:59,3,44.0000013427735,10|8|8|8,0:0|0:0|2:3|2:3,0:0:0:0:
117,149,193189,2,0,L|100:108,1,44.0000013427735,10|0,0:0|0:0,0:0:0:0:
15,274,193361,6,0,P|49:210|158:226,1,191.999994140625,4|0,1:2|0:0,0:0:0:0:
325,373,193875,2,0,B|229:366|262:309|154:311,1,167.999994873047,10|0,1:2|0:0,0:0:0:0:
157,311,194218,2,0,P|127:262|161:220,1,111.999996582031,0|0,1:0|0:0,0:0:0:0:
219,150,194561,1,2,1:2:0:0:
85,14,194732,5,8,0:0:0:0:
85,14,194818,1,0,1:0:0:0:
85,14,194903,2,0,P|103:60|121:109,1,95.9999970703126,2|2,1:2|0:0,0:0:0:0:
234,230,195246,1,2,1:2:0:0:
85,350,195418,2,0,P|136:322|193:307,1,95.9999970703126,10|0,0:0|1:0,0:0:0:0:
331,153,195761,2,0,P|285:137|244:113,1,95.9999970703126,8|2,0:0|1:2,0:0:0:0:
386,295,196103,5,8,2:3:0:0:
386,295,196189,1,0,1:0:0:0:
386,295,196275,2,0,P|455:279|460:177,1,167.999994873047,2|0,1:2|0:0,0:0:0:0:
477,184,196618,2,0,P|454:128|433:60,1,111.999996582031,10|0,1:2|0:0,0:0:0:0:
323,229,196961,2,0,P|300:285|279:353,1,111.999996582031,0|0,1:0|0:0,0:0:0:0:
386,295,197303,5,2,1:2:0:0:
237,175,197475,1,8,0:0:0:0:
237,175,197561,1,0,1:0:0:0:
237,175,197646,2,0,P|181:171|154:216,1,95.9999970703126,2|0,1:2|0:0,0:0:0:0:
105,271,197989,1,2,1:2:0:0:
0,115,198161,1,10,0:0:0:0:
12,303,198332,2,0,L|58:184,1,95.9999970703126,0|8,1:0|0:0,0:0:0:0:
181,29,198675,5,2,1:2:0:0:
223,7,198761,1,8,2:3:0:0:
270,12,198846,1,8,0:0:0:0:
306,42,198932,1,8,0:0:0:0:
318,94,199018,6,0,B|348:131|348:131|288:249,1,167.999994873047,4|0,1:2|0:0,0:0:0:0:
286,249,199361,1,10,1:2:0:0:
245,157,199532,1,2,0:0:0:0:
100,280,199703,2,0,P|151:254|200:237,1,95.9999970703126,0|4,1:0|2:3,0:0:0:0:
356,326,200046,5,2,1:2:0:0:
373,333,200132,1,8,2:3:0:0:
390,340,200218,1,8,0:0:0:0:
407,347,200303,1,8,0:0:0:0:
424,355,200389,2,0,P|468:317|449:266,1,95.9999970703126,2|10,1:2|0:0,0:0:0:0:
336,138,200732,2,0,P|337:184|376:209,1,95.9999970703126,2|8,1:2|2:3,0:0:0:0:
389,213,200989,1,0,0:0:0:0:
403,216,201075,2,0,L|426:157,3,47.9999985351563,2|0|0|0,1:2|0:0|1:0|1:0,0:0:0:0:
484,86,201418,2,0,L|501:130,3,47.9999985351563,10|8|0|0,1:2|0:0|1:0|1:0,0:0:0:0:
378,32,201761,6,0,B|283:37|319:90|204:99,1,167.999994873047,4|0,1:2|0:0,0:0:0:0:
163,157,202103,2,0,P|203:164|257:187,1,80,10|0,1:2|0:0,0:0:0:0:
283,28,202446,2,0,P|243:21|189:-2,1,80,0|0,1:0|0:0,0:0:0:0:
55,53,202789,5,2,1:2:0:0:
3,133,202961,1,10,0:0:0:0:
3,133,203046,1,0,0:0:0:0:
3,133,203132,2,0,L|36:232,1,95.9999970703126,2|2,1:2|0:0,0:0:0:0:
112,273,203475,1,2,1:2:0:0:
274,371,203646,6,0,L|312:251,1,95.9999970703126,10|0,0:0|1:0,0:0:0:0:
378,220,203989,1,8,0:0:0:0:
233,88,204161,1,2,1:2:0:0:
436,147,204332,6,0,B|445:117|467:105|467:105|318:162,1,191.999994140625,12|0,0:0|0:0,0:0:0:0:
149,340,204846,6,0,B|244:330|214:281|322:278,1,167.999994873047,10|0,1:2|0:0,0:0:0:0:
311,272,205189,2,0,L|378:300,3,55.9999982910157,2|2|2|2,1:2|0:0|0:0|0:0,0:0:0:0:
240,193,205532,1,2,1:2:0:0:
437,131,205703,6,0,P|413:175|392:231,1,95.9999970703126,10|2,0:0|0:0,0:0:0:0:
311,272,206046,1,2,0:0:0:0:
148,372,206218,5,2,1:2:0:0:
78,308,206389,2,0,P|112:274|171:284,1,95.9999970703126,10|0,0:0|1:0,0:0:0:0:
249,110,206732,2,0,P|303:124|323:168,1,95.9999970703126,10|0,0:0|1:0,0:0:0:0:
297,355,207075,5,8,2:3:0:0:
297,355,207161,1,0,0:0:0:0:
297,355,207246,2,0,P|277:277|242:166,1,167.999994873047,4|0,1:2|0:0,0:0:0:0:
240,186,207589,2,0,P|263:252|274:295,1,111.999996582031,10|0,1:2|0:0,0:0:0:0:
138,152,207932,1,0,1:0:0:0:
211,84,208103,1,0,0:0:0:0:
89,273,208275,1,2,1:2:0:0:
0,59,208446,5,8,0:0:0:0:
0,59,208532,1,0,1:0:0:0:
0,59,208618,2,0,P|53:80|97:95,1,95.9999970703126,2|0,1:2|0:0,0:0:0:0:
290,232,208961,5,2,1:2:0:0:
199,108,209132,1,10,0:0:0:0:
271,323,209303,2,0,P|324:302|373:287,1,95.9999970703126,0|8,1:0|0:0,0:0:0:0:
510,106,209646,5,2,1:2:0:0:
466,94,209732,1,0,2:3:0:0:
423,109,209818,1,8,0:0:0:0:
398,145,209903,1,8,0:0:0:0:
400,189,209989,6,0,P|379:128|360:77,1,95.9999970703126,4|0,1:2|0:0,0:0:0:0:
159,20,210332,2,0,P|192:75|298:55,1,167.999994873047,10|0,0:0|0:0,0:0:0:0:
297,66,210675,2,0,P|248:98|192:84,1,111.999996582031,2|8,1:2|2:3,0:0:0:0:
135,152,211018,1,2,1:2:0:0:
5,10,211189,1,8,0:0:0:0:
21,231,211361,5,4,1:2:0:0:
33,91,211532,2,0,L|54:143,1,55.9999982910157,8|0,0:0|0:0,0:0:0:0:
158,272,211703,2,0,L|174:218,1,55.9999982910157,2|8,1:2|0:0,0:0:0:0:
23,361,211875,5,8,2:3:0:0:
23,361,211961,1,8,2:3:0:0:
23,361,212046,2,0,L|78:338,3,55.9999982910157,2|8|8|8,1:2|0:0|2:3|2:3,0:0:0:0:
158,272,212389,2,0,L|209:293,3,55.9999982910157,2|8|8|8,1:2|0:0|2:3|2:3,0:0:0:0:
316,377,212732,5,4,1:2:0:0:
316,377,212903,2,0,L|350:278,1,88.000002685547,2|2,1:2|0:0,0:0:0:0:
423,240,213246,1,0,1:0:0:0:
242,139,213417,6,0,L|276:220,1,88.000002685547,10|0,0:0|0:0,0:0:0:0:
339,145,213760,1,2,1:2:0:0:
202,64,213932,6,0,P|164:84|156:126,1,88.000002685547,2|0,1:2|0:0,0:0:0:0:
105,205,214274,1,2,1:2:0:0:
28,146,214446,1,2,1:2:0:0:
28,146,214617,1,2,0:0:0:0:
195,293,214789,5,12,0:0:0:0:
276,234,214960,1,2,0:0:0:0:
303,339,215132,5,2,0:0:0:0:
184,198,215303,1,0,1:0:0:0:
356,159,215474,5,4,1:2:0:0:
423,227,215646,2,0,P|439:180|453:129,1,88.000002685547,2|2,1:2|0:0,0:0:0:0:
512,215,215989,1,2,1:2:0:0:
362,278,216160,6,0,P|376:319|388:361,1,88.000002685547,10|0,0:0|0:0,0:0:0:0:
298,338,216503,1,2,1:2:0:0:
220,162,216674,6,0,P|262:162|289:195,1,88.000002685547,10|0,0:0|1:0,0:0:0:0:
144,319,217017,1,10,0:0:0:0:
32,164,217189,1,2,1:2:0:0:
111,219,217360,1,2,1:2:0:0:
0,375,217532,6,0,L|37:277,1,88.000002685547,12|2,0:0|1:2,0:0:0:0:
163,151,217875,2,0,L|126:53,1,88.000002685547,8|0,2:3|1:0,0:0:0:0:
127,58,218132,1,0,1:0:0:0:
122,46,218217,5,4,1:2:0:0:
309,122,218389,2,0,P|266:108|221:88,1,88.000002685547,2|2,1:2|0:0,0:0:0:0:
163,151,218732,1,2,1:2:0:0:
31,292,218903,6,0,P|71:274|113:260,1,88.000002685547,12|0,0:0|0:0,0:0:0:0:
193,314,219246,1,2,1:2:0:0:
377,367,219417,6,0,P|405:334|396:292,1,88.000002685547,2|0,1:2|0:0,0:0:0:0:
482,159,219761,1,2,1:2:0:0:
482,159,219932,2,0,P|439:150|408:179,1,88.000002685547,2|2,1:2|0:0,0:0:0:0:
263,158,220275,6,0,P|276:198|317:211,1,88.000002685547,12|2,0:0|0:0,0:0:0:0:
342,119,220617,1,2,0:0:0:0:
218,264,220789,1,0,1:0:0:0:
40,125,220961,5,2,1:2:0:0:
52,168,221046,1,10,0:0:0:0:
64,211,221132,1,4,2:3:0:0:
76,254,221218,1,8,2:3:0:0:
88,296,221303,2,0,L|102:349,3,44.0000013427735,2|0|8|8,1:2|1:0|2:3|2:3,0:0:0:0:
153,202,221646,6,0,P|195:189|236:173,1,88.000002685547,10|0,0:0|1:0,0:0:0:0:
245,164,221903,1,8,0:0:0:0:
256,153,221989,1,4,1:2:0:0:
377,262,222161,1,8,0:0:0:0:
369,65,222332,2,0,P|346:115|324:171,1,88.000002685547,0|8,1:0|0:0,0:0:0:0:
207,362,222675,5,2,1:2:0:0:
178,341,222761,1,0,1:0:0:0:
171,306,222846,1,8,0:0:0:0:
188,275,222932,1,8,0:0:0:0:
220,260,223018,2,0,L|265:281,3,44.0000013427735,10|8|8|8,0:0|0:0|2:3|2:3,0:0:0:0:
344,349,223361,2,0,L|383:330,3,44.0000013427735,2|8|8|8,1:2|0:0|2:3|2:3,0:0:0:0:
502,369,223703,6,0,P|475:293|435:175,1,191.999994140625,4|10,1:0|0:0,0:0:0:0:
511,130,224218,2,0,P|474:95|422:102,1,95.9999970703126,2|0,0:0|1:0,0:0:0:0:
291,31,224561,1,2,0:0:0:0:
363,179,224732,1,10,0:0:0:0:
431,96,224903,1,2,1:2:0:0:
295,249,225075,6,0,P|277:192|259:140,1,95.9999970703126,0|2,1:0|0:0,0:0:0:0:
144,5,225418,2,0,P|126:62|108:114,1,95.9999970703126,10|10,1:2|0:0,0:0:0:0:
40,165,225761,5,0,1:0:0:0:
211,250,225932,1,10,0:0:0:0:
265,157,226103,5,0,1:0:0:0:
76,280,226275,1,12,0:0:0:0:
250,369,226446,6,0,P|297:349|352:334,1,95.9999970703126,2|0,1:2|0:0,0:0:0:0:
409,272,226789,1,10,0:0:0:0:
446,113,226961,6,0,P|485:154|468:207,1,95.9999970703126,2|0,0:0|1:0,0:0:0:0:
385,181,227303,1,2,0:0:0:0:
278,25,227475,1,2,1:2:0:0:
364,70,227646,1,10,0:0:0:0:
196,160,227818,6,0,P|179:115|158:63,1,95.9999970703126,2|2,1:2|0:0,0:0:0:0:
297,214,228161,2,0,P|278:258|262:303,1,95.9999970703126,10|2,0:0|0:0,0:0:0:0:
385,181,228503,1,2,1:2:0:0:
201,237,228675,1,12,0:0:0:0:
350,357,228846,2,0,P|398:369|433:318,1,95.9999970703126,8|4,2:3|2:3,0:0:0:0:
260,143,229189,6,0,B|155:136|207:73|75:70,1,191.999994140625,4|8,1:2|0:0,0:0:0:0:
26,0,229703,2,0,P|-14:36|-4:91,2,95.9999970703126,2|0|0,0:0|1:0|0:0,0:0:0:0:
159,142,230218,1,10,0:0:0:0:
24,269,230389,2,0,L|62:150,1,95.9999970703126,8|0,0:0|1:0,0:0:0:0:
166,293,230732,2,0,L|195:384,1,95.9999970703126,2|8,0:0|0:0,0:0:0:0:
252,236,231075,6,0,P|230:197|166:204,1,95.9999970703126,8|4,0:0|1:2,0:0:0:0:
91,355,231418,1,10,0:0:0:0:
166,293,231589,1,2,1:2:0:0:
202,306,231675,1,8,2:3:0:0:
238,319,231761,1,8,0:0:0:0:
273,332,231846,1,8,0:0:0:0:
309,345,231932,6,0,P|352:324|405:308,1,95.9999970703126,4|0,1:2|0:0,0:0:0:0:
328,247,232275,1,8,0:0:0:0:
340,142,232446,2,0,P|297:163|244:179,1,95.9999970703126,2|0,0:0|1:0,0:0:0:0:
445,188,232789,5,2,1:2:0:0:
511,118,232961,1,0,1:0:0:0:
370,11,233132,2,0,P|408:93|450:204,1,191.999994140625,12|10,0:0|0:0,0:0:0:0:
317,334,233646,2,0,P|329:301|356:245,1,95.9999970703126,2|8,1:2|2:3,0:0:0:0:
352,234,233903,1,8,2:3:0:0:
344,224,233989,2,0,P|319:213|293:195,3,47.9999985351563,2|0|8|8,1:2|1:0|2:3|2:3,0:0:0:0:
410,319,234332,2,0,P|430:306|452:296,3,47.9999985351563,2|0|8|8,1:2|1:0|2:3|2:3,0:0:0:0:
311,368,234675,6,0,P|259:348|192:329,1,120,4|0,1:2|0:0,0:0:0:0:
133,375,235018,2,0,P|103:323|143:280,1,103.999995239258,10|0,0:0|0:0,0:0:0:0:
125,195,235361,1,0,1:0:0:0:
268,62,235532,5,10,0:0:0:0:
268,62,235875,1,8,0:0:0:0:
268,62,235961,1,8,0:0:0:0:
268,62,236046,6,0,P|310:114|289:169,1,120.000004577637,4|0,1:2|0:0,0:0:0:0:
172,186,236304,6,0,P|190:138|235:130,1,95.9999970703126,0|0,1:0|0:0,0:0:0:0:
297,236,236561,6,0,P|265:232|239:189,1,64,10|0,0:0|0:0,0:0:0:0:
433,178,236903,5,0,1:0:0:0:
442,188,236989,1,8,0:0:0:0:
451,198,237075,2,0,L|428:257,1,40,8|0,0:0|1:0,0:0:0:0:
370,337,237246,2,0,L|355:299,1,40,0|8,1:0|0:0,0:0:0:0:
482,377,237418,5,4,1:0:0:0:
256,192,237503,12,10,240161,2:1:0:0:
