osu file format v14

[General]
AudioFilename: audio.mp3
AudioLeadIn: 0
PreviewTime: 128389
Countdown: 0
SampleSet: Soft
StackLeniency: 0.7
Mode: 0
LetterboxInBreaks: 0
WidescreenStoryboard: 0

[Editor]
DistanceSpacing: 0.6
BeatDivisor: 3
GridSize: 32
TimelineZoom: 2.2

[Metadata]
Title:escalate
TitleUnicode:escalate
Artist:Aimer
ArtistUnicode:Aimer
Creator:Hyokar
Version:[H]617264
Source:NieR:Automata Ver1.1a
Tags:ニーア オートマタ japanese anime nier automata opening op pop j-pop jpop jrock j-rock rock
BeatmapID:3970782
BeatmapSetID:1923494

[Difficulty]
HPDrainRate:4
CircleSize:4
OverallDifficulty:6.5
ApproachRate:8
SliderMultiplier:1.35
SliderTickRate:1

[Events]
//Background and Video events
0,0,"9S.jpg",0,0
//Break Periods
//Storyboard Layer 0 (Background)
//Storyboard Layer 1 (Fail)
//Storyboard Layer 2 (Pass)
//Storyboard Layer 3 (Foreground)
//Storyboard Layer 4 (Overlay)
//Storyboard Sound Samples

[TimingPoints]
161,342.857142857143,4,2,1,45,1,0
10446,-100,4,2,1,50,0,0
11132,-125,4,2,1,40,0,0
32389,-125,4,2,1,50,0,0
33075,-100,4,2,1,62,0,0
48161,-100,4,2,1,68,0,0
49532,-100,4,2,1,72,0,0
52275,-100,4,2,1,55,0,0
52618,-100,4,2,1,62,0,0
52961,-100,4,2,1,68,0,0
53303,-100,4,2,1,74,0,0
53646,-100,4,2,1,80,0,0
54332,-111.111111111111,4,2,1,65,0,0
54675,-111.111111111111,4,2,1,75,0,0
55018,-90.9090909090909,4,2,1,85,0,1
76961,-100,4,2,1,70,0,0
87932,-100,4,2,1,55,0,0
89303,-100,4,2,1,75,0,0
90675,-100,4,2,1,65,0,0
93418,-125,4,2,1,52,0,0
103703,-125,4,2,1,58,0,0
104389,-100,4,2,1,62,0,0
120846,-100,4,2,1,68,0,0
123246,-100,4,2,1,72,0,0
123589,-100,4,2,1,55,0,0
123932,-100,4,2,1,62,0,0
124275,-100,4,2,1,68,0,0
124618,-100,4,2,1,72,0,0
124961,-100,4,2,1,65,0,0
127018,-100,4,2,1,50,0,0
127361,-100,4,2,1,62,0,0
127703,-100,4,2,1,74,0,0
128389,-111.111111111111,4,2,1,65,0,0
128732,-111.111111111111,4,2,1,75,0,0
129075,-90.9090909090909,4,2,1,85,0,1
151018,-100,4,2,1,70,0,0
161989,-100,4,2,1,75,0,0
172103,-100,4,2,1,80,0,0
172961,-90.9090909090909,4,2,1,85,0,0
181189,-90.9090909090909,4,2,1,75,0,0
181875,-90.9090909090909,4,2,1,78,0,0
182389,-90.9090909090909,4,2,1,80,0,0
182903,-90.9090909090909,4,2,1,82,0,0
183246,-90.9090909090909,4,2,1,85,0,0
183589,-90.9090909090909,4,2,1,90,0,0
183932,-142.857142857143,4,2,1,50,0,0
188046,-142.857142857143,4,2,1,60,0,0
188389,-142.857142857143,4,2,1,65,0,0
188732,-142.857142857143,4,2,1,70,0,0
189075,-142.857142857143,4,2,1,75,0,0
189418,-142.857142857143,4,2,1,30,0,0
190103,-111.111111111111,4,2,1,65,0,0
190446,-111.111111111111,4,2,1,75,0,0
190789,-90.9090909090909,4,2,1,78,0,1
193361,-90.9090909090909,4,2,1,85,0,1
212732,-100,4,2,1,70,0,0
220961,-100,4,2,1,82,0,0
222332,-100,4,2,1,62,0,0
222675,-100,4,2,1,65,0,0
223018,-100,4,2,1,68,0,0
223361,-100,4,2,1,72,0,0
223703,-100,4,2,1,75,0,0
234675,-100,4,2,1,55,0,0
236046,-100,4,2,1,62,0,0
237418,-100,4,2,1,70,0,0
240161,-100,4,2,2,50,0,0

[Colours]
Combo1 : 193,180,147
Combo2 : 252,222,167
Combo3 : 165,164,193

[HitObjects]
256,192,8389,12,2,10789,0:0:0:0:
378,30,11132,6,0,B|381:80|349:117|339:80|298:119|317:171,1,162,4|0,1:2|0:0,0:0:0:0:
383,219,11818,2,0,P|345:254|292:251,1,108,2|2,0:0|0:0,0:0:0:0:
220,200,12332,1,2,0:0:0:0:
106,330,12675,5,0,0:0:0:0:
106,330,12846,2,0,L|173:307,1,54
234,351,13189,2,0,L|285:368,1,54,10|2,0:1|0:0,0:0:0:0:
355,318,13532,2,0,P|389:307|437:348,1,81,2|0,0:0|0:0,0:0:0:0:
438,340,13875,6,0,P|476:233|511:137,1,216,2|0,0:0|0:0,0:0:0:0:
387,15,14903,5,2,0:0:0:0:
387,15,15075,2,0,P|328:9|298:58,1,108,2|2,0:0|0:0,0:0:0:0:
235,101,15589,2,0,P|206:85|178:77,1,54,2|2,0:0|0:0,0:0:0:0:
125,16,15932,2,0,P|96:32|68:40,1,54,10|2,0:1|0:0,0:0:0:0:
11,95,16275,2,0,P|32:137|51:191,1,81,2|0,0:0|0:0,0:0:0:0:
54,175,16618,6,0,P|123:197|99:320,1,216,2|2,1:2|0:0,0:0:0:0:
266,377,17646,5,2,0:0:0:0:
266,377,17818,2,0,L|386:336,1,108,2|2,0:0|0:0,0:0:0:0:
453,357,18332,2,0,L|432:298,1,54,2|2,0:0|0:0,0:0:0:0:
371,246,18675,2,0,L|396:183,1,54,10|2,0:1|0:0,0:0:0:0:
469,159,19018,2,0,P|495:133|479:78,1,81,2|0,0:0|0:0,0:0:0:0:
480,77,19361,1,2,0:0:0:0:
321,9,19703,2,0,L|357:120,1,108,2|0,0:0|0:0,0:0:0:0:
469,241,20389,5,2,0:0:0:0:
469,241,20561,2,0,L|424:357,1,108,2|0,0:0|0:0,0:0:0:0:
345,363,21075,2,0,P|307:346|285:339,1,54,2|0,0:0|0:0,0:0:0:0:
219,300,21418,2,0,P|181:317|159:324,1,54,10|0,0:1|0:0,0:0:0:0:
99,371,21761,1,2,0:0:0:0:
99,371,21846,1,0,0:0:0:0:
99,371,21932,1,0,0:0:0:0:
27,323,22103,5,4,1:2:0:0:
27,323,22275,2,0,L|61:226,1,81,0|0,1:0|0:0,0:0:0:0:
53,229,22618,2,0,P|12:202|44:103,1,162,2|2,0:0|0:0,0:0:0:0:
87,36,23303,2,0,P|139:56|195:75,1,108,2|0,0:0|1:2,0:0:0:0:
252,132,23818,2,0,P|277:122|306:112,1,54,2|2,1:2|0:0,0:0:0:0:
363,51,24161,2,0,P|388:60|417:70,1,54,10|2,0:0|0:0,0:0:0:0:
487,24,24503,1,2,0:0:0:0:
508,195,24846,5,0,1:0:0:0:
508,195,25018,1,0,1:0:0:0:
427,164,25189,2,0,P|372:166|352:213,1,108,2|0,0:0|0:0,0:0:0:0:
439,358,25875,6,0,P|464:309|434:268,1,108,2|0,0:0|0:0,0:0:0:0:
362,314,26389,1,2,1:2:0:0:
362,314,26561,2,0,L|298:335,1,54,2|2,1:2|0:0,0:0:0:0:
255,264,26903,2,0,L|203:247,2,54,10|2|2,0:0|0:0|0:0,0:0:0:0:
330,221,27418,5,0,0:0:0:0:
330,221,27503,1,0,0:0:0:0:
330,221,27589,2,0,L|355:156,1,54,0|0,1:0|1:0,0:0:0:0:
417,116,27932,2,0,P|376:78|318:91,2,108,2|2|2,0:0|0:0|0:0,0:0:0:0:
349,170,28789,6,0,P|296:185|235:211,1,108,2|2,0:0|1:2,0:0:0:0:
195,274,29303,2,0,P|151:257|125:253,1,54,2|0,1:2|0:0,0:0:0:0:
101,330,29646,2,0,P|75:337|50:348,1,54,10|2,0:0|0:0,0:0:0:0:
2,276,29989,2,0,P|-7:235|28:201,1,81,2|0,0:0|0:0,0:0:0:0:
29,200,30332,5,0,1:0:0:0:
91,140,30503,2,0,P|109:85|134:24,1,108,0|2,1:0|0:0,0:0:0:0:
262,260,31361,1,2,0:0:0:0:
262,260,31532,2,0,P|290:296|356:274,1,108,2|0,0:0|1:0,0:0:0:0:
428,258,32046,2,0,L|410:198,1,54,2|0,1:2|0:0,0:0:0:0:
482,154,32389,2,0,L|502:88,1,54,10|2,0:0|0:0,0:0:0:0:
438,38,32732,1,2,0:0:0:0:
375,97,32903,5,0,0:0:0:0:
375,97,32989,1,0,0:0:0:0:
375,97,33075,2,0,L|284:69,1,67.5,4|0,1:2|0:0,0:0:0:0:
235,19,33418,2,0,L|166:44,1,67.5,2|2,1:2|0:0,0:0:0:0:
76,35,33761,2,0,P|129:42|123:123,1,135,10|2,0:0|1:2,0:0:0:0:
67,178,34275,1,8,0:0:0:0:
137,240,34446,2,0,B|220:242|170:185|287:199,1,135,2|2,1:2|1:2,0:0:0:0:
332,135,34961,2,0,P|372:155|405:167,1,67.5,10|0,0:0|1:0,0:0:0:0:
469,217,35303,2,0,P|437:229|407:245,1,67.5,2|2,0:0|1:2,0:0:0:0:
348,318,35646,5,8,0:0:0:0:
348,318,35732,1,0,1:0:0:0:
348,318,35818,2,0,P|332:275|315:236,1,67.5,2|0,1:2|0:0,0:0:0:0:
234,286,36161,2,0,P|249:329|261:370,1,67.5,2|2,1:2|0:0,0:0:0:0:
163,329,36503,2,0,P|138:275|195:214,1,135,10|2,0:0|1:2,0:0:0:0:
230,138,37018,5,8,0:0:0:0:
230,138,37103,1,8,0:0:0:0:
230,138,37189,2,0,L|376:183,1,135,2|2,1:2|1:2,0:0:0:0:
425,245,37703,2,0,L|502:216,1,67.5,10|2,0:0|0:0,0:0:0:0:
390,322,38046,1,10,0:0:0:0:
390,322,38218,2,0,L|342:308,3,33.75,2|0|0|0,0:0|0:0|1:0|1:0,0:0:0:0:
324,279,38561,6,0,P|290:289|260:303,1,67.5,4|0,1:2|0:0,0:0:0:0:
197,372,38903,2,0,P|165:358|133:348,1,67.5,2|2,1:2|0:0,0:0:0:0:
43,377,39246,2,0,P|14:332|75:273,1,135,10|2,0:0|1:2,0:0:0:0:
131,213,39761,5,8,0:0:0:0:
216,172,39932,2,0,P|259:125|230:68,1,135,2|0,1:2|1:0,0:0:0:0:
156,9,40446,2,0,P|121:30|93:42,1,67.5,10|0,0:0|1:0,0:0:0:0:
25,103,40789,1,2,0:0:0:0:
25,103,40961,2,0,P|55:116|84:134,1,67.5,2|10,1:2|0:0,0:0:0:0:
135,214,41303,1,2,1:2:0:0:
135,214,41646,6,0,P|107:277|81:344,2,135,2|8|0,1:2|0:0|1:0,0:0:0:0:
188,292,42503,1,8,0:0:0:0:
188,292,42589,1,8,0:0:0:0:
188,292,42675,2,0,P|236:306|263:318,1,67.5,0|2,1:0|0:0,0:0:0:0:
322,375,43018,1,0,1:0:0:0:
322,375,43189,1,10,0:0:0:0:
401,324,43361,2,0,P|421:300|412:246,1,67.5,2|10,1:2|0:0,0:0:0:0:
371,185,43703,2,0,L|349:143,3,33.75,0|8|0|8,1:0|2:3|1:0|2:3,0:0:0:0:
311,137,44046,6,0,P|322:101|340:60,1,67.5,4|0,1:2|0:0,0:0:0:0:
241,49,44389,2,0,P|230:85|212:126,1,67.5,2|2,1:2|0:0,0:0:0:0:
131,149,44732,2,0,P|182:143|220:220,1,135,10|2,0:0|1:2,0:0:0:0:
286,277,45246,1,8,0:0:0:0:
213,339,45418,2,0,P|156:356|73:389,1,135,2|2,1:2|1:2,0:0:0:0:
13,322,45932,1,8,0:0:0:0:
13,322,46103,2,0,P|2:280|30:254,1,67.5,2|2,1:2|0:0,0:0:0:0:
88,203,46446,2,0,P|102:173|89:143,1,67.5,10|8,1:2|0:0,0:0:0:0:
78,131,46703,1,0,1:0:0:0:
69,120,46789,6,0,P|108:104|146:84,1,67.5,2|0,1:2|0:0,0:0:0:0:
199,161,47132,2,0,P|238:177|276:197,1,67.5,2|2,1:2|0:0,0:0:0:0:
350,158,47475,2,0,P|359:223|312:267,1,135,10|2,0:0|1:2,0:0:0:0:
291,359,47989,1,8,0:0:0:0:
291,359,48075,1,8,0:0:0:0:
291,359,48161,2,0,P|350:334|426:313,1,135,2|2,1:2|1:2,0:0:0:0:
491,375,48675,2,0,P|512:350|494:292,1,67.5,10|0,0:0|1:0,0:0:0:0:
460,237,49018,1,10,0:0:0:0:
460,237,49189,2,0,L|478:188,3,33.75,2|0|2|0,1:2|0:0|0:0|1:0,0:0:0:0:
447,164,49532,6,0,P|429:112|404:40,1,101.25,4|0,1:2|0:0,0:0:0:0:
405,56,49875,2,0,P|359:53|337:77,1,67.5,10|0,0:0|0:0,0:0:0:0:
265,178,50218,2,0,P|290:139|280:108,1,67.5,2|8,1:2|0:0,0:0:0:0:
227,0,50561,2,0,P|247:41|279:48,1,67.5,2|0,1:2|0:0,0:0:0:0:
197,113,50903,2,0,P|147:131|58:170,1,135,2|2,1:2|1:2,0:0:0:0:
11,237,51418,2,0,P|-13:284|49:349,1,135,10|0,0:0|1:0,0:0:0:0:
89,272,51932,1,10,0:0:0:0:
101,283,52018,1,0,0:0:0:0:
114,293,52103,1,0,1:0:0:0:
125,304,52189,1,0,1:0:0:0:
138,313,52275,6,0,P|172:296|210:287,1,67.5,4|8,1:2|0:0,0:0:0:0:
274,220,52618,2,0,P|308:237|346:246,1,67.5,2|8,1:2|0:0,0:0:0:0:
415,296,52961,2,0,L|435:248,3,33.75,10|8|8|8,0:0|0:0|2:3|2:3,0:0:0:0:
456,227,53303,2,0,L|436:179,3,33.75,10|8|4|4,0:0|2:3|2:3|2:3,0:0:0:0:
417,155,53646,1,10,0:0:0:0:
145,48,54332,6,0,P|115:64|82:76,2,60.7499981460572,2|0|2,0:0|0:0|0:0,0:0:0:0:
222,96,54846,1,2,0:0:0:0:
222,96,55018,6,0,P|279:115|368:157,2,148.50000453186,4|10|0,1:0|1:2|1:0,0:0:0:0:
149,160,55875,1,0,0:0:0:0:
204,238,56046,1,2,1:2:0:0:
122,290,56218,1,8,0:0:0:0:
122,290,56303,1,0,0:0:0:0:
122,290,56389,2,0,P|108:326|94:374,1,74.2500022659302,2|0,1:2|0:0,0:0:0:0:
5,330,56732,2,0,P|18:293|33:246,1,74.2500022659302,2|8,1:2|0:0,0:0:0:0:
7,165,57075,1,2,1:2:0:0:
74,96,57246,2,0,L|156:127,1,74.2500022659302,8|0,0:0|1:0,0:0:0:0:
207,195,57589,6,0,P|243:235|343:212,1,148.50000453186,4|0,1:2|0:0,0:0:0:0:
429,248,58103,2,0,B|446:208|422:166|407:195|381:153|394:110,2,148.50000453186,10|0|2,1:2|1:0|1:2,0:0:0:0:
492,321,58961,5,8,0:0:0:0:
492,321,59046,1,0,1:0:0:0:
492,321,59132,2,0,P|451:335|414:352,1,74.2500022659302,2|2,1:2|0:0,0:0:0:0:
344,290,59475,1,2,1:2:0:0:
264,344,59646,2,0,P|251:307|232:268,1,74.2500022659302,8|2,0:0|1:2,0:0:0:0:
146,313,59989,2,0,P|158:348|173:381,1,74.2500022659302,8|0,0:0|1:0,0:0:0:0:
60,315,60332,5,0,0:0:0:0:
60,315,60503,2,0,P|56:279|87:247,1,74.2500022659302,4|0,1:2|0:0,0:0:0:0:
156,193,60846,2,0,B|252:185|207:247|312:240,2,148.50000453186,10|0|2,1:2|1:0|1:2,0:0:0:0:
65,158,61703,1,8,0:0:0:0:
65,158,61789,1,0,1:0:0:0:
65,157,61875,6,0,P|40:85|9:3,1,148.50000453186,0|0,1:2|1:0,0:0:0:0:
112,53,62389,2,0,L|188:79,1,74.2500022659302,8|0,0:0|1:0,0:0:0:0:
238,156,62732,2,0,L|314:130,1,74.2500022659302,8|2,0:0|1:2,0:0:0:0:
368,56,63075,5,8,0:0:0:0:
368,56,63161,1,8,0:0:0:0:
368,56,63246,2,0,P|425:87|408:168,1,148.50000453186,4|10,1:2|1:2,0:0:0:0:
341,224,63761,1,2,0:0:0:0:
341,224,63932,2,0,P|359:269|376:316,1,74.2500022659302,0|0,1:0|0:0,0:0:0:0:
436,361,64275,2,0,P|454:316|471:269,1,74.2500022659302,2|8,1:2|0:0,0:0:0:0:
472,284,64532,1,0,0:0:0:0:
482,275,64618,6,0,P|514:227|435:164,2,148.50000453186,2|0|2,1:2|1:0|1:2,0:0:0:0:
397,227,65475,1,8,0:0:0:0:
397,227,65561,1,0,0:0:0:0:
397,227,65646,2,0,L|343:244,3,37.1250011329651,2|8|0|8,1:2|2:3|1:0|0:0,0:0:0:0:
324,269,65989,6,0,P|276:288|177:337,2,148.50000453186,4|10|0,1:2|1:2|1:0,0:0:0:0:
246,211,66846,1,0,0:0:0:0:
298,129,67018,1,2,1:2:0:0:
226,64,67189,1,8,0:0:0:0:
226,64,67275,1,0,0:0:0:0:
226,64,67361,2,0,P|211:96|195:142,1,74.2500022659302,0|2,1:1|0:0,0:0:0:0:
106,100,67703,2,0,P|121:68|137:22,1,74.2500022659302,2|8,1:2|0:0,0:0:0:0:
21,101,68046,2,0,P|25:145|52:161,1,74.2500022659302,2|8,1:2|0:0,0:0:0:0:
129,211,68389,1,2,1:2:0:0:
188,287,68561,6,0,P|215:211|243:142,1,148.50000453186,4|0,1:2|0:0,0:0:0:0:
278,58,69075,2,0,P|324:112|403:94,2,148.50000453186,10|2|2,1:2|0:0|1:2,0:0:0:0:
193,11,69932,1,8,0:0:0:0:
193,11,70018,1,0,1:0:0:0:
193,11,70103,2,0,P|157:31|121:44,1,74.2500022659302,2|2,1:2|0:0,0:0:0:0:
35,9,70446,1,2,1:2:0:0:
2,100,70618,1,10,0:0:0:0:
92,133,70789,2,0,P|83:169|64:216,1,74.2500022659302,0|8,1:0|0:0,0:0:0:0:
163,229,71132,2,0,P|171:192|191:146,1,74.2500022659302,0|0,1:0|0:0,0:0:0:0:
254,225,71475,6,0,B|348:227|308:280|397:284,2,148.50000453186,4|10|0,1:2|1:2|1:0,0:0:0:0:
197,303,72332,2,0,P|150:324|123:341,1,74.2500022659302,0|2,0:0|1:2,0:0:0:0:
40,370,72675,1,8,0:0:0:0:
40,370,72761,1,0,1:0:0:0:
40,370,72846,2,0,P|21:329|81:256,1,148.50000453186,2|2,1:2|1:2,0:0:0:0:
130,335,73361,2,0,L|212:360,1,74.2500022659302,8|2,0:0|1:2,0:0:0:0:
278,300,73703,1,8,0:0:0:0:
278,300,73875,2,0,L|313:289,3,37.1250011329651,0|8|8|8,1:0|2:3|0:0|0:0,0:0:0:0:
351,318,74218,6,0,P|383:357|481:333,1,148.50000453186,4|10,1:2|1:2,0:0:0:0:
511,256,74732,1,2,0:0:0:0:
511,256,74903,2,0,L|488:179,2,74.2500022659302,2|4|2,1:2|2:3|1:2,0:0:0:0:
414,240,75418,1,8,0:0:0:0:
351,166,75589,6,0,L|261:200,1,74.2500022659302,4|10,1:2|0:0,0:0:0:0:
210,258,75932,1,2,1:2:0:0:
210,258,76018,1,8,0:0:0:0:
210,258,76103,1,8,2:3:0:0:
142,188,76275,2,0,L|99:204,3,37.1250011329651,2|8|8|8,1:2|0:0|2:3|2:3,0:0:0:0:
71,233,76618,2,0,L|36:220,3,37.1250011329651,2|8|0|0,1:2|2:3|1:0|1:0,0:0:0:0:
13,177,76961,6,0,P|-15:135|36:65,1,135,4|2,1:2|0:0,0:0:0:0:
99,23,77475,1,0,1:0:0:0:
99,23,77646,2,0,P|139:33|232:61,1,135,10|2,0:0|1:2,0:0:0:0:
285,127,78161,1,2,1:2:0:0:
418,14,78503,5,2,1:2:0:0:
418,14,78675,2,0,P|406:53|393:84,1,67.5,2|2,1:2|0:0,0:0:0:0:
451,146,79018,2,0,P|463:185|476:216,2,67.5,12|2|2,0:0|0:0|0:0,0:0:0:0:
382,201,79532,5,2,1:2:0:0:
382,201,79618,1,0,0:0:0:0:
382,201,79703,2,0,P|333:218|337:298,1,135,4|2,1:2|0:0,0:0:0:0:
390,358,80218,1,0,1:2:0:0:
390,358,80389,2,0,P|347:346|233:322,1,135,10|2,0:0|1:2,0:0:0:0:
190,270,80903,1,10,0:0:0:0:
34,351,81246,5,10,0:0:0:0:
34,351,81418,2,0,P|45:309|58:278,1,67.5,2|0,1:2|1:0,0:0:0:0:
101,212,81761,2,0,P|90:170|77:139,2,67.5,12|2|8,0:0|1:2|2:3,0:0:0:0:
167,154,82275,5,0,1:0:0:0:
167,154,82361,1,0,1:0:0:0:
167,154,82446,2,0,P|222:134|276:196,1,135,4|2,1:2|0:0,0:0:0:0:
322,254,82961,1,0,1:2:0:0:
322,254,83132,2,0,P|367:299|429:280,1,135,10|2,0:0|1:2,0:0:0:0:
504,234,83646,1,2,1:2:0:0:
416,82,83989,5,2,1:2:0:0:
416,82,84161,2,0,P|378:71|344:56,1,67.5,0|2,1:2|0:0,0:0:0:0:
275,19,84503,2,0,P|243:31|211:40,2,67.5,12|2|2,0:0|0:0|0:0,0:0:0:0:
261,106,85018,5,0,1:0:0:0:
261,106,85189,2,0,B|251:141|277:176|294:153|323:188|311:233,1,135,4|2,1:2|0:0,0:0:0:0:
334,306,85703,1,0,1:0:0:0:
334,306,85875,2,0,P|291:314|261:284,1,67.5,8|0,0:0|0:0,0:0:0:0:
198,254,86218,5,4,1:2:0:0:
136,316,86389,1,8,0:0:0:0:
63,265,86561,2,0,L|92:185,1,67.5,0|10,1:0|1:2,0:0:0:0:
145,137,86903,1,2,1:2:0:0:
145,137,86989,1,0,1:0:0:0:
145,137,87075,2,0,L|130:97,3,33.75,8|8|10|8,0:0|0:0|0:0|0:0,0:0:0:0:
99,77,87418,2,0,L|113:37,3,33.75,8|8|2|8,2:3|2:3|1:2|0:0,0:0:0:0:
142,14,87761,1,8,2:3:0:0:
211,66,87932,6,0,P|257:108|327:82,1,135,4|10,1:2|0:0,0:0:0:0:
474,175,88618,5,0,1:0:0:0:
474,175,88789,2,0,P|412:155|363:198,1,135,10|0,0:0|1:0,0:0:0:0:
308,266,89303,2,0,L|274:171,2,101.25,4|0|10,1:2|1:0|0:0,0:0:0:0:
452,366,90161,5,0,1:0:0:0:
452,366,90246,1,0,1:0:0:0:
452,366,90332,2,0,L|492:349,3,33.75,10|8|8|0,0:0|0:0|2:3|1:0,0:0:0:0:
505,315,90675,1,4,1:2:0:0:
256,192,90846,12,0,93075,0:0:0:0:
472,29,93418,5,4,1:0:0:0:
472,29,93589,2,0,P|423:45|366:77,1,108,0|0,1:0|0:0,0:0:0:0:
319,139,94103,2,0,P|276:154|221:108,1,108,2|2,0:0|0:0,0:0:0:0:
177,50,94618,1,2,0:0:0:0:
8,12,94961,5,2,1:2:0:0:
8,12,95132,2,0,L|33:84,1,54,2|2,1:2|0:0,0:0:0:0:
103,101,95475,2,0,P|75:166|45:268,1,162,10|0,0:0|0:0,0:0:0:0:
2,326,96161,2,0,P|34:337|72:356,1,54,0|0,1:0|1:0,0:0:0:0:
129,383,96503,1,2,0:0:0:0:
314,201,97189,5,2,0:0:0:0:
314,201,97361,2,0,P|359:185|412:158,1,108,2|2,0:0|1:2,0:0:0:0:
499,154,97875,2,0,P|481:119|466:88,1,54,2|0,1:2|0:0,0:0:0:0:
492,21,98218,2,0,P|434:14|404:66,1,108,10|2,0:0|0:0,0:0:0:0:
275,163,98903,6,0,P|293:198|308:229,1,54,2|0,1:2|1:0,0:0:0:0:
378,245,99246,2,0,P|359:286|334:364,2,108,2|2|2,0:0|0:0|0:0,0:0:0:0:
460,217,100103,6,0,P|449:179|379:162,1,108,2|2,0:0|1:2,0:0:0:0:
309,122,100618,2,0,P|274:140|254:146,1,54,2|0,1:2|0:0,0:0:0:0:
209,214,100961,2,0,P|161:196|50:169,1,162,10|0,0:0|0:0,0:0:0:0:
3,99,101646,2,0,P|-4:64|15:44,1,54,0|0,1:0|1:0,0:0:0:0:
77,3,101989,1,2,0:0:0:0:
342,225,102675,5,2,0:0:0:0:
342,225,102846,2,0,P|396:246|452:264,1,108,2|0,0:0|1:0,0:0:0:0:
497,329,103361,1,2,1:2:0:0:
497,329,103703,6,0,P|467:340|428:361,1,54,10|2,0:0|0:0,0:0:0:0:
368,384,104046,2,0,P|343:372|318:362,1,54,2|0,0:0|0:0,0:0:0:0:
247,299,104389,6,0,P|257:265|277:228,1,67.5,4|0,1:2|0:0,0:0:0:0:
184,199,104732,2,0,P|173:232|154:270,1,67.5,2|0,1:2|0:0,0:0:0:0:
93,329,105075,2,0,P|55:295|93:216,1,135,10|2,1:2|1:2,0:0:0:0:
115,135,105589,5,8,0:0:0:0:
193,81,105761,2,0,P|258:111|338:141,1,135,2|2,1:2|1:2,0:0:0:0:
377,206,106275,2,0,P|412:188|449:177,2,67.5,10|0|2,0:0|1:0|0:0,0:0:0:0:
319,281,106789,2,0,P|284:263|247:252,1,67.5,2|8,1:2|0:0,0:0:0:0:
250,246,107046,1,8,0:0:0:0:
242,237,107132,6,0,P|197:238|165:315,1,135,2|2,1:2|1:2,0:0:0:0:
251,348,107646,1,0,0:0:0:0:
251,348,107818,2,0,P|294:364|322:374,1,67.5,10|0,1:2|0:0,0:0:0:0:
388,312,108161,2,0,P|425:300|456:286,1,67.5,2|8,1:2|0:0,0:0:0:0:
463,293,108418,1,8,0:0:0:0:
476,299,108503,6,0,P|448:237|417:160,1,135,2|2,1:2|1:2,0:0:0:0:
348,115,109018,2,0,P|366:75|379:51,1,67.5,10|0,0:0|1:0,0:0:0:0:
289,18,109361,2,0,P|275:48|259:78,1,67.5,4|0,1:2|1:0,0:0:0:0:
182,132,109703,5,8,2:3:0:0:
182,132,109789,1,0,1:0:0:0:
182,132,109875,2,0,P|145:132|121:160,1,67.5,4|0,2:0|0:0,0:0:0:0:
36,187,110218,2,0,P|17:219|29:253,1,67.5,2|2,1:2|0:0,0:0:0:0:
14,341,110561,6,0,P|72:318|145:293,1,135,10|2,0:0|1:2,0:0:0:0:
208,228,111075,1,8,0:0:0:0:
208,228,111246,2,0,P|276:213|324:277,1,135,2|0,1:2|1:0,0:0:0:0:
392,315,111761,2,0,P|408:273|421:241,1,67.5,10|0,0:0|1:0,0:0:0:0:
478,180,112103,2,0,P|494:221|507:253,2,67.5,2|2|8,0:0|1:2|0:0,0:0:0:0:
405,128,112618,1,2,1:2:0:0:
405,128,112961,6,0,P|429:62|456:4,2,135,2|8|0,1:2|0:0|1:0,0:0:0:0:
346,53,113818,1,8,0:0:0:0:
346,53,113903,1,0,1:0:0:0:
346,53,113989,2,0,P|304:38|276:25,1,67.5,2|2,1:2|0:0,0:0:0:0:
212,91,114332,1,2,1:2:0:0:
212,91,114503,1,8,0:0:0:0:
154,166,114675,2,0,P|112:181|84:194,1,67.5,2|10,1:0|0:0,0:0:0:0:
12,242,115018,2,0,L|-11:187,3,33.75,2|8|8|4,1:2|2:3|2:3|2:3,0:0:0:0:
1,163,115361,6,0,P|21:103|88:91,1,135,4|2,1:2|1:2,0:0:0:0:
163,134,115875,1,0,0:0:0:0:
163,134,116046,2,0,L|239:160,1,67.5,10|0,1:2|0:0,0:0:0:0:
297,219,116389,1,2,1:2:0:0:
376,167,116561,1,8,0:0:0:0:
447,228,116732,6,0,P|484:250|461:336,1,135,2|2,1:2|1:2,0:0:0:0:
390,377,117246,2,0,L|304:349,1,67.5,10|0,0:0|1:0,0:0:0:0:
250,298,117589,2,0,L|185:318,1,67.5,2|0,0:0|1:0,0:0:0:0:
107,371,117932,1,0,1:0:0:0:
107,371,118018,1,0,1:0:0:0:
107,371,118103,2,0,P|86:331|104:297,1,67.5,2|0,1:2|0:0,0:0:0:0:
120,221,118446,6,0,L|65:72,2,135,2|8|2,1:2|1:2|1:2,0:0:0:0:
174,143,119303,1,8,0:0:0:0:
174,143,119389,1,0,1:0:0:0:
174,143,119475,2,0,P|232:123|281:189,1,135,2|2,1:2|1:2,0:0:0:0:
350,233,119989,2,0,P|335:269|322:298,1,67.5,10|0,0:0|1:0,0:0:0:0:
410,331,120332,2,0,P|425:295|438:266,1,67.5,8|2,0:0|1:2,0:0:0:0:
506,204,120675,5,8,2:3:0:0:
506,204,120761,1,0,1:0:0:0:
506,204,120846,2,0,P|481:138|456:58,2,135,4|10|2,1:2|1:2|1:2,0:0:0:0:
436,268,121703,1,8,0:0:0:0:
437,362,121875,2,0,P|402:347|365:336,1,67.5,2|0,1:2|0:0,0:0:0:0:
298,280,122218,6,0,P|250:303|162:335,1,135,2|2,1:2|1:2,0:0:0:0:
88,373,122732,2,0,P|53:358|16:347,2,67.5,8|0|0,0:0|1:0|1:0,0:0:0:0:
173,331,123246,2,0,P|192:300|180:265,1,67.5,10|0,0:0|1:0,0:0:0:0:
177,261,123503,1,8,2:3:0:0:
169,251,123589,6,0,L|204:172,1,67.5,2|8,1:2|0:0,0:0:0:0:
274,135,123932,2,0,L|239:56,1,67.5,2|0,1:2|1:0,0:0:0:0:
170,14,124275,1,2,1:2:0:0:
155,22,124361,1,8,2:3:0:0:
140,29,124446,1,8,2:3:0:0:
125,37,124532,1,0,1:0:0:0:
111,47,124618,2,0,L|54:31,3,33.75,10|8|0|8,0:0|0:0|1:0|2:3,0:0:0:0:
33,51,124961,6,0,P|5:77|10:111,1,67.5,4|2,1:2|1:2,0:0:0:0:
70,173,125303,1,10,0:0:0:0:
4,241,125475,1,2,1:2:0:0:
77,300,125646,2,0,P|115:311|145:323,1,67.5,12|2,0:0|1:2,0:0:0:0:
214,260,125989,5,2,1:2:0:0:
214,260,126161,1,12,0:0:0:0:
249,172,126332,2,0,P|287:161|317:149,1,67.5,2|8,1:2|2:3,0:0:0:0:
375,79,126675,2,0,P|407:106|408:140,1,67.5,2|0,1:2|1:0,0:0:0:0:
469,203,127018,2,0,L|449:249,3,33.75,10|8|8|8,0:0|0:0|2:3|2:3,0:0:0:0:
424,270,127361,2,0,L|444:316,3,33.75,10|0|0|0,0:0|1:0|1:0|1:0,0:0:0:0:
469,334,127703,1,10,0:0:0:0:
202,215,128389,6,0,P|172:201|143:194,2,60.7499981460572,2|0|2,0:0|0:0|0:0,0:0:0:0:
250,292,128903,1,2,0:0:0:0:
250,292,129075,6,0,P|292:266|278:166,2,148.50000453186,4|10|0,1:2|1:2|1:0,0:0:0:0:
181,360,129932,1,0,0:0:0:0:
107,298,130103,1,2,1:2:0:0:
28,354,130275,1,8,0:0:0:0:
28,354,130361,1,0,1:0:0:0:
28,354,130446,2,0,L|0:271,1,74.2500022659302,2|2,1:2|0:0,0:0:0:0:
63,207,130789,5,2,1:2:0:0:
137,145,130961,2,0,P|148:108|164:71,1,74.2500022659302,8|2,0:0|1:2,0:0:0:0:
69,47,131303,2,0,P|57:82|43:116,1,74.2500022659302,8|0,0:0|1:0,0:0:0:0:
63,207,131646,6,0,P|123:192|159:271,1,148.50000453186,12|0,0:0|0:0,0:0:0:0:
216,338,132161,2,0,B|301:347|264:292|361:298,1,148.50000453186,10|0,1:2|1:0,0:0:0:0:
437,346,132675,2,0,P|457:308|445:273,1,74.2500022659302,0|2,0:0|1:2,0:0:0:0:
405,192,133018,5,8,0:0:0:0:
405,192,133103,1,8,0:0:0:0:
405,192,133189,2,0,P|430:118|461:37,1,148.50000453186,0|2,1:2|1:2,0:0:0:0:
360,73,133703,2,0,P|318:58|290:45,1,74.2500022659302,10|0,0:0|1:0,0:0:0:0:
253,134,134046,2,0,P|295:149|323:162,1,74.2500022659302,8|2,0:0|1:2,0:0:0:0:
250,226,134389,1,0,0:0:0:0:
250,226,134561,2,0,P|270:267|285:311,1,74.2500022659302,4|0,1:2|0:0,0:0:0:0:
356,352,134903,6,0,P|390:310|481:346,2,148.50000453186,10|0|2,1:2|1:0|1:2,0:0:0:0:
279,293,135761,1,8,0:0:0:0:
279,293,135846,1,0,1:0:0:0:
279,293,135932,2,0,P|220:315|137:348,1,148.50000453186,2|2,1:2|1:2,0:0:0:0:
68,281,136446,2,0,P|38:270|-2:253,1,74.2500022659302,10|0,0:0|1:0,0:0:0:0:
116,207,136789,2,0,P|146:196|186:179,1,74.2500022659302,10|0,0:0|1:0,0:0:0:0:
224,91,137132,5,8,0:0:0:0:
231,78,137218,1,8,0:0:0:0:
238,67,137303,2,0,P|301:48|352:111,1,148.50000453186,4|10,1:2|1:2,0:0:0:0:
414,177,137818,1,2,0:0:0:0:
414,177,137989,2,0,L|386:245,1,74.2500022659302,0|2,1:0|0:0,0:0:0:0:
474,286,138332,2,0,L|501:354,1,74.2500022659302,2|8,1:2|0:0,0:0:0:0:
494,364,138589,1,0,1:0:0:0:
487,375,138675,6,0,P|431:324|361:357,1,148.50000453186,2|0,1:2|1:0,0:0:0:0:
278,382,139189,1,8,0:0:0:0:
278,382,139275,1,0,0:0:0:0:
278,382,139361,2,0,L|199:358,1,74.2500022659302,2|10,1:2|0:0,0:0:0:0:
138,293,139703,2,0,L|102:303,3,37.1250011329651,2|8|8|8,1:2|2:3|2:3|0:0,0:0:0:0:
54,303,140046,6,0,P|1:263|31:181,2,148.50000453186,4|10|2,1:2|1:2|1:0,0:0:0:0:
114,227,140903,2,0,L|142:143,1,74.2500022659302,0|2,0:0|1:2,0:0:0:0:
107,58,141246,1,10,0:0:0:0:
107,58,141332,1,8,0:0:0:0:
107,58,141418,2,0,P|178:90|259:122,1,148.50000453186,2|2,1:2|1:2,0:0:0:0:
292,195,141932,2,0,P|328:181|369:168,1,74.2500022659302,8|2,0:0|1:2,0:0:0:0:
457,179,142275,2,0,P|462:137|436:110,1,74.2500022659302,8|2,0:0|1:0,0:0:0:0:
463,22,142618,6,0,P|396:5|358:79,1,148.50000453186,12|0,0:0|0:0,0:0:0:0:
443,113,143132,2,0,L|486:229,1,111.375003398895,10|0,1:2|0:0,0:0:0:0:
478,234,143475,2,0,L|437:267,3,37.1250011329651,2|2|2|2,1:2|0:0|0:0|0:0,0:0:0:0:
437,297,143818,1,2,1:2:0:0:
369,360,143989,5,8,0:0:0:0:
369,360,144075,1,0,1:0:0:0:
369,360,144161,2,0,L|225:312,1,148.50000453186,2|2,1:2|1:2,0:0:0:0:
143,359,144675,2,0,P|106:370|54:393,1,74.2500022659302,10|0,0:0|1:0,0:0:0:0:
36,289,145018,2,0,P|73:278|125:255,1,74.2500022659302,8|2,0:0|1:2,0:0:0:0:
153,172,145361,5,2,0:0:0:0:
153,172,145532,2,0,P|179:124|266:138,2,148.50000453186,4|10|0,1:2|1:2|1:0,0:0:0:0:
234,218,146389,2,0,L|267:299,1,74.2500022659302,0|2,0:0|1:2,0:0:0:0:
306,371,146732,5,8,0:0:0:0:
369,294,146903,2,0,L|421:127,1,148.50000453186,2|2,1:2|1:2,0:0:0:0:
489,86,147418,2,0,P|467:57|431:56,1,74.2500022659302,10|0,0:0|1:0,0:0:0:0:
337,82,147761,1,8,0:0:0:0:
337,82,147932,2,0,L|292:64,3,37.1250011329651,2|8|8|8,1:2|2:3|0:0|0:0,0:0:0:0:
271,31,148275,6,0,P|219:63|152:10,1,148.50000453186,4|10,1:2|1:2,0:0:0:0:
97,89,148789,1,2,0:0:0:0:
97,89,148961,2,0,P|53:105|8:128,1,74.2500022659302,0|8,1:0|2:3,0:0:0:0:
96,185,149303,1,2,1:2:0:0:
187,154,149475,6,0,P|254:178|324:214,1,148.50000453186,10|10,0:0|0:0,0:0:0:0:
405,162,149989,1,10,1:2:0:0:
418,156,150075,1,8,0:0:0:0:
431,150,150161,1,8,2:3:0:0:
444,144,150246,1,8,2:3:0:0:
457,137,150332,2,0,L|444:97,3,37.1250011329651,2|0|8|8,1:2|1:0|2:3|2:3,0:0:0:0:
478,66,150675,2,0,L|491:26,3,37.1250011329651,2|0|8|8,1:2|1:0|2:3|2:3,0:0:0:0:
453,4,151018,6,0,P|410:-4|365:78,1,135,4|2,1:2|0:0,0:0:0:0:
367,149,151532,1,2,1:2:0:0:
367,149,151703,2,0,L|323:291,1,135,10|2,0:0|1:2,0:0:0:0:
309,364,152218,1,2,1:2:0:0:
487,366,152561,5,2,1:2:0:0:
487,366,152732,2,0,P|460:328|421:334,1,67.5,2|0,1:2|0:0,0:0:0:0:
384,259,153075,2,0,P|337:263|323:300,2,67.5,12|2|2,0:0|0:0|0:0,0:0:0:0:
448,198,153589,5,0,1:0:0:0:
448,198,153761,2,0,L|404:59,1,135,4|2,1:2|0:0,0:0:0:0:
333,20,154275,1,2,1:2:0:0:
333,20,154446,2,0,P|288:9|236:76,1,135,10|2,0:0|1:2,0:0:0:0:
191,146,154961,6,0,P|154:133|108:123,1,67.5,10|0,0:0|1:0,0:0:0:0:
217,231,155303,1,10,0:0:0:0:
217,231,155475,2,0,P|254:218|300:208,1,67.5,2|0,1:2|1:0,0:0:0:0:
347,153,155818,1,12,0:0:0:0:
410,213,155989,1,2,1:2:0:0:
356,283,156161,2,0,L|276:310,1,67.5,4|8,2:3|2:3,0:0:0:0:
226,362,156503,6,0,B|150:360|195:311|81:305,1,135,4|2,1:2|0:0,0:0:0:0:
37,362,157018,1,2,1:2:0:0:
37,362,157189,2,0,P|0:325|34:249,1,135,10|0,0:0|1:0,0:0:0:0:
78,184,157703,1,2,1:2:0:0:
4,24,158046,5,2,1:2:0:0:
4,24,158218,2,0,L|34:100,1,67.5,2|2,1:2|0:0,0:0:0:0:
87,152,158561,2,0,L|117:76,2,67.5,12|2|2,0:0|0:0|0:0,0:0:0:0:
18,207,159075,5,0,1:0:0:0:
18,207,159246,2,0,P|49:243|135:229,1,135,4|2,1:2|0:0,0:0:0:0:
200,180,159761,1,0,1:0:0:0:
262,241,159932,1,8,0:0:0:0:
373,376,160275,6,0,L|442:354,2,67.5,4|8|0,1:2|0:0|1:0,0:0:0:0:
297,330,160789,1,8,0:0:0:0:
297,330,160961,2,0,L|245:317,3,33.75,2|8|8|8,1:2|2:3|0:0|0:0,0:0:0:0:
235,354,161303,2,0,L|203:368,3,33.75,2|8|8|8,1:2|0:0|2:3|2:3,0:0:0:0:
162,351,161646,2,0,P|134:317|149:280,1,67.5,2|8,1:2|2:3,0:0:0:0:
207,233,161989,6,0,L|253:82,1,135,4|8,1:2|0:0,0:0:0:0:
237,9,162503,2,0,L|326:46,1,67.5,2|0,0:0|1:0,0:0:0:0:
367,101,162846,1,2,0:0:0:0:
367,101,163018,1,2,1:2:0:0:
442,44,163189,5,10,0:0:0:0:
442,44,163275,1,0,0:0:0:0:
442,44,163361,2,0,P|470:77|462:109,1,67.5,2|2,1:2|0:0,0:0:0:0:
419,179,163703,1,2,1:2:0:0:
495,235,163875,1,10,0:0:0:0:
439,311,164046,2,0,P|397:295|352:282,1,67.5,2|10,1:2|0:0,0:0:0:0:
304,225,164389,1,2,1:2:0:0:
228,167,164561,5,12,0:0:0:0:
228,167,164732,2,0,P|181:185|96:227,1,135,2|10,1:2|0:0,0:0:0:0:
12,242,165246,2,0,P|4:209|19:180,1,67.5,2|0,0:0|1:0,0:0:0:0:
92,119,165589,1,2,0:0:0:0:
92,119,165761,1,2,1:2:0:0:
18,59,165932,1,10,0:0:0:0:
98,9,166103,6,0,P|130:22|167:34,1,67.5,2|2,1:2|0:0,0:0:0:0:
223,103,166446,2,0,P|255:90|292:78,1,67.5,2|10,1:2|0:0,0:0:0:0:
350,9,166789,1,2,1:2:0:0:
425,65,166961,1,10,0:0:0:0:
374,144,167132,2,0,L|405:221,1,67.5,2|2,1:2|0:0,0:0:0:0:
478,258,167475,6,0,P|451:300|359:285,1,135,4|10,1:2|0:0,0:0:0:0:
289,253,167989,2,0,P|254:268|209:284,1,67.5,2|0,0:0|1:0,0:0:0:0:
174,360,168332,2,0,P|141:345|95:335,1,67.5,2|2,0:0|1:2,0:0:0:0:
22,371,168675,1,8,0:0:0:0:
22,371,168846,1,0,1:0:0:0:
0,278,169018,6,0,L|29:202,1,67.5,2|0,0:0|1:0,0:0:0:0:
106,167,169361,2,0,L|77:91,1,67.5,10|0,0:0|1:0,0:0:0:0:
45,17,169703,1,10,0:0:0:0:
138,33,169875,2,0,L|190:51,3,33.75,0|8|10|8,1:2|0:0|0:0|0:0,0:0:0:0:
200,79,170218,6,0,P|229:40|305:64,1,135,4|10,1:2|0:0,0:0:0:0:
375,121,170732,2,0,P|416:137|457:149,1,67.5,2|0,0:0|1:0,0:0:0:0:
354,211,171075,2,0,P|321:221|290:234,1,67.5,2|0,0:0|1:0,0:0:0:0:
195,232,171418,2,0,P|207:272|223:307,1,67.5,10|0,0:0|1:0,0:0:0:0:
126,328,171761,2,0,P|114:288|98:253,1,67.5,2|2,0:0|1:2,0:0:0:0:
26,208,172103,5,10,0:0:0:0:
26,208,172275,1,2,1:2:0:0:
89,136,172446,1,10,0:0:0:0:
89,136,172618,1,0,0:0:0:0:
27,64,172789,5,0,1:0:0:0:
27,64,172875,1,8,0:0:0:0:
27,64,172961,2,0,P|59:31|148:57,1,148.50000453186,4|10,1:2|0:0,0:0:0:0:
189,144,173475,2,0,P|229:158|280:180,1,74.2500022659302,2|0,0:0|1:0,0:0:0:0:
330,105,173818,1,2,0:0:0:0:
330,105,173989,2,0,P|374:88|406:79,1,74.2500022659302,2|8,1:2|0:0,0:0:0:0:
411,73,174246,1,0,1:0:0:0:
421,65,174332,1,0,1:2:0:0:
501,117,174503,6,0,P|480:168|446:255,1,148.50000453186,2|10,0:0|0:0,0:0:0:0:
467,350,175018,2,0,L|390:325,1,74.2500022659302,2|10,1:2|0:0,0:0:0:0:
311,369,175361,1,2,1:2:0:0:
249,301,175532,5,12,0:0:0:0:
168,355,175703,2,0,P|100:375|50:311,1,148.50000453186,2|10,1:2|0:0,0:0:0:0:
5,238,176218,2,0,P|23:200|40:159,1,74.2500022659302,2|0,0:0|1:0,0:0:0:0:
73,81,176561,1,2,0:0:0:0:
73,81,176732,1,2,1:2:0:0:
134,6,176903,2,0,P|152:44|169:85,1,74.2500022659302,8|0,0:0|1:0,0:0:0:0:
233,142,177246,6,0,P|289:114|348:187,1,148.50000453186,2|10,0:0|0:0,0:0:0:0:
411,251,177761,2,0,P|426:217|442:184,1,74.2500022659302,2|10,0:0|0:0,0:0:0:0:
510,115,178103,1,2,1:2:0:0:
454,35,178275,1,2,0:0:0:0:
372,94,178446,2,0,L|338:188,1,74.2500022659302,4|2,1:2|0:0,0:0:0:0:
279,233,178789,6,0,B|184:237|237:291|132:290,1,148.50000453186,8|0,0:0|1:0,0:0:0:0:
79,357,179303,1,2,0:0:0:0:
6,292,179475,2,0,P|-7:251|19:219,1,74.2500022659302,2|10,1:2|0:0,0:0:0:0:
32,132,179818,2,0,P|61:100|101:106,1,74.2500022659302,2|2,1:2|0:0,0:0:0:0:
175,146,180161,1,2,1:2:0:0:
175,146,180332,2,0,L|332:203,1,148.50000453186,10|10,0:0|0:0,0:0:0:0:
387,260,180846,2,0,L|448:238,3,37.1250011329651,2|8|8|8,1:2|2:3|0:0|0:0,0:0:0:0:
459,217,181189,6,0,P|503:171|470:97,1,148.50000453186,4|10,1:2|0:0,0:0:0:0:
405,31,181703,1,2,0:0:0:0:
405,31,181875,2,0,L|329:60,1,74.2500022659302,2|0,1:2|0:0,0:0:0:0:
264,123,182218,1,2,1:2:0:0:
204,198,182389,6,0,B|115:197|168:145|55:146,1,148.50000453186,10|10,0:0|0:0,0:0:0:0:
1,77,182903,2,0,P|23:51|75:57,1,74.2500022659302,10|8,1:2|0:0,0:0:0:0:
70,146,183246,2,0,L|38:233,1,74.2500022659302,2|8,1:2|0:0,0:0:0:0:
0,301,183589,1,2,1:2:0:0:
75,361,183761,1,10,0:0:0:0:
133,279,183932,6,0,B|168:265|201:272|221:297|216:302|209:307|228:337|258:349|301:334,1,189,4|0,1:2|1:0,0:0:0:0:
424,368,184961,5,2,0:0:0:0:
424,368,185132,1,2,0:0:0:0:
473,299,185303,2,0,P|492:213|415:170,1,188.999994232178,2|0,1:2|1:0,0:0:0:0:
354,11,186332,5,2,0:0:0:0:
354,11,186503,1,2,0:0:0:0:
270,6,186674,2,0,P|185:31|187:119,1,188.999994232178,2|0,1:2|1:0,0:0:0:0:
65,239,187703,5,2,0:0:0:0:
65,239,187874,1,2,0:0:0:0:
101,315,188045,2,0,P|165:375|240:329,2,188.999994232178,2|0|2,1:2|1:0|0:0,0:0:0:0:
60,36,190103,6,0,P|34:26|5:12,2,60.7499981460572,2|0|2,0:0|0:0|0:0,0:0:0:0:
119,106,190618,1,2,0:0:0:0:
119,106,190789,6,0,P|157:89|203:74,1,74.2500022659302,12|0,0:0|1:0,0:0:0:0:
263,17,191132,2,0,P|301:34|347:49,1,74.2500022659302,2|0,1:2|0:0,0:0:0:0:
428,36,191475,1,2,1:2:0:0:
420,52,191561,1,8,0:0:0:0:
412,68,191646,1,0,1:0:0:0:
404,84,191732,1,8,0:0:0:0:
394,99,191818,2,0,L|427:186,1,74.2500022659302,2|8,1:2|0:0,0:0:0:0:
472,250,192161,6,0,P|433:202|350:233,1,148.50000453186,0|2,1:2|1:2,0:0:0:0:
299,299,192675,1,0,1:0:0:0:
299,299,192761,1,0,1:0:0:0:
299,299,192846,2,0,L|254:317,3,37.1250011329651,10|8|8|8,0:0|0:0|2:3|2:3,0:0:0:0:
234,350,193189,1,10,0:0:0:0:
159,288,193361,6,0,L|216:142,1,148.50000453186,4|0,1:2|0:0,0:0:0:0:
194,54,193875,2,0,B|283:48|246:103|331:94,1,148.50000453186,10|0,1:2|1:0,0:0:0:0:
410,39,194389,2,0,P|430:77|418:112,1,74.2500022659302,0|2,0:0|1:2,0:0:0:0:
462,193,194732,5,8,0:0:0:0:
462,193,194817,1,0,1:0:0:0:
462,193,194903,2,0,P|394:215|314:248,1,148.50000453186,2|2,1:2|1:2,0:0:0:0:
254,313,195417,2,0,P|220:297|185:285,1,74.2500022659302,10|0,0:0|1:0,0:0:0:0:
129,205,195761,2,0,P|95:220|60:232,1,74.2500022659302,8|2,0:0|1:2,0:0:0:0:
6,312,196103,5,8,2:3:0:0:
6,312,196189,1,0,1:0:0:0:
6,312,196275,2,0,P|40:354|131:318,2,148.50000453186,2|10|0,1:2|1:2|1:0,0:0:0:0:
60,232,197132,2,0,L|33:147,1,74.2500022659302,0|2,0:0|1:2,0:0:0:0:
8,67,197475,5,8,0:0:0:0:
8,67,197561,1,0,1:0:0:0:
8,67,197646,2,0,P|82:91|165:122,1,148.50000453186,2|2,1:2|1:2,0:0:0:0:
218,183,198161,2,0,P|254:166|299:153,2,74.2500022659302,10|0|8,0:0|1:0|0:0,0:0:0:0:
156,258,198675,2,0,P|130:245|98:236,3,37.1250011329651,2|8|8|8,1:2|2:3|0:0|0:0,0:0:0:0:
74,250,199018,6,0,P|24:278|46:371,1,148.50000453186,4|10,1:2|1:2,0:0:0:0:
126,339,199532,1,2,0:0:0:0:
126,339,199703,2,0,P|170:353|215:368,1,74.2500022659302,0|4,1:0|2:3,0:0:0:0:
269,298,200046,2,0,P|304:286|339:275,1,74.2500022659302,2|8,1:2|0:0,0:0:0:0:
350,281,200303,1,8,0:0:0:0:
360,289,200389,1,2,1:2:0:0:
440,342,200561,5,10,0:0:0:0:
500,266,200732,2,0,P|483:224|468:185,1,74.2500022659302,2|8,1:2|2:3,0:0:0:0:
389,147,201075,2,0,P|406:105|421:66,1,74.2500022659302,2|0,1:2|1:0,0:0:0:0:
410,66,201332,1,0,1:0:0:0:
406,55,201418,2,0,P|383:47|360:35,3,37.1250011329651,10|8|0|0,1:2|0:0|1:0|1:0,0:0:0:0:
331,14,201761,6,0,P|259:1|221:64,2,148.50000453186,4|10|0,1:2|1:2|1:0,0:0:0:0:
297,104,202618,2,0,L|268:180,1,74.2500022659302,0|2,0:0|1:2,0:0:0:0:
190,227,202961,1,10,0:0:0:0:
190,227,203046,1,0,0:0:0:0:
190,227,203132,2,0,L|226:318,1,74.2500022659302,2|2,1:2|0:0,0:0:0:0:
277,371,203475,5,2,1:2:0:0:
347,305,203646,2,0,P|391:320|428:336,1,74.2500022659302,10|0,0:0|1:0,0:0:0:0:
453,241,203989,2,0,P|409:226|372:210,1,74.2500022659302,8|2,0:0|1:2,0:0:0:0:
316,145,204332,6,0,P|257:118|203:184,1,148.50000453186,12|0,0:0|0:0,0:0:0:0:
135,239,204846,2,0,L|104:155,1,74.2500022659302,10|2,1:2|0:0,0:0:0:0:
31,111,205189,2,0,L|52:66,3,37.1250011329651,2|2|2|2,1:2|0:0|0:0|0:0,0:0:0:0:
65,32,205532,1,2,1:2:0:0:
144,85,205703,6,0,B|229:86|183:28|306:35,1,148.50000453186,10|2,0:0|0:0,0:0:0:0:
370,1,206218,1,2,1:2:0:0:
426,78,206389,2,0,L|497:107,1,74.2500022659302,10|0,0:0|1:0,0:0:0:0:
419,166,206732,2,0,L|348:195,1,74.2500022659302,10|0,0:0|1:0,0:0:0:0:
266,144,207075,5,8,2:3:0:0:
266,144,207246,2,0,P|226:137|198:168,1,74.2500022659302,4|0,1:2|0:0,0:0:0:0:
137,229,207589,2,0,L|197:395,1,148.50000453186,10|0,1:2|1:0,0:0:0:0:
254,298,208103,1,0,0:0:0:0:
254,298,208189,1,0,0:0:0:0:
254,298,208275,2,0,P|293:283|343:268,1,74.2500022659302,2|8,1:2|0:0,0:0:0:0:
414,307,208618,6,0,P|440:262|364:197,1,148.50000453186,2|2,1:2|1:2,0:0:0:0:
328,117,209132,1,10,0:0:0:0:
274,197,209303,2,0,P|235:212|185:227,1,74.2500022659302,0|8,1:0|0:0,0:0:0:0:
133,288,209646,2,0,P|108:276|85:268,3,37.1250011329651,2|0|8|8,1:2|2:3|0:0|0:0,0:0:0:0:
57,248,209989,6,0,P|31:203|107:138,1,148.50000453186,4|10,1:2|0:0,0:0:0:0:
151,66,210503,1,2,0:0:0:0:
151,66,210675,2,0,L|235:102,1,74.2500022659302,2|8,1:2|2:3,0:0:0:0:
293,157,211018,2,0,L|361:127,1,74.2500022659302,2|8,1:2|0:0,0:0:0:0:
453,158,211361,1,4,1:2:0:0:
493,70,211532,1,8,0:0:0:0:
402,38,211703,1,2,1:2:0:0:
402,38,211789,1,8,0:0:0:0:
402,38,211875,1,8,2:3:0:0:
361,127,212046,6,0,L|337:184,3,37.1250011329651,2|8|8|8,1:2|0:0|2:3|2:3,0:0:0:0:
380,196,212389,2,0,L|404:253,3,37.1250011329651,2|8|8|8,1:2|0:0|2:3|2:3,0:0:0:0:
403,273,212732,6,0,P|365:326|282:316,1,135,4|2,1:2|0:0,0:0:0:0:
221,367,213246,1,0,1:0:0:0:
221,367,213418,2,0,P|170:347|82:332,1,135,10|2,0:0|1:2,0:0:0:0:
15,376,213932,1,2,1:2:0:0:
118,234,214275,5,2,1:2:0:0:
118,234,214446,2,0,L|148:153,1,67.5,2|2,1:2|0:0,0:0:0:0:
203,108,214789,2,0,L|179:44,2,67.5,12|2|2,0:0|0:0|0:0,0:0:0:0:
281,147,215303,1,0,1:0:0:0:
281,147,215475,6,0,P|307:181|400:159,1,135,4|2,1:2|0:0,0:0:0:0:
466,125,215989,1,2,1:2:0:0:
466,125,216161,2,0,P|437:184|417:260,1,135,10|2,0:0|1:2,0:0:0:0:
469,322,216675,1,10,0:0:0:0:
301,375,217018,5,10,0:0:0:0:
301,375,217189,2,0,P|266:361|221:352,1,67.5,2|2,1:2|1:2,0:0:0:0:
168,298,217532,2,0,P|133:312|88:321,2,67.5,12|2|8,0:0|1:2|2:3,0:0:0:0:
232,238,218046,5,0,1:0:0:0:
232,238,218132,1,0,1:0:0:0:
232,238,218218,2,0,P|256:168|281:102,1,135,4|2,1:2|0:0,0:0:0:0:
348,58,218732,1,2,1:2:0:0:
348,58,218903,2,0,P|325:21|239:35,1,135,12|2,0:0|1:2,0:0:0:0:
173,84,219418,1,2,1:2:0:0:
9,19,219761,5,2,1:2:0:0:
9,19,219932,2,0,L|35:99,1,67.5,2|2,1:2|0:0,0:0:0:0:
83,152,220275,2,0,L|57:232,2,67.5,12|2|2,0:0|0:0|0:0,0:0:0:0:
159,108,220789,5,0,1:0:0:0:
159,108,220961,2,0,L|176:55,3,33.75,2|10|4|8,1:2|0:0|2:3|2:3,0:0:0:0:
202,48,221303,2,0,P|252:34|309:97,1,135,2|10,1:2|0:0,0:0:0:0:
365,153,221818,1,0,1:0:0:0:
365,153,221903,1,8,0:0:0:0:
365,153,221989,2,0,L|390:229,1,67.5,4|8,1:2|0:0,0:0:0:0:
311,264,222332,2,0,L|285:336,1,67.5,0|8,1:0|0:0,0:0:0:0:
210,368,222675,6,0,L|169:351,3,33.75,2|0|8|8,1:2|1:0|0:0|0:0,0:0:0:0:
154,318,223018,2,0,L|111:331,3,33.75,10|8|8|8,0:0|0:0|2:3|2:3,0:0:0:0:
79,315,223361,2,0,L|45:340,3,33.75,2|8|8|8,1:2|0:0|2:3|2:3,0:0:0:0:
12,354,223703,6,0,P|-26:300|17:246,1,135,4|10,1:0|0:0,0:0:0:0:
79,176,224218,2,0,L|145:204,1,67.5,2|0,0:0|1:0,0:0:0:0:
237,170,224561,1,2,0:0:0:0:
301,247,224732,2,0,L|363:221,1,67.5,10|2,0:0|1:2,0:0:0:0:
461,246,225075,5,0,1:0:0:0:
461,246,225246,1,2,0:0:0:0:
509,156,225418,2,0,P|509:118|475:97,1,67.5,10|10,1:2|0:0,0:0:0:0:
425,20,225761,2,0,P|392:1|356:19,1,67.5,0|10,1:0|0:0,0:0:0:0:
290,76,226103,1,0,1:0:0:0:
208,14,226275,5,12,0:0:0:0:
133,81,226446,2,0,L|189:218,1,135,2|10,1:2|0:0,0:0:0:0:
279,243,226961,2,0,L|250:318,1,67.5,2|0,0:0|1:0,0:0:0:0:
175,368,227303,1,2,0:0:0:0:
156,267,227475,2,0,L|192:188,1,67.5,2|10,1:2|0:0,0:0:0:0:
264,143,227818,5,2,1:2:0:0:
264,143,227989,1,2,0:0:0:0:
218,51,228161,2,0,P|172:27|141:46,1,67.5,10|2,0:0|0:0,0:0:0:0:
60,14,228503,2,0,P|16:41|17:78,1,67.5,2|12,1:2|0:0,0:0:0:0:
81,129,228846,1,8,2:3:0:0:
13,205,229018,1,4,2:3:0:0:
80,280,229189,6,0,P|134:257|235:230,1,135,4|8,1:2|0:0,0:0:0:0:
268,154,229703,2,0,P|308:172|346:187,2,67.5,2|0|0,0:0|1:0|0:0,0:0:0:0:
193,84,230218,1,10,0:0:0:0:
124,9,230389,6,0,P|110:49|88:99,1,67.5,8|0,0:0|1:0,0:0:0:0:
20,134,230732,2,0,P|32:165|43:197,1,67.5,2|8,0:0|0:0,0:0:0:0:
26,297,231075,2,0,P|74:275|128:344,1,135,8|10,0:0|0:0,0:0:0:0:
218,371,231589,2,0,L|254:357,3,33.75,2|8|8|8,1:2|2:3|0:0|0:0,0:0:0:0:
278,316,231932,6,0,P|347:338|422:367,1,135,4|8,1:2|0:0,0:0:0:0:
506,373,232446,2,0,P|506:328|479:309,1,67.5,2|0,0:0|1:0,0:0:0:0:
408,255,232789,1,2,1:2:0:0:
408,255,232961,1,0,1:0:0:0:
337,182,233132,6,0,B|337:94|389:147|392:32,1,135,12|10,0:0|0:0,0:0:0:0:
304,7,233646,1,2,1:2:0:0:
292,18,233732,1,8,0:0:0:0:
281,31,233818,1,8,2:3:0:0:
271,45,233903,1,8,2:3:0:0:
259,57,233989,2,0,L|205:38,3,33.75,2|0|8|8,1:2|1:0|2:3|2:3,0:0:0:0:
188,18,234332,2,0,L|156:29,3,33.75,2|0|8|8,1:2|1:0|2:3|2:3,0:0:0:0:
121,61,234675,6,0,P|89:89|100:130,1,67.5,4|0,1:2|0:0,0:0:0:0:
41,204,235018,2,0,L|183:160,1,135,10|0,0:0|1:0,0:0:0:0:
237,226,235532,1,10,0:0:0:0:
332,62,235875,5,8,0:0:0:0:
332,62,235961,1,8,0:0:0:0:
332,62,236046,2,0,L|447:97,2,101.25,4|0|10,1:2|1:0|0:0,0:0:0:0:
249,14,236732,2,0,P|224:41|235:76,1,67.5,0|0,0:0|1:0,0:0:0:0:
287,143,237075,2,0,L|268:195,3,33.75,8|0|0|8,0:0|1:0|1:0|0:0,0:0:0:0:
260,219,237418,5,4,1:0:0:0:
256,192,237589,12,10,240161,2:1:0:0:
