osu file format v14

[General]
AudioFilename: audio.mp3
AudioLeadIn: 0
PreviewTime: 58041
Countdown: 0
SampleSet: Soft
StackLeniency: 0.7
Mode: 0
LetterboxInBreaks: 0
WidescreenStoryboard: 0

[Editor]
DistanceSpacing: 1.3
BeatDivisor: 4
GridSize: 4
TimelineZoom: 1

[Metadata]
Title:closer
TitleUnicode:closer
Artist:Aimer
ArtistUnicode:Aimer
Creator:Janpai
Version:Hard
Source:
Tags:エメ daydream album track number 10 森内貴寛 Taka Takahiro Moriuchi Morita ONE OK ROCK Colin Brittain Jamil Kazmi HB24 Underdogs Winter Story
BeatmapID:1094685
BeatmapSetID:515103

[Difficulty]
HPDrainRate:5
CircleSize:3.8
OverallDifficulty:6
ApproachRate:7.5
SliderMultiplier:2.8
SliderTickRate:1

[Events]
//Background and Video events
0,0,"closer.jpg",0,0
//Break Periods
//Storyboard Layer 0 (Background)
//Storyboard Layer 1 (Fail)
//Storyboard Layer 2 (Pass)
//Storyboard Layer 3 (Foreground)
//Storyboard Sound Samples

[TimingPoints]
208,666.666666666667,4,2,1,50,1,0
10875,-125,4,2,1,50,0,0
20875,-166.666666666667,4,2,1,50,0,0
21541,-125,4,2,1,50,0,0
31541,-166.666666666667,4,2,1,50,0,0
32208,-125,4,2,1,60,0,0
53541,-166.666666666667,4,2,1,50,0,0
56208,-100,4,2,1,60,0,0
58874,-100,4,2,1,70,0,1
80208,-100,4,2,1,60,0,0

[Colours]
Combo1 : 226,206,202
Combo2 : 250,62,84
Combo3 : 82,114,147
Combo4 : 128,128,128

[HitObjects]
118,257,10541,1,0,0:0:0:0:
118,257,10875,6,0,P|184:277|234:253,1,112,0|0,0:0|0:0,0:0:0:0:
280,209,11375,1,0,0:0:0:0:
280,209,11542,2,0,L|409:200,1,112,0|0,0:0|0:0,0:0:0:0:
385,122,12042,1,0,0:0:0:0:
385,122,12209,2,0,L|256:131,1,112,0|0,0:0|0:0,0:0:0:0:
136,54,12875,2,0,P|147:107|156:189,1,112,0|0,0:0|0:0,0:0:0:0:
77,300,13541,6,0,B|132:288|132:288|200:304,1,112,0|0,0:0|0:0,0:0:0:0:
250,346,14041,1,0,0:0:0:0:
250,346,14208,2,0,B|305:358|305:358|373:342,1,112,0|0,0:0|0:0,0:0:0:0:
428,308,14708,1,0,0:0:0:0:
428,308,14875,2,0,P|427:238|422:179,1,112,0|0,0:0|0:0,0:0:0:0:
376,46,15541,2,0,P|349:76|264:76,1,112,0|0,0:0|0:0,0:0:0:0:
175,201,16208,6,0,P|234:193|296:193,1,112,0|0,0:0|0:0,0:0:0:0:
293,270,16708,1,0,0:0:0:0:
293,270,16875,2,0,P|234:278|172:278,1,112,0|0,0:0|0:0,0:0:0:0:
103,278,17375,1,0,0:0:0:0:
103,278,17541,2,0,P|50:257|30:195,1,112
94,65,18208,1,0,0:0:0:0:
218,159,18541,1,0,0:0:0:0:
307,29,18875,6,0,L|326:150,2,112
432,123,19875,1,0,0:0:0:0:
322,235,20208,2,0,P|269:215|209:242,1,112
274,336,20875,6,0,B|320:349|320:349|354:339|354:339|382:353|428:342,1,146.999995513916
454,335,21541,6,0,P|484:299|467:225,1,112,0|0,0:0|0:0,0:0:0:0:
425,177,22041,1,0,0:0:0:0:
425,177,22208,2,0,L|288:167,1,112,0|0,0:0|0:0,0:0:0:0:
254,116,22708,1,0,0:0:0:0:
254,116,22875,2,0,L|117:106,1,112,0|0,0:0|0:0,0:0:0:0:
25,250,23541,2,0,B|82:235|82:235|145:248,1,112,0|0,0:0|0:0,0:0:0:0:
260,337,24208,6,0,P|266:282|258:227,1,112,0|0,0:0|0:0,0:0:0:0:
193,182,24708,1,0,0:0:0:0:
193,182,24875,2,0,P|233:153|300:161,1,112,0|0,0:0|0:0,0:0:0:0:
354,206,25375,1,0,0:0:0:0:
354,206,25541,2,0,L|488:196,1,112,0|0,0:0|0:0,0:0:0:0:
458,40,26208,2,0,L|346:48,1,112,0|0,0:0|0:0,0:0:0:0:
229,153,26875,6,0,B|208:96|256:96|220:21,1,112,0|0,0:0|0:0,0:0:0:0:
154,68,27375,1,0,0:0:0:0:
154,68,27541,2,0,P|141:112|152:183,1,112,0|0,0:0|0:0,0:0:0:0:
170,252,28041,1,0,0:0:0:0:
170,252,28208,2,0,L|41:249,1,112,0|0,0:0|0:0,0:0:0:0:
183,155,28874,1,0,0:0:0:0:
247,298,29208,1,0,0:0:0:0:
380,215,29541,6,0,P|419:191|491:219,2,112,0|0|0,0:0|0:0|0:0,0:0:0:0:
291,344,30541,1,0,0:0:0:0:
151,271,30875,2,0,L|139:148,1,112
113,53,31541,6,0,P|159:71|241:27,1,146.999995513916
240,28,32208,6,0,L|247:106,1,56,6|2,0:0|0:0,0:0:0:0:
259,240,32708,1,2,0:0:0:0:
259,240,32875,2,0,P|294:218|375:235,1,112,8|2,0:0|0:0,0:0:0:0:
434,253,33374,2,0,B|448:216|448:216|435:138,1,112,2|2,0:0|0:0,0:0:0:0:
388,81,33875,1,8,0:0:0:0:
248,159,34208,2,0,P|218:169|171:165,1,56,2|2,0:0|0:0,0:0:0:0:
124,133,34541,2,0,P|94:123|47:127,1,56,8|0,0:0|0:0,0:0:0:0:
20,183,34875,6,0,L|25:252,1,56,2|2,0:0|0:0,0:0:0:0:
143,340,35375,1,2,0:0:0:0:
143,340,35541,2,0,B|163:296|163:296|151:212,1,112,8|2,0:0|0:0,0:0:0:0:
123,160,36041,2,0,L|242:148,1,112,2|2,0:0|0:0,0:0:0:0:
291,95,36541,1,8,0:0:0:0:
435,33,36875,2,0,B|443:61|443:61|439:105,1,56,2|2,0:0|0:0,0:0:0:0:
386,144,37208,2,0,B|378:172|378:172|382:216,1,56,8|0,0:0|0:0,0:0:0:0:
392,276,37541,6,0,L|313:279,1,56,2|2,0:0|0:0,0:0:0:0:
194,346,38041,1,2,0:0:0:0:
194,346,38208,2,0,P|185:297|182:219,1,112,8|2,0:0|0:0,0:0:0:0:
194,157,38708,2,0,P|180:118|105:101,1,112,2|2,0:0|0:0,0:0:0:0:
53,142,39208,1,8,0:0:0:0:
49,298,39541,2,0,L|108:291,1,56,2|2,0:0|0:0,0:0:0:0:
174,328,39875,2,0,L|233:335,1,56,8|0,0:0|0:0,0:0:0:0:
308,336,40208,6,0,P|316:301|307:258,1,56,2|2,0:0|0:0,0:0:0:0:
224,152,40708,1,2,0:0:0:0:
224,152,40875,2,0,P|269:173|347:145,1,112,8|2,0:0|0:0,0:0:0:0:
282,96,41375,2,0,P|237:75|159:103,1,112,0|2,0:0|0:0,0:0:0:0:
123,143,41875,2,0,L|60:143,1,56,8|0,0:0|0:0,0:0:0:0:
70,221,42208,2,0,L|133:221,1,56,2|0,0:0|0:0,0:0:0:0:
196,185,42541,1,8,0:0:0:0:
246,244,42708,1,8,0:0:0:0:
300,187,42875,6,0,P|331:181|369:187,1,56,6|2,0:0|0:0,0:0:0:0:
443,312,43374,1,2,0:0:0:0:
443,312,43541,2,0,B|421:272|421:272|430:195,1,112,8|2,0:0|0:0,0:0:0:0:
449,130,44041,2,0,B|471:90|471:90|462:13,1,112,2|2,0:0|0:0,0:0:0:0:
387,22,44541,1,8,0:0:0:0:
273,130,44875,2,0,P|304:123|336:128,1,56,2|2,0:0|0:0,0:0:0:0:
308,201,45208,2,0,P|277:208|245:203,1,56,8|0,0:0|0:0,0:0:0:0:
196,150,45541,6,0,L|192:78,1,56,2|2,0:0|0:0,0:0:0:0:
44,42,46041,1,2,0:0:0:0:
44,42,46208,2,0,L|50:170,1,112,8|2,0:0|0:0,0:0:0:0:
15,224,46708,2,0,L|21:352,1,112,2|2,0:0|0:0,0:0:0:0:
88,373,47208,1,8,0:0:0:0:
219,287,47541,2,0,B|246:279|246:279|284:285,1,56,2|2,0:0|0:0,0:0:0:0:
334,332,47874,2,0,B|361:340|361:340|399:334,1,56,8|0,0:0|0:0,0:0:0:0:
455,294,48208,6,0,P|456:259|453:215,1,56,2|2,0:0|0:0,0:0:0:0:
457,80,48708,1,2,0:0:0:0:
457,80,48875,2,0,P|422:94|338:83,1,112,8|2,0:0|0:0,0:0:0:0:
276,58,49375,2,0,P|241:44|157:55,1,112,2|2,0:0|0:0,0:0:0:0:
113,106,49875,1,8,0:0:0:0:
227,213,50208,2,0,P|230:172|228:139,1,56,2|2,0:0|0:0,0:0:0:0:
154,180,50541,2,0,P|151:221|153:254,1,56,8|0,0:0|0:0,0:0:0:0:
189,304,50875,5,12,0:0:0:0:
303,197,51208,1,8,0:0:0:0:
444,263,51541,1,8,0:0:0:0:
427,106,51875,2,0,L|367:98,1,56,8|8,0:0|0:0,0:0:0:0:
296,14,52208,6,0,L|291:69,1,56,8|8,0:0|0:0,0:0:0:0:
231,118,52541,2,0,L|237:194,1,56,8|8,0:0|0:0,0:0:0:0:
203,246,52875,1,8,0:0:0:0:
144,297,53041,1,8,0:0:0:0:
65,298,53208,1,8,0:0:0:0:
14,238,53375,1,8,0:0:0:0:
15,158,53541,6,0,L|145:141,1,125.999996154785
372,82,54541,1,0,0:0:0:0:
372,82,54875,2,0,P|332:52|283:52,1,83.9999974365235,0|0,0:0|0:0,0:0:0:0:
196,170,55541,2,0,P|241:178|303:124,1,125.999996154785,0|0,0:0|0:0,0:0:0:0:
377,37,56208,5,12,0:0:0:0:
436,105,56374,2,0,L|451:200,1,70,2|2,0:0|0:0,0:0:0:0:
500,297,56708,1,12,0:0:0:0:
415,261,56875,2,0,P|376:254|330:276,1,70,2|2,0:0|0:0,0:0:0:0:
290,335,57208,2,0,L|216:331,1,70,12|2,0:0|0:0,0:0:0:0:
130,345,57541,5,8,0:0:0:0:
130,345,57708,1,8,0:0:0:0:
53,295,57875,1,8,0:0:0:0:
63,205,58041,2,0,L|28:187,2,35,8|8|8,0:0|0:0|0:0,0:0:0:0:
148,169,58375,1,8,0:0:0:0:
237,180,58541,2,0,L|306:179,1,70,8|8,0:0|0:0,0:0:0:0:
375,239,58875,6,0,P|396:173|357:105,1,140,6|0,0:0|0:0,0:0:0:0:
285,74,59375,1,2,0:0:0:0:
285,74,59541,2,0,L|189:70,1,70,8|0,0:0|0:0,0:0:0:0:
130,35,59875,1,0,0:0:0:0:
51,80,60041,6,0,B|35:117|35:117|48:219,1,140,2|0,0:0|0:0,0:0:0:0:
82,300,60541,2,0,L|159:296,1,70,2|2,0:0|0:0,0:0:0:0:
219,234,60875,2,0,P|260:205|348:225,1,140,8|0,0:0|0:0,0:0:0:0:
410,283,61375,1,8,0:0:0:0:
471,216,61541,6,0,L|458:74,1,140,2|0,0:0|0:0,0:0:0:0:
373,110,62041,1,2,0:0:0:0:
373,110,62208,2,0,P|341:121|298:109,1,70,8|0,0:0|0:0,0:0:0:0:
225,71,62541,1,0,0:0:0:0:
152,126,62708,2,0,L|156:202,1,70,2|0,0:0|0:0,0:0:0:0:
215,264,63041,5,8,0:0:0:0:
164,340,63208,2,0,P|126:343|74:337,1,70,2|2,0:0|0:0,0:0:0:0:
28,277,63541,2,0,L|18:205,1,70,8|0,0:0|0:0,0:0:0:0:
67,130,63875,1,0,0:0:0:0:
137,186,64041,1,8,0:0:0:0:
254,80,64208,6,0,P|223:54|122:72,1,140,6|0,0:0|0:0,0:0:0:0:
67,130,64708,1,2,0:0:0:0:
67,130,64875,2,0,L|66:225,1,70,8|0,0:0|0:0,0:0:0:0:
17,277,65208,2,0,L|16:372,1,70,2|0,0:0|0:0,0:0:0:0:
105,366,65541,5,0,0:0:0:0:
177,310,65708,2,0,B|212:303|212:303|261:310,2,70,2|0|2,0:0|0:0|0:0,0:0:0:0:
111,246,66208,1,8,0:0:0:0:
173,179,66375,1,2,0:0:0:0:
173,179,66458,1,2,0:0:0:0:
173,179,66541,2,0,L|183:106,1,70,8|0,0:0|0:0,0:0:0:0:
245,43,66875,5,12,0:0:0:0:
155,29,67041,2,0,P|114:23|83:23,1,70,2|2,0:0|0:0,0:0:0:0:
0,151,67374,6,0,P|41:157|72:157,1,70,12|2,0:0|0:0,0:0:0:0:
159,250,67708,2,0,P|189:222|209:198,1,70,12|0,0:0|0:0,0:0:0:0:
280,118,68041,1,2,0:0:0:0:
280,118,68125,1,2,0:0:0:0:
280,118,68208,6,0,L|352:114,1,70,8|8,0:0|0:0,0:0:0:0:
441,111,68541,2,0,P|457:150|445:193,1,70,8|0,0:0|0:0,0:0:0:0:
426,264,68875,5,8,0:0:0:0:
426,264,69041,1,8,0:0:0:0:
342,227,69208,1,8,0:0:0:0:
342,227,69375,1,8,0:0:0:0:
278,291,69541,6,0,P|234:325|138:301,1,140,6|0,0:0|0:0,0:0:0:0:
66,339,70041,1,2,0:0:0:0:
66,339,70208,2,0,P|71:293|71:241,1,70,8|0,0:0|0:0,0:0:0:0:
25,190,70541,2,0,P|20:144|20:92,1,70,0|2,0:0|0:0,0:0:0:0:
108,98,70875,6,0,P|143:108|187:105,1,70
253,58,71208,2,0,P|288:48|332:51,1,70,2|2,0:0|0:0,0:0:0:0:
388,110,71541,2,0,L|401:193,1,70,8|0,0:0|0:0,0:0:0:0:
467,244,71875,1,0,0:0:0:0:
414,318,72041,1,8,0:0:0:0:
330,355,72208,6,0,P|280:360|219:288,1,140,2|0,0:0|0:0,0:0:0:0:
223,208,72708,1,2,0:0:0:0:
223,208,72875,2,0,L|142:202,1,70,8|0,0:0|0:0,0:0:0:0:
81,259,73208,1,0,0:0:0:0:
23,188,73375,2,0,L|11:118,1,70,2|0,0:0|0:0,0:0:0:0:
60,42,73708,5,8,0:0:0:0:
128,102,73875,2,0,P|165:112|213:101,1,70,2|2,0:0|0:0,0:0:0:0:
272,58,74208,2,0,L|351:55,1,70,8|0,0:0|0:0,0:0:0:0:
419,103,74541,1,0,0:0:0:0:
497,56,74708,1,8,0:0:0:0:
489,194,74875,6,0,B|447:210|447:210|342:195,1,140,6|0,0:0|0:0,0:0:0:0:
265,169,75375,1,2,0:0:0:0:
265,169,75541,2,0,L|265:267,1,70,8|0,0:0|0:0,0:0:0:0:
224,321,75875,2,0,L|126:321,1,70,2|0,0:0|0:0,0:0:0:0:
91,254,76208,5,0,0:0:0:0:
16,306,76375,2,0,P|11:343|16:377,2,70,2|0|2,0:0|0:0|0:0,0:0:0:0:
91,254,76875,1,8,0:0:0:0:
28,188,77041,1,2,0:0:0:0:
28,188,77125,1,2,0:0:0:0:
28,188,77208,2,0,L|18:113,1,70,8|2,0:0|0:0,0:0:0:0:
75,47,77541,5,12,0:0:0:0:
151,96,77708,2,0,P|183:83|217:86,2,70,0|0|2,0:0|0:0|0:0,0:0:0:0:
102,192,78208,1,12,0:0:0:0:
139,275,78375,2,0,L|208:265,1,70
307,278,78708,1,2,0:0:0:0:
307,278,78791,1,2,0:0:0:0:
307,278,78874,5,8,0:0:0:0:
394,304,79041,1,8,0:0:0:0:
464,246,79208,2,0,P|468:205|447:167,1,70,8|0,0:0|0:0,0:0:0:0:
399,108,79541,5,8,0:0:0:0:
399,108,79708,1,8,0:0:0:0:
319,153,79875,1,8,0:0:0:0:
319,153,80041,1,8,0:0:0:0:
248,95,80208,6,0,P|200:67|116:106,1,140,6|0,0:0|0:0,0:0:0:0:
71,167,80708,1,2,0:0:0:0:
120,252,80874,1,8,0:0:0:0:
120,252,81042,2,0,L|189:245,1,70,8|0,0:0|0:0,0:0:0:0:
279,228,81375,6,0,B|284:192|284:192|269:132,1,70,2|0,0:0|0:0,0:0:0:0:
243,74,81708,1,8,0:0:0:0:
332,54,81875,2,0,P|373:40|422:53,1,70,2|2,0:0|0:0,0:0:0:0:
470,99,82208,2,0,L|490:178,1,70,8|2,0:0|0:0,0:0:0:0:
436,243,82541,2,0,L|416:322,1,70,2|2,0:0|0:0,0:0:0:0:
334,346,82875,6,0,B|288:332|288:332|196:346,1,140,2|0,0:0|0:0,0:0:0:0:
107,364,83375,1,2,0:0:0:0:
25,323,83541,1,8,0:0:0:0:
25,323,83709,2,0,P|15:289|29:253,1,70,8|0,0:0|0:0,0:0:0:0:
114,236,84041,2,0,L|200:222,1,70,2|0,0:0|0:0,0:0:0:0:
259,162,84375,5,8,0:0:0:0:
189,103,84541,2,0,L|103:89,1,70,2|2,0:0|0:0,0:0:0:0:
42,41,84875,1,8,0:0:0:0:
20,129,85041,2,0,L|22:180,2,35,2|2|8,0:0|0:0|0:0,0:0:0:0:
101,171,85375,1,2,0:0:0:0:
48,245,85541,6,0,P|109:259|181:209,1,140,6|0,0:0|0:0,0:0:0:0:
240,160,86041,1,2,0:0:0:0:
301,226,86208,1,8,0:0:0:0:
301,226,86375,2,0,P|291:260|295:294,1,70,8|0,0:0|0:0,0:0:0:0:
386,293,86708,6,0,P|396:258|387:214,1,70,2|0,0:0|0:0,0:0:0:0:
379,134,87041,1,8,0:0:0:0:
287,134,87208,2,0,L|185:132,1,70,2|2,0:0|0:0,0:0:0:0:
140,82,87541,2,0,P|110:73|64:83,1,70,8|2,0:0|0:0,0:0:0:0:
3,139,87875,2,0,P|-6:169|4:215,1,70,2|2,0:0|0:0,0:0:0:0:
57,277,88208,5,8,0:0:0:0:
57,277,88375,1,8,0:0:0:0:
366,86,89041,6,0,L|380:172,2,70,8|8|8,0:0|0:0|0:0,0:0:0:0:
276,66,89541,5,8,0:0:0:0:
276,66,89708,1,8,0:0:0:0:
