osu file format v14

[General]
AudioFilename: audio.mp3
AudioLeadIn: 0
PreviewTime: 58041
Countdown: 0
SampleSet: Soft
StackLeniency: 0.7
Mode: 0
LetterboxInBreaks: 0
WidescreenStoryboard: 0

[Editor]
DistanceSpacing: 1.1
BeatDivisor: 4
GridSize: 4
TimelineZoom: 1

[Metadata]
Title:closer
TitleUnicode:closer
Artist:Aimer
ArtistUnicode:Aimer
Creator:Janpai
Version:Easy
Source:
Tags:エメ daydream album track number 10 森内貴寛 Taka Takahiro Moriuchi Morita ONE OK ROCK Colin Brittain Jamil Kazmi HB24 Underdogs Winter Story
BeatmapID:1093928
BeatmapSetID:515103

[Difficulty]
HPDrainRate:2
CircleSize:3
OverallDifficulty:2
ApproachRate:3
SliderMultiplier:1.6
SliderTickRate:1

[Events]
//Background and Video events
0,0,"closer.jpg",0,0
//Break Periods
2,53741,54768
//Storyboard Layer 0 (Background)
//Storyboard Layer 1 (Fail)
//Storyboard Layer 2 (Pass)
//Storyboard Layer 3 (Foreground)
//Storyboard Sound Samples

[TimingPoints]
208,666.666666666667,4,2,1,50,1,0
32208,-100,4,2,1,60,0,0
58874,-100,4,2,1,70,0,1
80208,-100,4,2,1,60,0,0

[Colours]
Combo1 : 226,206,202
Combo2 : 250,62,84
Combo3 : 82,114,147
Combo4 : 128,128,128

[HitObjects]
356,326,10542,5,0,0:0:0:0:
286,272,10875,2,0,P|229:259|169:294,2,120
354,217,12208,2,0,L|358:119,1,80,0|0,0:0|0:0,0:0:0:0:
328,53,12875,2,0,P|284:33|237:40,1,80,0|0,0:0|0:0,0:0:0:0:
194,99,13541,6,0,L|62:93,2,120,0|0|0,0:0|0:0|0:0,0:0:0:0:
272,139,14875,2,0,P|282:179|268:227,1,80,0|0,0:0|0:0,0:0:0:0:
215,282,15541,2,0,P|175:272|127:286,1,80,0|0,0:0|0:0,0:0:0:0:
50,288,16208,6,0,B|31:247|31:247|41:159,2,120,0|0|0,0:0|0:0|0:0,0:0:0:0:
96,362,17541,2,0,L|189:360,1,80,0|0,0:0|0:0,0:0:0:0:
251,314,18208,2,0,L|330:312,1,80,0|0,0:0|0:0,0:0:0:0:
392,249,18875,6,0,P|417:291|419:329,2,80,0|0|0,0:0|0:0|0:0,0:0:0:0:
326,189,19875,1,0,0:0:0:0:
249,232,20208,2,0,L|151:231,1,80,0|0,0:0|0:0,0:0:0:0:
79,232,20875,2,0,P|64:196|56:156,1,80,0|0,0:0|0:0,0:0:0:0:
119,94,21541,6,0,P|87:74|-3:90,2,120,0|0|0,0:0|0:0|0:0,0:0:0:0:
180,157,22875,2,0,P|218:170|271:153,1,80,0|0,0:0|0:0,0:0:0:0:
324,106,23541,2,0,L|413:101,1,80,0|0,0:0|0:0,0:0:0:0:
464,165,24208,6,0,B|480:228|440:228|464:292,2,120,0|0|0,0:0|0:0|0:0,0:0:0:0:
381,194,25541,2,0,P|344:209|290:198,1,80
245,139,26208,2,0,P|208:124|154:135,1,80
110,192,26875,6,0,P|85:149|96:79,2,120,0|0|0,0:0|0:0|0:0,0:0:0:0:
125,278,28208,2,0,L|36:275,1,80,0|0,0:0|0:0,0:0:0:0:
43,363,28875,2,0,L|132:366,1,80,0|0,0:0|0:0,0:0:0:0:
210,364,29541,6,0,P|251:368|291:350,2,80,0|0|0,0:0|0:0|0:0,0:0:0:0:
161,290,30541,1,0,0:0:0:0:
226,230,30875,2,0,P|231:194|222:137,1,80,0|0,0:0|0:0,0:0:0:0:
194,68,31541,2,0,L|287:59,1,80,0|0,0:0|0:0,0:0:0:0:
360,45,32208,6,0,P|389:87|394:129,1,79.9999999999999,6|0,0:0|0:0,0:0:0:0:
333,178,32875,2,0,L|204:180,2,120,8|2|8,0:0|0:0|0:0,0:0:0:0:
399,235,34208,2,0,B|404:278|404:278|392:328,1,79.9999999999999,2|8,0:0|0:0,0:0:0:0:
315,350,34875,6,0,P|272:341|229:339,1,79.9999999999999,2|0,0:0|0:0,0:0:0:0:
148,344,35541,2,0,P|106:349|52:296,2,120,8|2|8,0:0|0:0|0:0,0:0:0:0:
191,267,36875,2,0,P|198:236|179:176,1,79.9999999999999,2|8,0:0|0:0,0:0:0:0:
118,134,37541,6,0,P|111:103|130:43,1,79.9999999999999,2|0,0:0|0:0,0:0:0:0:
204,27,38208,2,0,L|327:27,2,120,8|2|8,0:0|0:0|0:0,0:0:0:0:
121,56,39541,2,0,L|36:56,1,79.9999999999999,2|8,0:0|0:0,0:0:0:0:
14,140,40208,6,0,B|3:221|3:221|24:299,1,160,2|8,0:0|0:0,0:0:0:0:
98,343,41208,2,0,P|143:314|245:345,1,160,2|8,0:0|0:0,0:0:0:0:
326,357,42208,2,0,P|335:319|341:279,1,79.9999999999999,2|8,0:0|0:0,0:0:0:0:
281,214,42875,6,0,P|324:192|371:196,1,79.9999999999999,6|0,0:0|0:0,0:0:0:0:
442,200,43541,2,0,B|456:154|456:154|438:83,2,120,8|2|8,0:0|0:0|0:0,0:0:0:0:
395,274,44875,2,0,P|360:297|313:298,1,79.9999999999999,2|8,0:0|0:0,0:0:0:0:
243,262,45541,6,0,L|164:269,1,79.9999999999999,2|0,0:0|0:0,0:0:0:0:
80,239,46208,2,0,P|81:299|122:349,2,120,8|2|8,0:0|0:0|0:0,0:0:0:0:
117,159,47541,2,0,P|150:141|200:142,1,79.9999999999999,2|8,0:0|0:0,0:0:0:0:
275,167,48208,6,0,L|274:78,1,79.9999999999999,2|0,0:0|0:0,0:0:0:0:
348,39,48875,2,0,P|411:43|462:90,2,120,8|2|8,0:0|0:0|0:0,0:0:0:0:
274,87,50208,2,0,P|237:93|192:91,1,79.9999999999999,2|8,0:0|0:0,0:0:0:0:
107,75,50875,6,0,P|71:94|49:134,1,79.9999999999999,12|8,0:0|0:0,0:0:0:0:
22,210,51541,1,8,0:0:0:0:
72,282,51875,1,8,0:0:0:0:
256,192,52208,12,0,53541,0:0:0:0:
96,249,56208,6,0,L|221:258,2,120,12|12|12,0:0|0:0|0:0,0:0:0:0:
16,209,57541,2,0,P|7:168|25:119,1,79.9999999999999,8|8,0:0|0:0,0:0:0:0:
72,63,58208,1,8,0:0:0:0:
132,127,58541,1,8,0:0:0:0:
195,65,58875,6,0,L|289:60,1,79.9999999999999,6|0,0:0|0:0,0:0:0:0:
362,52,59541,2,0,P|392:31|488:44,2,120,8|2|2,0:0|0:0|0:0,0:0:0:0:
331,134,60875,2,0,L|338:232,1,79.9999999999999,8|0,0:0|0:0,0:0:0:0:
325,300,61541,6,0,P|262:291|201:303,1,120,2|2,0:0|0:0,0:0:0:0:
132,349,62375,1,0,0:0:0:0:
50,315,62708,2,0,L|42:186,1,120,2|2,0:0|0:0,0:0:0:0:
41,107,63541,2,0,L|138:110,1,79.9999999999999,8|0,0:0|0:0,0:0:0:0:
191,56,64208,6,0,B|248:32|248:79|310:50,1,120,6|2,0:0|0:0,0:0:0:0:
392,32,65041,1,0,0:0:0:0:
468,76,65375,2,0,P|489:117|468:199,1,120
415,250,66208,2,0,L|331:252,1,79.9999999999999,8|8,0:0|0:0,0:0:0:0:
247,243,66875,6,0,B|237:204|237:204|248:173|248:173|233:119,1,120,12|12,0:0|0:0,0:0:0:0:
176,62,67708,1,12,0:0:0:0:
90,41,68041,2,0,P|33:54|2:119,1,120,2|8,0:0|0:0,0:0:0:0:
57,172,68875,2,0,P|64:214|62:260,1,79.9999999999999,8|8,0:0|0:0,0:0:0:0:
57,339,69541,6,0,P|98:335|148:338,1,79.9999999999999,6|0,0:0|0:0,0:0:0:0:
224,335,70208,2,0,P|271:312|344:335,2,120,8|2|2,0:0|0:0|0:0,0:0:0:0:
136,336,71541,2,0,L|121:245,1,79.9999999999999,8|0,0:0|0:0,0:0:0:0:
48,209,72208,6,0,L|57:84,1,120,2|2,0:0|0:0,0:0:0:0:
130,41,73041,1,0,0:0:0:0:
200,93,73375,2,0,B|242:104|242:104|331:94,1,120,2|2,0:0|0:0,0:0:0:0:
405,83,74208,2,0,P|418:113|413:168,1,79.9999999999999,8|0,0:0|0:0,0:0:0:0:
371,235,74875,6,0,P|333:216|257:244,1,120,6|2,0:0|0:0,0:0:0:0:
214,311,75708,1,0,0:0:0:0:
128,288,76041,2,0,L|113:165,1,120
160,93,76875,2,0,P|196:108|240:102,1,79.9999999999999,8|8,0:0|0:0,0:0:0:0:
312,60,77541,6,0,L|410:61,1,79.9999999999999,12|0,0:0|0:0,0:0:0:0:
395,150,78208,2,0,L|297:149,1,79.9999999999999,12|0,0:0|0:0,0:0:0:0:
265,222,78875,2,0,P|282:262|271:308,1,79.9999999999999,10|8,0:0|0:0,0:0:0:0:
211,356,79541,1,8,0:0:0:0:
128,325,79874,1,8,0:0:0:0:
42,347,80208,6,0,L|34:267,1,79.9999999999999,6|0,0:0|0:0,0:0:0:0:
7,182,80875,2,0,P|66:185|111:224,1,120,8|2,0:0|0:0,0:0:0:0:
173,284,81708,2,0,L|298:273,1,120,8|8,0:0|0:0,0:0:0:0:
377,297,82541,1,2,0:0:0:0:
449,246,82875,6,0,P|460:207|448:153,1,79.9999999999999,2|0,0:0|0:0,0:0:0:0:
402,98,83541,2,0,B|359:82|359:82|277:93,1,120,8|2,0:0|0:0,0:0:0:0:
218,149,84375,2,0,B|175:165|175:165|93:154,1,120,8|8,0:0|0:0,0:0:0:0:
44,88,85208,1,8,0:0:0:0:
109,29,85541,6,0,L|197:29,1,79.9999999999999,6|0,0:0|0:0,0:0:0:0:
276,36,86208,2,0,P|316:67|393:64,1,120,8|2,0:0|0:0,0:0:0:0:
468,46,87041,2,0,P|483:92|487:165,1,120,8|8,0:0|0:0,0:0:0:0:
445,240,87875,1,2,0:0:0:0:
361,211,88208,5,8,0:0:0:0:
192,352,89041,2,0,L|181:266,1,79.9999999999999,8|8,0:0|0:0,0:0:0:0:
110,221,89708,1,8,0:0:0:0:
