osu file format v14

[General]
AudioFilename: audio.mp3
AudioLeadIn: 0
PreviewTime: 58028
Countdown: 0
SampleSet: Soft
StackLeniency: 0.3
Mode: 0
LetterboxInBreaks: 0
WidescreenStoryboard: 1

[Editor]
Bookmarks: 87468
DistanceSpacing: 1.6
BeatDivisor: 4
GridSize: 32
TimelineZoom: 1.4

[Metadata]
Title:closer (Cut Ver.)
TitleUnicode:closer (Cut Ver.)
Artist:Aimer
ArtistUnicode:Aimer
Creator:Mizujin
Version:amats' hard
Source:
Tags:Soue FackeL Amats Ryxliee Creamy Candy Mizujin -_Aqua AqUa_M1X english rock short version female vocals vocalist エメ エメ daydream album track number 10 森内貴寛 taka takahiro moriuchi morita
BeatmapID:3955228
BeatmapSetID:1916040

[Difficulty]
HPDrainRate:4.5
CircleSize:3.4
OverallDifficulty:8
ApproachRate:8
SliderMultiplier:1.4
SliderTickRate:1

[Events]
//Background and Video events
0,0,"BG.png",0,0
//Break Periods
2,53752,55468
//Storyboard Layer 0 (Background)
//Storyboard Layer 1 (Fail)
//Storyboard Layer 2 (Pass)
//Storyboard Layer 3 (Foreground)
//Storyboard Layer 4 (Overlay)
//Storyboard Sound Samples

[TimingPoints]
219,666.666666666667,4,2,1,40,1,0
10552,-62.5,4,2,1,40,0,0
21552,-62.5,4,2,1,50,0,0
32219,-62.5,4,2,1,60,0,0
50885,-55.5555555555556,4,2,1,70,0,0
54552,-55.5555555555556,4,2,1,50,0,0
56218,-50,4,2,1,60,0,0
57552,-50,4,2,1,70,0,0
58885,-50,4,2,1,80,0,1
80219,-50,4,2,1,70,0,0

[Colours]
Combo1 : 216,216,216
Combo2 : 204,179,102
Combo3 : 140,140,140

[HitObjects]
168,88,10552,6,0,L|155:17,1,56,2|0,0:0|0:0,0:0:0:0:
250,10,10885,2,0,L|281:191,1,168,2|2,0:0|0:0,0:0:0:0:
348,232,11552,2,0,B|395:191|468:211|468:211|440:252,1,168,2|2,0:0|0:0,0:0:0:0:
388,320,12218,1,2,0:0:0:0:
220,348,12885,2,0,P|229:293|208:242,1,112,2|2,0:0|0:0,0:0:0:0:
72,128,13552,6,0,P|112:152|244:128,1,168,2|2,0:0|0:0,0:0:0:0:
296,84,14218,2,0,P|336:60|468:84,1,168,2|2,0:0|0:0,0:0:0:0:
512,132,14885,1,2,0:0:0:0:
424,288,15552,2,0,L|313:268,1,112,2|2,0:0|0:0,0:0:0:0:
152,196,16218,6,0,B|108:264|108:264|135:346,1,168,2|2,0:0|0:0,0:0:0:0:
224,348,16885,2,0,B|268:280|268:280|240:197,1,168,2|2,0:0|0:0,0:0:0:0:
200,116,17552,1,2,0:0:0:0:
0,64,18218,2,0,L|110:44,1,112,2|2,0:0|0:0,0:0:0:0:
288,16,18885,5,2,0:0:0:0:
200,116,19218,1,2,0:0:0:0:
308,200,19552,2,0,L|418:180,2,112,2|2|2,0:0|0:0|0:0,0:0:0:0:
200,280,20552,1,2,0:0:0:0:
76,220,20885,2,0,P|52:180|76:48,1,168,2|0,0:0|0:0,0:0:0:0:
144,24,21552,6,0,L|164:134,1,112,2|0,0:0|0:0,0:0:0:0:
232,200,22052,1,2,0:0:0:0:
232,200,22218,2,0,P|275:181|343:194,1,112,2|0,0:0|0:0,0:0:0:0:
424,232,22718,1,2,0:0:0:0:
424,232,22885,2,0,L|404:342,1,112,2|0,0:0|0:0,0:0:0:0:
228,368,23552,2,0,L|118:348,1,112,2|2,0:0|0:0,0:0:0:0:
0,220,24218,6,0,P|-10:165|8:113,1,112,2|0,0:0|0:0,0:0:0:0:
82,62,24718,1,2,0:0:0:0:
82,62,24885,2,0,L|192:82,1,112,2|0,0:0|0:0,0:0:0:0:
259,149,25385,1,2,0:0:0:0:
259,149,25552,2,0,L|369:129,1,112,2|0,0:0|0:0,0:0:0:0:
501,228,26218,2,0,P|520:279|509:334,1,112,2|2,0:0|0:0,0:0:0:0:
333,370,26885,6,0,L|223:350,1,112,2|0,0:0|0:0,0:0:0:0:
155,299,27385,1,2,0:0:0:0:
155,299,27552,2,0,L|45:319,1,112,2|0,0:0|0:0,0:0:0:0:
4,244,28052,1,2,0:0:0:0:
4,244,28218,2,0,P|-12:199|3:131,1,112,2|0,0:0|0:0,0:0:0:0:
162,58,28885,2,0,L|272:78,1,112,2|2,0:0|0:0,0:0:0:0:
448,42,29552,6,0,P|467:93|456:148,2,112,2|2|2,0:0|0:0|0:0,0:0:0:0:
272,78,30552,1,2,0:0:0:0:
368,232,30885,2,0,L|478:252,2,112,2|2|2,0:0|0:0|3:2,0:0:0:0:
368,232,32218,6,0,L|357:291,1,56,4|0,1:0|1:0,0:0:0:0:
192,344,32718,1,0,1:0:0:0:
192,344,32885,2,0,P|136:350|82:336,1,112,8|0,0:0|1:0,0:0:0:0:
16,276,33385,1,0,1:0:0:0:
16,276,33552,6,0,L|27:212,1,56,0|0,0:0|1:0,0:0:0:0:
40,136,33885,1,8,0:0:0:0:
208,200,34218,2,0,L|271:188,1,56,0|0,1:0|1:0,0:0:0:0:
348,160,34552,2,0,L|411:171,1,56,8|0,0:0|3:0,0:0:0:0:
488,200,34885,6,0,P|501:145|495:90,1,112,0|0,1:0|0:0,0:0:0:0:
428,36,35385,1,0,1:0:0:0:
428,36,35552,2,0,L|318:56,1,112,8|0,0:0|1:0,0:0:0:0:
236,88,36052,1,0,1:0:0:0:
236,88,36219,6,0,L|172:76,1,56,0|0,0:0|1:0,0:0:0:0:
92,60,36552,2,0,L|103:123,1,56,8|0,0:0|0:0,0:0:0:0:
100,204,36885,2,0,P|154:190|209:196,1,112,0|8,1:0|0:0,0:0:0:0:
292,244,37385,1,0,3:0:0:0:
292,244,37552,6,0,L|355:232,1,56,4|0,1:0|1:0,0:0:0:0:
484,196,38052,1,0,1:0:0:0:
484,196,38218,2,0,P|470:250|476:305,1,112,8|0,0:0|1:0,0:0:0:0:
412,364,38718,1,0,1:0:0:0:
412,364,38885,6,0,L|348:352,1,56,0|0,0:0|1:0,0:0:0:0:
268,336,39218,1,8,0:0:0:0:
88,352,39552,2,0,L|97:296,1,56,0|0,1:0|1:0,0:0:0:0:
172,248,39885,2,0,L|162:192,1,56,8|0,0:0|3:0,0:0:0:0:
92,140,40218,6,0,L|36:149,1,56,0|0,1:0|1:0,0:0:0:0:
192,56,40719,1,0,1:0:0:0:
192,56,40885,2,0,L|306:76,1,112,8|0,0:0|1:0,0:0:0:0:
392,80,41385,2,0,L|383:135,1,56,0|0,3:0|1:0,0:0:0:0:
300,168,41719,5,0,1:0:0:0:
300,168,41885,2,0,L|309:223,1,56,8|0,0:0|3:0,0:0:0:0:
324,312,42219,2,0,L|269:303,1,56,0|0,1:0|3:0,0:0:0:0:
196,260,42552,1,8,0:0:0:0:
196,260,42719,1,8,0:0:0:0:
108,284,42885,6,0,L|99:228,1,56,4|0,1:0|1:0,0:0:0:0:
208,124,43385,1,0,1:0:0:0:
208,124,43552,2,0,L|318:144,1,112,8|0,0:0|1:0,0:0:0:0:
412,160,44052,1,0,1:0:0:0:
412,160,44218,6,0,L|402:104,1,56,0|0,0:0|1:0,0:0:0:0:
388,16,44552,1,8,0:0:0:0:
272,148,44885,2,0,L|216:138,1,56,0|0,1:0|1:0,0:0:0:0:
136,104,45218,2,0,L|80:113,1,56,8|0,0:0|3:0,0:0:0:0:
0,60,45552,6,0,P|-6:115|7:169,1,112,0|0,1:0|0:0,0:0:0:0:
60,248,46052,1,0,1:0:0:0:
60,248,46219,2,0,L|170:228,1,112,8|0,0:0|1:0,0:0:0:0:
260,208,46718,1,0,1:0:0:0:
260,208,46884,6,0,L|250:263,1,56,0|0,0:0|1:0,0:0:0:0:
240,352,47218,1,8,0:0:0:0:
392,256,47552,2,0,L|447:265,1,56,0|0,1:0|1:0,0:0:0:0:
460,176,47885,2,0,L|404:166,1,56,8|0,0:0|3:0,0:0:0:0:
324,132,48218,6,0,L|333:76,1,56,4|0,1:0|1:0,0:0:0:0:
164,36,48718,1,0,1:0:0:0:
164,36,48885,2,0,P|150:90|156:145,1,112,8|0,0:0|1:0,0:0:0:0:
216,220,49385,1,0,1:0:0:0:
216,220,49552,6,0,L|271:210,1,56,0|0,0:0|1:0,0:0:0:0:
360,192,49885,1,8,0:0:0:0:
504,136,50218,2,0,L|494:80,1,56,0|0,1:0|1:0,0:0:0:0:
408,48,50552,2,0,L|398:103,1,56,8|0,0:0|3:0,0:0:0:0:
360,192,50885,6,0,P|299:206|239:190,1,125.999996154785,8|8,0:0|0:0,0:0:0:0:
116,48,51552,2,0,L|253:23,1,125.999996154785,8|8,0:0|0:0,0:0:0:0:
328,56,52052,1,8,0:0:0:0:
300,144,52218,6,0,L|221:130,1,62.9999980773926,8|8,0:0|0:0,0:0:0:0:
144,136,52552,2,0,L|157:214,1,62.9999980773926,8|8,0:0|0:0,0:0:0:0:
176,296,52885,1,8,0:0:0:0:
248,236,53052,1,8,0:0:0:0:
292,328,53218,2,0,L|370:314,1,62.9999980773926,8|8,0:0|0:0,0:0:0:0:
444,292,53552,5,2,0:2:0:0:
444,292,56218,6,0,L|430:213,1,70,12|0,0:0|1:0,0:0:0:0:
412,128,56552,1,0,1:0:0:0:
340,196,56718,2,0,P|304:200|270:193,1,70,12|0,0:0|1:0,0:0:0:0:
196,136,57052,1,0,1:0:0:0:
196,136,57218,2,0,L|117:149,1,70,12|0,0:0|1:0,0:0:0:0:
16,128,57552,6,0,L|29:206,1,70,12|8,0:0|0:0,0:0:0:0:
68,296,57885,1,8,0:0:0:0:
168,256,58052,1,8,0:0:0:0:
168,256,58135,1,8,0:0:0:0:
168,256,58218,2,0,P|202:249|236:253,1,70,8|8,0:0|0:0,0:0:0:0:
328,312,58552,1,8,0:0:0:0:
228,348,58718,1,8,0:0:0:0:
344,304,58885,6,0,L|318:162,1,140,4|2,1:0|3:2,0:0:0:0:
296,64,59385,1,0,1:0:0:0:
220,136,59552,2,0,P|185:140|151:133,1,70,12|0,0:0|0:0,0:0:0:0:
56,92,59885,1,2,3:2:0:0:
4,184,60052,1,2,1:2:0:0:
76,268,60218,6,0,P|116:244|220:268,1,140,2|2,3:2|1:2,0:0:0:0:
288,328,60718,1,0,1:0:0:0:
288,328,60885,2,0,L|366:314,1,70,12|2,0:0|3:2,0:0:0:0:
444,260,61218,1,2,3:2:0:0:
348,216,61385,1,8,0:0:0:0:
460,268,61552,6,0,B|484:232|484:232|464:124,1,140,4|2,1:0|3:2,0:0:0:0:
400,56,62052,2,0,P|365:51|331:58,1,70,2|8,1:2|0:0,0:0:0:0:
228,32,62385,2,0,P|223:66|230:100,1,70,2|0,3:2|0:0,0:0:0:0:
268,200,62718,2,0,L|199:187,1,70,2|0,1:2|0:0,0:0:0:0:
96,200,63052,5,8,0:0:0:0:
96,200,63218,2,0,L|108:131,1,70,0|0,1:0|1:0,0:0:0:0:
84,28,63552,2,0,P|146:56|213:39,1,140,12|2,0:0|3:2,0:0:0:0:
316,24,64052,1,8,0:0:0:0:
276,120,64218,6,0,B|250:170|250:170|272:216|272:216|300:188,1,140,4|2,1:0|3:2,0:0:0:0:
384,136,64718,2,0,P|418:131|452:138,1,70,2|8,1:2|0:0,0:0:0:0:
456,244,65052,2,0,P|421:250|387:246,1,70,2|0,3:2|1:0,0:0:0:0:
295,192,65385,6,0,L|320:333,1,140,2|0,3:2|1:0,0:0:0:0:
216,348,65885,2,0,L|203:279,1,70,0|0,0:0|1:0,0:0:0:0:
152,188,66218,1,12,0:0:0:0:
72,256,66385,1,0,1:0:0:0:
72,256,66468,1,0,1:0:0:0:
72,256,66552,2,0,P|37:262|3:258,1,70,12|0,0:0|1:0,0:0:0:0:
19,155,66885,6,0,B|74:161|74:161|100:181|100:181|163:188,1,140,12|0,0:0|1:0,0:0:0:0:
252,160,67385,2,0,L|239:91,1,70,12|0,0:0|1:0,0:0:0:0:
184,8,67718,1,12,0:0:0:0:
120,92,67885,1,0,1:0:0:0:
16,60,68052,1,0,1:0:0:0:
16,60,68135,1,0,1:0:0:0:
16,60,68218,6,0,L|28:128,1,70,12|12,0:0|0:0,0:0:0:0:
20,236,68552,2,0,L|88:224,1,70,12|0,0:0|1:0,0:0:0:0:
180,168,68885,1,12,0:0:0:0:
180,168,69052,1,8,0:0:0:0:
268,224,69218,1,12,0:0:0:0:
176,276,69385,1,8,0:0:0:0:
284,216,69552,6,0,B|339:222|339:222|365:242|365:242|428:249,1,140,4|2,1:0|3:2,0:0:0:0:
508,192,70052,1,0,1:0:0:0:
508,192,70218,2,0,P|514:157|510:123,1,70,12|0,0:0|0:0,0:0:0:0:
436,48,70552,1,2,3:2:0:0:
356,116,70719,1,2,1:2:0:0:
260,56,70885,6,0,P|231:118|248:185,1,140,2|2,3:2|1:2,0:0:0:0:
332,248,71385,1,0,1:0:0:0:
432,220,71552,2,0,L|420:289,1,70,12|0,0:0|0:0,0:0:0:0:
340,360,71885,1,2,3:2:0:0:
256,304,72052,1,8,0:0:0:0:
179,374,72218,6,0,B|97:373|131:327|47:321,1,140,4|2,1:0|3:2,0:0:0:0:
1,230,72718,2,0,L|12:160,1,70,2|8,1:2|0:0,0:0:0:0:
110,121,73052,2,0,L|121:190,1,70,2|0,3:2|0:0,0:0:0:0:
199,259,73385,6,0,P|265:275|328:247,1,140,2|8,1:2|0:0,0:0:0:0:
402,171,73885,2,0,L|390:101,1,70,0|0,1:0|1:0,0:0:0:0:
343,7,74218,2,0,B|263:-9|287:43|203:31,1,140,12|2,0:0|3:2,0:0:0:0:
112,0,74718,1,8,0:0:0:0:
36,72,74885,6,0,P|7:134|24:201,1,140,4|2,1:0|3:2,0:0:0:0:
96,280,75385,2,0,L|165:268,1,70,2|8,1:2|0:0,0:0:0:0:
260,220,75718,2,0,L|329:231,1,70,2|0,3:2|1:0,0:0:0:0:
420,284,76052,6,0,B|444:248|444:248|424:140,1,140,2|0,3:2|1:0,0:0:0:0:
348,80,76552,2,0,L|278:91,1,70,0|0,0:0|1:0,0:0:0:0:
180,128,76885,1,12,0:0:0:0:
88,88,77052,1,0,1:0:0:0:
88,88,77135,1,0,1:0:0:0:
88,88,77218,2,0,P|82:123|86:157,1,70,8|0,0:0|1:0,0:0:0:0:
120,256,77552,6,0,L|189:244,1,70,12|0,0:0|1:0,0:0:0:0:
280,192,77885,1,0,1:0:0:0:
280,192,78052,1,0,1:0:0:0:
380,220,78218,2,0,L|368:289,1,70,12|0,0:0|3:0,0:0:0:0:
300,368,78552,1,0,1:0:0:0:
224,304,78718,1,0,1:0:0:0:
224,304,78802,1,0,1:0:0:0:
224,304,78885,6,0,L|154:315,1,70,12|8,0:0|0:0,0:0:0:0:
60,360,79218,1,8,0:0:0:0:
20,152,79552,2,0,P|55:158|89:154,1,70,12|8,0:0|0:0,0:0:0:0:
184,108,79885,1,12,0:0:0:0:
92,60,80052,1,8,0:0:0:0:
200,116,80219,6,0,B|255:110|255:110|281:90|281:90|344:83,1,140,4|0,1:0|3:0,0:0:0:0:
420,28,80719,1,0,1:0:0:0:
504,96,80885,1,8,0:0:0:0:
504,96,81052,2,0,L|489:174,1,70,8|0,0:0|0:0,0:0:0:0:
420,244,81385,6,0,B|355:267|355:267|291:235,1,140,4|8,1:0|0:0,0:0:0:0:
196,192,81885,2,0,L|211:270,1,70,0|0,1:0|1:0,0:0:0:0:
128,328,82219,2,0,L|113:250,1,70,12|8,0:0|0:3,0:0:0:0:
28,212,82552,1,4,0:3:0:0:
28,212,82719,1,4,0:3:0:0:
60,112,82885,6,0,B|140:108|112:149|200:150,1,140,4|0,1:0|3:0,0:0:0:0:
280,96,83385,1,0,1:0:0:0:
384,132,83552,1,12,0:0:0:0:
384,132,83719,2,0,P|416:192|401:259,1,140,12|0,0:0|1:0,0:0:0:0:
328,332,84219,5,2,3:2:0:0:
328,332,84385,2,0,L|250:317,1,70,8|0,0:0|1:0,0:0:0:0:
156,344,84719,1,0,1:0:0:0:
68,288,84885,2,0,L|83:210,1,70,12|0,0:0|1:0,0:0:0:0:
156,144,85219,1,8,0:0:0:0:
196,240,85385,1,0,1:0:0:0:
272,168,85552,6,0,B|344:198|344:198|375:192|400:166,1,140,4|0,1:0|3:0,0:0:0:0:
452,80,86052,1,0,1:0:0:0:
512,172,86219,1,12,0:0:0:0:
512,172,86385,2,0,L|497:250,1,70,12|0,0:0|0:0,0:0:0:0:
432,320,86719,6,0,B|377:314|377:314|351:294|351:294|288:287,1,140,4|8,1:0|0:0,0:0:0:0:
208,340,87219,2,0,P|173:343|139:333,1,70,0|0,0:0|1:0,0:0:0:0:
44,292,87552,1,12,0:0:0:0:
136,240,87719,1,0,1:0:0:0:
44,188,87885,2,0,L|57:119,1,70,0|0,1:0|1:0,0:0:0:0:
116,32,88219,5,12,0:0:0:0:
152,128,88385,1,12,0:0:0:0:
352,96,89052,6,0,L|338:164,1,70,8|8,0:0|0:0,0:0:0:0:
280,252,89385,1,8,0:0:0:0:
244,152,89552,1,8,0:0:0:0:
176,232,89719,1,12,0:0:0:0:
