osu file format v14

[General]
AudioFilename: audio.mp3
AudioLeadIn: 0
PreviewTime: 58028
Countdown: 0
SampleSet: Soft
StackLeniency: 0.3
Mode: 0
LetterboxInBreaks: 0
WidescreenStoryboard: 1

[Editor]
Bookmarks: 10885,21552,32218,50885,53552,56218,58885
DistanceSpacing: 1
BeatDivisor: 8
GridSize: 32
TimelineZoom: 3.099999

[Metadata]
Title:closer (Cut Ver.)
TitleUnicode:closer (Cut Ver.)
Artist:Aimer
ArtistUnicode:Aimer
Creator:Mizujin
Version:action
Source:
Tags:Soue FackeL Amats Ryxliee Creamy Candy Mizujin -_Aqua AqUa_M1X english rock short version female vocals vocalist エメ エメ daydream album track number 10 森内貴寛 taka takahiro moriuchi morita
BeatmapID:3952939
BeatmapSetID:1916040

[Difficulty]
HPDrainRate:5.4
CircleSize:4.5
OverallDifficulty:8.5
ApproachRate:9
SliderMultiplier:2.2
SliderTickRate:1

[Events]
//Background and Video events
0,0,"BG.png",0,0
//Break Periods
2,53752,55618
//Storyboard Layer 0 (Background)
//Storyboard Layer 1 (Fail)
//Storyboard Layer 2 (Pass)
//Storyboard Layer 3 (Foreground)
//Storyboard Layer 4 (Overlay)
//Storyboard Sound Samples

[TimingPoints]
219,666.666666666667,4,2,1,40,1,0
10552,-238.095238095238,4,2,1,40,0,0
10802,-100,4,2,1,5,0,0
10885,-158.730158730159,4,2,1,40,0,0
13135,-100,4,2,1,5,0,0
13218,-158.730158730159,4,2,1,40,0,0
15802,-100,4,2,1,5,0,0
15885,-158.730158730159,4,2,1,40,0,0
18468,-100,4,2,1,5,0,0
18552,-158.730158730159,4,2,1,40,0,0
20802,-100,4,2,1,5,0,0
20885,-158.730158730159,4,2,1,40,0,0
21468,-100,4,2,1,5,0,0
21552,-114.942528735632,4,2,1,50,0,0
23802,-100,4,2,1,5,0,0
23885,-114.942528735632,4,2,1,50,0,0
26468,-100,4,2,1,5,0,0
26552,-114.942528735632,4,2,1,50,0,0
32218,-105.263157894737,4,2,1,60,0,0
50885,-105.263157894737,4,2,1,70,0,0
54552,-105.263157894737,4,2,1,50,0,0
56219,-105.263157894737,4,2,1,60,0,0
57218,-81.9672131147541,4,2,1,60,0,0
57552,-81.9672131147541,4,2,1,70,0,0
58885,-67.1140939597315,4,2,1,80,0,0
59135,-100,4,2,1,5,0,0
59218,-67.1140939597315,4,2,1,80,0,0
60218,-76.3358778625954,4,2,1,80,0,0
60468,-100,4,2,1,5,0,0
60552,-76.3358778625954,4,2,1,80,0,0
61552,-67.1140939597315,4,2,1,80,0,0
61802,-100,4,2,1,5,0,0
61885,-67.1140939597315,4,2,1,80,0,0
62385,-81.9672131147541,4,2,1,80,0,0
62718,-76.3358778625954,4,2,1,80,0,0
62968,-100,4,2,1,5,0,0
63052,-76.3358778625954,4,2,1,80,0,0
63552,-76.3358778625954,4,2,1,80,0,0
63802,-100,4,2,1,5,0,0
63885,-76.3358778625954,4,2,1,80,0,0
64218,-67.1140939597315,4,2,1,80,0,0
64468,-100,4,2,1,5,0,0
64552,-67.1140939597315,4,2,1,80,0,0
65052,-81.9672131147541,4,2,1,80,0,0
65385,-76.3358778625954,4,2,1,80,0,0
65635,-100,4,2,1,5,0,0
65718,-76.3358778625954,4,2,1,80,0,0
66218,-67.1140939597315,4,2,1,80,0,0
67885,-81.9672131147541,4,2,1,80,0,0
69552,-67.1140939597315,4,2,1,80,0,0
69802,-100,4,2,1,5,0,0
69885,-67.1140939597315,4,2,1,80,0,0
70885,-76.3358778625954,4,2,1,80,0,0
71135,-100,4,2,1,5,0,0
71218,-76.3358778625954,4,2,1,80,0,0
72218,-67.1140939597315,4,2,1,80,0,0
72468,-100,4,2,1,5,0,0
72552,-67.1140939597315,4,2,1,80,0,0
73052,-81.9672131147541,4,2,1,80,0,0
73385,-76.3358778625954,4,2,1,80,0,0
73635,-100,4,2,1,5,0,0
73718,-76.3358778625954,4,2,1,80,0,0
74218,-76.3358778625954,4,2,1,80,0,0
74468,-100,4,2,1,5,0,0
74552,-76.3358778625954,4,2,1,80,0,0
74885,-67.1140939597315,4,2,1,80,0,0
75135,-100,4,2,1,5,0,0
75218,-67.1140939597315,4,2,1,80,0,0
75718,-81.9672131147541,4,2,1,80,0,0
76052,-76.3358778625954,4,2,1,80,0,0
76302,-100,4,2,1,5,0,0
76385,-76.3358778625954,4,2,1,80,0,0
76885,-67.1140939597315,4,2,1,80,0,0
80218,-76.3358778625954,4,2,1,70,0,0
80468,-100,4,2,1,5,0,0
80552,-76.3358778625954,4,2,1,70,0,0
81635,-100,4,2,1,5,0,0
81718,-76.3358778625954,4,2,1,70,0,0
82468,-100,4,2,1,5,0,0
82552,-76.3358778625954,4,2,1,70,0,0
82885,-76.3358778625954,4,2,1,70,0,0
83135,-100,4,2,1,5,0,0
83218,-76.3358778625954,4,2,1,70,0,0
85468,-100,4,2,1,5,0,0
85552,-76.3358778625954,4,2,1,70,0,0
85802,-100,4,2,1,5,0,0
85885,-76.3358778625954,4,2,1,70,0,0
86968,-100,4,2,1,5,0,0
87052,-76.3358778625954,4,2,1,70,0,0
87802,-100,4,2,1,5,0,0
87885,-76.3358778625954,4,2,1,70,0,0

[Colours]
Combo1 : 216,216,216
Combo2 : 204,179,102
Combo3 : 140,140,140

[HitObjects]
35,350,10552,6,0,P|20:342|4:337,1,34.649998942566,2|0,0:0|0:0,0:0:0:0:
0,332,10885,6,0,P|32:319|60:299,1,69.2999978851319,2|0,0:0|0:0,0:0:0:0:
159,212,11385,1,2,0:0:0:0:
111,156,11552,6,0,P|84:177|84:210,1,69.2999978851319,2|0,0:0|0:0,0:0:0:0:
178,322,12052,1,2,0:0:0:0:
242,280,12218,6,0,B|300:290|282:307|335:321,1,103.949996827698,2|0,0:0|0:0,0:0:0:0:
465,266,12885,6,0,P|453:289|444:313,1,51.9749984138489,2|0,0:0|0:0,0:0:0:0:
472,261,13218,2,0,P|465:244|458:229,1,34.649998942566,2|0,0:0|0:0,0:0:0:0:
375,109,13552,6,0,P|398:133|431:139,1,69.2999978851319,2|0,0:0|0:0,0:0:0:0:
448,37,14052,1,2,0:0:0:0:
382,1,14218,6,0,P|349:13|318:28,1,69.2999978851319,2|0,0:0|0:0,0:0:0:0:
198,135,14718,1,2,0:0:0:0:
261,85,14885,6,0,P|309:103|355:128,1,103.949996827698,2|0,0:0|0:0,0:0:0:0:
155,11,15552,6,0,P|130:18|114:38,1,51.9749984138489,2|0,0:0|0:0,0:0:0:0:
64,83,15885,2,0,P|74:96|78:113,1,34.649998942566,2|0,0:0|0:0,0:0:0:0:
48,252,16218,6,0,P|69:225|102:219,1,69.2999978851319,2|0,0:0|0:0,0:0:0:0:
165,305,16718,1,2,0:0:0:0:
127,366,16885,6,0,P|118:332|110:298,1,69.2999978851319,2|0,0:0|0:0,0:0:0:0:
235,383,17385,1,2,0:0:0:0:
301,336,17552,6,0,P|316:286|333:237,1,103.949996827698,2|0,0:0|0:0,0:0:0:0:
512,236,18218,6,0,P|494:254|469:259,1,51.9749984138489,2|0,0:0|0:0,0:0:0:0:
411,216,18552,2,0,P|421:202|437:194,1,34.649998942566,2|0,0:0|0:0,0:0:0:0:
444,354,18885,6,0,B|411:361|411:361|409:365|409:365|377:372,2,69.2999978851319,2|2|2,0:0|0:0|0:0,0:0:0:0:
219,210,19885,5,2,0:0:0:0:
500,0,20218,5,2,0:0:0:0:
411,216,20552,2,0,P|395:195|394:170,1,51.9749984138489,2|0,0:0|0:0,0:0:0:0:
466,169,20885,6,0,B|396:178|426:211|360:223,1,121.274996298981,2|0,0:0|0:0,0:0:0:0:
279,242,21552,6,0,P|257:230|235:221,2,47.8500004015732,2|0|0,0:0|0:0|0:0,0:0:0:0:
213,153,22052,1,2,0:0:0:0:
277,106,22218,6,0,L|286:55,2,47.8500004015732,2|0|0,0:0|0:0|0:0,0:0:0:0:
225,22,22718,1,2,0:0:0:0:
119,135,22885,6,0,L|102:40,1,95.7000008031464,2|0,0:0|0:0,0:0:0:0:
262,378,23552,6,0,P|241:349|206:347,1,71.7750006023598,2|0,0:0|0:0,0:0:0:0:
144,320,23885,2,0,P|134:341|113:353,1,47.8500004015732,2|0,0:0|0:0,0:0:0:0:
14,307,24218,6,0,P|8:283|0:261,2,47.8500004015732,2|0|0,0:0|0:0|0:0,0:0:0:0:
77,240,24718,1,2,0:0:0:0:
47,169,24885,6,0,L|-1:161,2,47.8500004015732,2|0|0,0:0|0:0|0:0,0:0:0:0:
152,127,25385,1,2,0:0:0:0:
73,23,25552,6,0,P|31:43|25:89,1,95.7000008031464,2|0,0:0|0:0,0:0:0:0:
235,221,26218,6,0,P|267:205|300:192,1,71.7750006023598,2|0,0:0|0:0,0:0:0:0:
347,142,26552,2,0,P|368:152|390:162,1,47.8500004015732,2|0,0:0|0:0,0:0:0:0:
466,247,26885,6,0,P|451:228|450:204,2,47.8500004015732,2|0|0,0:0|0:0|0:0,0:0:0:0:
512,161,27385,1,2,0:0:0:0:
466,105,27552,6,0,P|460:81|453:58,2,47.8500004015732,2|0|0,0:0|0:0|0:0,0:0:0:0:
512,169,28052,1,2,0:0:0:0:
405,299,28218,6,0,B|352:320|373:328|321:347,1,95.7000008031464,2|0,0:0|0:0,0:0:0:0:
139,247,28885,5,2,0:0:0:0:
141,243,29051,1,0,0:0:0:0:
197,189,29218,1,2,0:0:0:0:
195,185,29384,1,0,0:0:0:0:
151,111,29552,6,0,P|128:118|106:127,1,47.8500004015732,2|0,0:0|0:0,0:0:0:0:
48,177,29885,2,0,P|25:168|3:160,1,47.8500004015732,2|0,0:0|0:0,0:0:0:0:
111,47,30218,5,2,0:0:0:0:
153,105,30385,1,0,0:0:0:0:
254,33,30552,1,2,0:0:0:0:
227,99,30719,1,0,0:0:0:0:
322,223,30885,6,0,P|340:207|363:200,1,47.8500004015732,2|0,0:0|0:0,0:0:0:0:
425,151,31218,2,0,P|442:167|464:175,1,47.8500004015732,2|0,0:0|0:0,0:0:0:0:
512,82,31552,5,2,3:2:0:0:
420,155,31718,1,0,3:0:0:0:
505,264,31885,1,0,3:0:0:0:
437,335,32052,1,0,3:0:0:0:
270,167,32218,6,0,B|265:149|265:149|261:147|261:147|254:118,1,52.2499986047745,4|0,1:0|1:0,0:0:0:0:
269,171,32718,1,0,1:0:0:0:
227,238,32885,2,0,L|177:252,1,52.2499986047745,8|0,0:0|0:0,0:0:0:0:
83,142,33218,6,0,B|100:146|100:146|102:150|102:150|131:157,1,52.2499986047745,0|0,1:0|1:0,0:0:0:0:
76,145,33718,1,0,1:0:0:0:
21,190,33885,2,0,P|11:213|17:238,1,52.2499986047745,8|0,0:0|0:0,0:0:0:0:
101,353,34218,5,0,1:0:0:0:
30,318,34385,1,0,1:0:0:0:
106,262,34552,1,8,0:0:0:0:
97,277,34718,1,0,3:0:0:0:
180,369,34885,6,0,B|197:364|197:364|201:368|201:368|229:361,1,52.2499986047745,0|0,1:0|1:0,0:0:0:0:
235,361,35385,1,0,1:0:0:0:
274,295,35552,2,0,L|223:281,1,52.2499986047745,8|0,0:0|0:0,0:0:0:0:
337,244,35885,6,0,B|355:260|355:260|352:288,1,52.2499986047745,0|0,1:0|1:0,0:0:0:0:
333,239,36385,1,0,1:0:0:0:
379,179,36552,2,0,P|403:168|429:162,1,52.2499986047745,8|0,0:0|0:0,0:0:0:0:
340,91,36885,5,0,1:0:0:0:
294,157,37052,1,0,1:0:0:0:
194,116,37218,1,8,0:0:0:0:
203,141,37385,1,0,3:0:0:0:
263,61,37552,6,0,B|272:55|272:55|262:10,1,52.2499986047745,4|0,1:0|1:0,0:0:0:0:
259,68,38052,1,0,1:0:0:0:
192,39,38218,2,0,L|140:28,1,52.2499986047745,8|0,0:0|0:0,0:0:0:0:
25,111,38552,6,0,B|30:121|30:121|70:114,1,52.2499986047745,0|0,1:0|1:0,0:0:0:0:
77,110,39052,1,0,1:0:0:0:
140,148,39218,2,0,P|143:173|131:196,1,52.2499986047745,8|0,0:0|0:0,0:0:0:0:
62,282,39552,5,0,1:0:0:0:
9,223,39718,1,0,1:0:0:0:
58,292,39885,1,8,0:0:0:0:
15,353,40052,1,0,3:0:0:0:
142,283,40218,6,0,B|163:287|163:287|167:292|167:292|190:298,1,52.2499986047745,0|0,1:0|1:0,0:0:0:0:
142,276,40718,1,0,1:0:0:0:
192,222,40885,2,0,L|242:210,1,52.2499986047745,8|0,0:0|0:0,0:0:0:0:
375,273,41218,6,0,B|368:267|368:267|377:226,2,52.2499986047745,0|0|0,1:0|3:0|1:0,0:0:0:0:
436,169,41718,5,0,1:0:0:0:
385,116,41885,1,8,0:0:0:0:
318,184,42052,1,0,3:0:0:0:
242,101,42218,6,0,B|217:89|217:89|191:101,1,52.2499986047745,0|0,1:0|3:0,0:0:0:0:
300,37,42552,5,8,0:0:0:0:
236,183,42718,5,8,0:0:0:0:
375,273,42885,6,0,B|400:267|400:267|404:269|404:269|425:264,1,52.2499986047745,4|0,1:0|1:0,0:0:0:0:
434,264,43385,1,0,1:0:0:0:
484,322,43552,2,0,P|477:352|470:385,1,52.2499986047745,8|0,0:0|0:0,0:0:0:0:
294,256,43885,6,0,B|288:248|288:248|246:259,1,52.2499986047745,0|0,1:0|1:0,0:0:0:0:
300,259,44385,1,0,1:0:0:0:
280,326,44552,2,0,L|292:376,1,52.2499986047745,8|0,0:0|0:0,0:0:0:0:
161,313,44885,5,0,1:0:0:0:
121,245,45052,1,0,1:0:0:0:
211,172,45218,1,8,0:0:0:0:
236,183,45385,1,0,3:0:0:0:
161,111,45552,6,0,B|151:86|151:86|163:61,1,52.2499986047745,0|0,1:0|1:0,0:0:0:0:
168,59,46052,1,0,1:0:0:0:
238,84,46218,2,0,L|289:74,1,52.2499986047745,8|0,0:0|0:0,0:0:0:0:
396,7,46552,6,0,B|418:12|418:12|421:15|421:15|445:21,1,52.2499986047745,0|0,1:0|1:0,0:0:0:0:
390,13,47052,1,0,1:0:0:0:
420,86,47218,2,0,P|427:110|417:134,1,52.2499986047745,8|0,0:0|0:0,0:0:0:0:
294,244,47552,5,0,1:0:0:0:
342,180,47718,1,0,1:0:0:0:
418,263,47885,1,8,0:0:0:0:
415,289,48052,1,0,3:0:0:0:
315,371,48218,6,0,B|308:365|308:365|316:323,1,52.2499986047745,4|0,1:0|1:0,0:0:0:0:
320,318,48718,1,0,1:0:0:0:
294,244,48885,2,0,L|243:232,1,52.2499986047745,8|0,0:0|0:0,0:0:0:0:
149,137,49218,6,0,B|125:142|125:142|122:139|122:139|99:144,1,52.2499986047745,0|0,1:0|1:0,0:0:0:0:
93,145,49718,1,0,1:0:0:0:
46,199,49885,2,0,L|56:250,1,52.2499986047745,8|0,0:0|0:0,0:0:0:0:
121,353,50218,5,0,1:0:0:0:
185,297,50385,1,0,1:0:0:0:
261,379,50552,1,8,0:0:0:0:
318,332,50718,1,0,3:0:0:0:
188,288,50885,5,8,0:0:0:0:
424,204,51218,5,8,0:0:0:0:
288,0,51552,5,8,0:0:0:0:
332,70,51885,5,8,0:0:0:0:
186,162,52052,1,8,0:0:0:0:
253,69,52218,1,8,0:0:0:0:
299,222,52385,1,8,0:0:0:0:
250,64,52552,1,8,0:0:0:0:
178,254,52718,1,8,0:0:0:0:
82,64,52885,1,8,0:0:0:0:
177,263,53052,1,8,0:0:0:0:
0,361,53218,1,8,0:0:0:0:
161,146,53385,1,8,0:0:0:0:
258,296,53552,5,2,0:2:0:0:
258,295,56218,5,12,0:0:0:0:
366,146,56385,1,0,1:0:0:0:
294,85,56552,1,0,1:0:0:0:
354,251,56718,5,12,0:0:0:0:
219,374,56885,1,0,1:0:0:0:
155,309,57052,1,0,1:0:0:0:
328,378,57218,6,0,B|339:371|339:371|327:316,1,67.0999972355653,12|0,0:0|1:0,0:0:0:0:
294,85,57552,5,12,0:0:0:0:
427,278,57718,5,8,0:0:0:0:
214,112,57885,5,8,0:0:0:0:
493,15,58052,5,8,0:0:0:0:
502,17,58135,1,8,0:0:0:0:
512,19,58218,1,8,0:0:0:0:
381,128,58385,1,8,0:0:0:0:
512,265,58552,1,8,0:0:0:0:
407,379,58718,1,8,0:0:0:0:
199,214,58885,6,0,P|251:246|309:265,1,122.924993341313,4|0,1:0|0:0,0:0:0:0:
343,331,59218,2,0,P|378:311|418:299,1,81.9499955608752,2|0,3:2|1:0,0:0:0:0:
131,141,59552,5,12,0:0:0:0:
126,134,59885,1,2,3:2:0:0:
185,53,60052,1,2,1:2:0:0:
18,22,60219,6,0,B|81:36|60:49|117:63,1,108.075001978912,2|0,3:2|0:0,0:0:0:0:
192,52,60552,2,0,P|185:17|155:0,1,72.0500013192749,2|0,1:2|1:0,0:0:0:0:
12,250,60885,5,12,0:0:0:0:
16,243,61218,1,2,3:2:0:0:
82,328,61385,1,8,0:0:0:0:
264,186,61552,6,0,B|311:197|311:197|321:219|321:219|369:230,1,122.924993341313,4|0,1:0|0:0,0:0:0:0:
429,280,61885,2,0,B|456:250|456:250|444:210,1,81.9499955608752,2|2,3:2|1:2,0:0:0:0:
378,65,62218,5,8,0:0:0:0:
433,11,62385,2,0,L|499:0,1,67.0999972355653,2|0,3:2|0:0,0:0:0:0:
371,145,62718,6,0,B|311:128|333:115|274:95,1,108.075001978912,2|0,1:2|0:0,0:0:0:0:
217,135,63052,1,8,0:0:0:0:
138,47,63218,1,0,1:0:0:0:
202,0,63385,1,0,1:0:0:0:
166,209,63552,6,0,P|115:228|67:253,1,108.075001978912,12|0,0:0|0:0,0:0:0:0:
0,215,63885,2,0,P|33:227|65:245,1,72.0500013192749,2|8,3:2|0:0,0:0:0:0:
243,356,64219,6,0,P|214:304|156:303,1,122.924993341313,4|0,1:0|0:0,0:0:0:0:
94,343,64552,2,0,P|117:373|157:376,1,81.9499955608752,2|2,3:2|1:2,0:0:0:0:
422,252,64885,5,8,0:0:0:0:
482,304,65052,2,0,L|466:370,1,67.0999972355653,2|0,3:2|1:0,0:0:0:0:
342,130,65385,6,0,P|292:141|278:190,1,108.075001978912,2|0,3:2|0:0,0:0:0:0:
348,200,65719,1,0,1:0:0:0:
266,69,65885,1,0,0:0:0:0:
319,9,66052,1,0,1:0:0:0:
413,165,66218,6,0,B|422:177|422:177|487:164,1,81.9499955608752,12|0,0:0|1:0,0:0:0:0:
512,101,66468,1,0,1:0:0:0:
505,93,66552,2,0,L|424:77,1,81.9499955608752,12|0,0:0|1:0,0:0:0:0:
198,25,66885,5,12,0:0:0:0:
278,190,67052,1,0,1:0:0:0:
165,254,67218,1,0,1:0:0:0:
239,94,67385,5,12,0:0:0:0:
298,277,67552,1,0,1:0:0:0:
414,318,67718,1,12,0:0:0:0:
258,381,67885,6,0,P|240:352|246:320,1,67.0999972355653,0|0,1:0|1:0,0:0:0:0:
298,277,68135,1,0,1:0:0:0:
306,273,68218,5,12,0:0:0:0:
465,377,68385,5,12,0:0:0:0:
395,162,68552,5,12,0:0:0:0:
362,227,68718,1,0,1:0:0:0:
500,131,68885,5,12,0:0:0:0:
395,13,69052,1,8,0:0:0:0:
463,201,69218,1,12,0:0:0:0:
512,4,69385,1,8,0:0:0:0:
290,195,69552,6,0,P|243:159|251:101,1,122.924993341313,4|0,1:0|0:0,0:0:0:0:
206,44,69885,2,0,P|239:22|278:31,1,81.9499955608752,2|0,3:2|1:0,0:0:0:0:
361,228,70218,5,12,0:0:0:0:
365,232,70552,1,2,3:2:0:0:
322,328,70718,1,2,1:2:0:0:
194,248,70885,6,0,B|132:262|155:280|98:296,1,108.075001978912,2|0,3:2|0:0,0:0:0:0:
65,357,71218,2,0,P|34:337|0:327,1,72.0500013192749,2|0,1:2|1:0,0:0:0:0:
213,378,71552,5,12,0:0:0:0:
216,370,71885,1,2,3:2:0:0:
194,248,72052,1,8,0:0:0:0:
327,375,72219,6,0,B|374:364|374:364|384:342|384:342|432:331,1,122.924993341313,4|0,1:0|0:0,0:0:0:0:
499,364,72552,2,0,B|520:330|520:330|502:292,1,81.9499955608752,2|2,3:2|1:2,0:0:0:0:
391,46,72885,5,8,0:0:0:0:
454,0,73052,2,0,P|472:27|468:59,1,67.0999972355653,2|0,3:2|0:0,0:0:0:0:
341,184,73385,6,0,P|362:137|417:131,1,108.075001978912,2|0,1:2|0:0,0:0:0:0:
412,203,73719,1,8,0:0:0:0:
273,142,73885,1,0,1:0:0:0:
309,70,74052,1,0,1:0:0:0:
311,254,74218,6,0,P|289:303|270:354,1,108.075001978912,12|0,0:0|0:0,0:0:0:0:
206,378,74552,2,0,P|195:343|183:309,1,72.0500013192749,2|8,3:2|0:0,0:0:0:0:
0,144,74885,6,0,B|47:133|47:133|65:148|65:148|113:137,1,122.924993341313,4|0,1:0|0:0,0:0:0:0:
176,179,75218,2,0,B|198:145|198:145|181:107,1,81.9499955608752,2|2,3:2|1:2,0:0:0:0:
0,267,75552,5,8,0:0:0:0:
53,324,75718,2,0,L|119:338,1,67.0999972355653,2|0,3:2|1:0,0:0:0:0:
293,218,76052,6,0,B|233:235|255:248|196:268,1,108.075001978912,2|0,3:2|0:0,0:0:0:0:
136,237,76385,1,0,1:0:0:0:
201,123,76552,1,0,0:0:0:0:
148,66,76718,1,0,1:0:0:0:
310,0,76885,6,0,P|349:5|375:35,1,81.9499955608752,12|0,0:0|1:0,0:0:0:0:
431,90,77135,1,0,1:0:0:0:
431,90,77218,2,0,P|392:105|358:126,1,81.9499955608752,8|0,0:0|1:0,0:0:0:0:
435,343,77552,5,12,0:0:0:0:
512,164,77718,1,0,1:0:0:0:
446,224,77885,1,0,1:0:0:0:
503,299,78052,1,0,1:0:0:0:
348,351,78218,5,12,0:0:0:0:
238,242,78384,1,0,3:0:0:0:
285,165,78551,1,0,1:0:0:0:
353,230,78718,1,0,1:0:0:0:
350,237,78802,1,0,1:0:0:0:
348,245,78885,5,12,0:0:0:0:
230,113,79052,1,8,0:0:0:0:
404,48,79219,1,8,0:0:0:0:
341,0,79385,1,0,1:0:0:0:
285,165,79552,5,12,0:0:0:0:
129,97,79719,1,8,0:0:0:0:
291,170,79885,1,12,0:0:0:0:
89,236,80052,1,8,0:0:0:0:
184,169,80218,6,0,B|197:179|197:179|175:268,1,108.075001978912,4|0,1:0|0:0,0:0:0:0:
114,308,80552,2,0,B|106:322|106:322|120:377,1,72.0500013192749,0|0,3:0|1:0,0:0:0:0:
0,287,80885,5,8,0:0:0:0:
3,280,81052,1,8,0:0:0:0:
195,34,81385,6,0,B|230:41|230:41|232:45|232:45|298:60,1,108.075001978912,4|0,1:0|0:0,0:0:0:0:
358,102,81718,1,8,0:0:0:0:
423,69,81885,1,0,1:0:0:0:
501,189,82052,1,0,1:0:0:0:
436,226,82218,6,0,P|415:178|446:137,1,108.075001978912,12|0,0:0|0:0,0:0:0:0:
505,193,82552,1,4,0:3:0:0:
452,300,82718,1,4,0:3:0:0:
330,196,82885,6,0,B|284:206|284:206|276:222|276:222|234:232,1,108.075001978912,4|0,1:0|0:0,0:0:0:0:
178,276,83218,2,0,B|154:246|154:246|166:214,1,72.0500013192749,0|0,3:0|1:0,0:0:0:0:
309,330,83552,5,12,0:0:0:0:
306,338,83718,1,12,0:0:0:0:
43,141,84052,5,0,1:0:0:0:
100,89,84218,2,0,L|109:17,1,72.0500013192749,2|8,3:2|0:0,0:0:0:0:
165,144,84552,1,0,1:0:0:0:
231,100,84718,1,0,1:0:0:0:
308,215,84885,5,12,0:0:0:0:
237,183,85052,1,0,1:0:0:0:
348,119,85218,6,0,P|399:135|448:158,1,108.075001978912,8|0,0:0|0:0,0:0:0:0:
510,207,85552,6,0,B|481:181|481:181|512:119,1,108.075001978912,4|0,1:0|0:0,0:0:0:0:
508,50,85885,2,0,P|481:26|446:27,1,72.0500013192749,0|0,3:0|1:0,0:0:0:0:
308,215,86218,5,12,0:0:0:0:
310,222,86385,1,12,0:0:0:0:
512,345,86718,6,0,B|477:352|477:352|475:356|475:356|409:371,1,108.075001978912,4|0,1:0|0:0,0:0:0:0:
345,350,87052,1,8,0:0:0:0:
370,277,87218,1,0,0:0:0:0:
263,348,87385,1,0,1:0:0:0:
206,298,87552,6,0,L|231:192,1,108.075001978912,12|0,0:0|0:0,0:0:0:0:
276,136,87885,1,0,1:0:0:0:
153,197,88052,1,0,1:0:0:0:
344,349,88218,5,12,0:0:0:0:
351,347,88385,1,12,0:0:0:0:
70,227,89052,5,8,0:0:0:0:
247,124,89218,5,8,0:0:0:0:
66,231,89385,5,8,0:0:0:0:
217,0,89552,5,8,0:0:0:0:
351,347,89718,5,12,0:0:0:0:
