osu file format v14

[General]
AudioFilename: audio.mp3
AudioLeadIn: 0
PreviewTime: 48061
Countdown: 0
SampleSet: Soft
StackLeniency: 0.7
Mode: 0
LetterboxInBreaks: 0
WidescreenStoryboard: 1

[Editor]
DistanceSpacing: 1
BeatDivisor: 4
GridSize: 8
TimelineZoom: 1

[Metadata]
Title:Zankyo Sanka (TV Size)
TitleUnicode:残響散歌 (TV Size)
Artist:Aimer
ArtistUnicode:Aimer
Creator:Sotarks
Version:Yumerios' Hard
Source:「鬼滅の刃」遊郭編
Tags:japanese pop j-pop jpop anime demon slayer season 2 two op opening kimetsu no yaiba yuukaku-hen blade of destruction entertainment district arc 鬼滅の刃遊郭編 yumerios kujinn reform basensorex female vocals vocalist エメ
BeatmapID:3399991
BeatmapSetID:1665441

[Difficulty]
HPDrainRate:5
CircleSize:3.5
OverallDifficulty:7
ApproachRate:8
SliderMultiplier:1.4
SliderTickRate:1

[Events]
//Background and Video events
Video,-300,"video.mp4"
0,0,"bg.jpg",0,0
//Break Periods
//Storyboard Layer 0 (Background)
//Storyboard Layer 1 (Fail)
//Storyboard Layer 2 (Pass)
//Storyboard Layer 3 (Foreground)
//Storyboard Layer 4 (Overlay)
//Storyboard Sound Samples

[TimingPoints]
80,350.877192982456,4,2,0,52,1,0
80,-125,4,2,0,52,0,0
781,-111.111111111111,4,2,0,52,0,0
3939,350.877192982456,4,2,0,72,1,0
3939,-111.111111111111,4,2,0,72,0,0
4289,-111.111111111111,4,2,0,62,0,0
9553,-100,4,2,0,82,0,0
20781,-111.111111111111,4,2,0,82,0,0
21131,-111.111111111111,4,2,0,62,0,0
32009,-125,4,2,0,62,0,0
42710,-125,4,2,0,72,0,0
43237,-111.111111111111,4,2,0,72,0,0
46044,-99.9999999999999,4,2,0,72,0,0
48851,-90.9090909090909,4,2,0,82,0,1
72710,-111.111111111111,4,2,0,82,0,0
73412,-166.666666666666,4,2,0,82,0,0
74114,-100,4,2,0,72,0,0
79728,-100,4,2,0,82,0,0
85254,-100,4,2,0,5,0,0

[Colours]
Combo1 : 205,235,241
Combo2 : 71,52,182
Combo3 : 134,85,223
Combo4 : 133,245,252

[HitObjects]
384,78,80,6,0,L|363:198,1,112,0|0,1:0|1:0,0:0:0:0:
258,313,781,2,0,P|207:335|157:312,1,94.499997116089,8|0,0:3|1:0,0:0:0:0:
150,289,1132,1,0,1:0:0:0:
202,226,1308,2,0,L|306:210,2,94.4999971160889,8|0|8,0:3|1:0|0:3,0:0:0:0:
139,172,2009,2,0,L|96:168,2,31.4999990386963,0|0|0,0:0|1:0|1:0,0:0:0:0:
187,105,2360,2,0,P|221:82|284:108,1,94.499997116089,8|8,0:3|0:3,0:0:0:0:
300,121,2711,1,4,0:3:0:0:
251,187,2887,5,0,1:0:0:0:
219,169,3939,6,0,B|257:147|289:180|280:188|305:213|346:195,1,125.999996154785,6|0,3:1|0:0,0:0:0:0:
403,158,4465,2,0,P|413:123|400:90,1,62.9999980773926,2|0,0:0|0:0,0:0:0:0:
355,33,4816,2,0,P|320:22|287:35,1,62.9999980773926,2|0,0:0|0:0,0:0:0:0:
238,88,5167,1,2,0:3:0:0:
238,88,5342,1,2,0:3:0:0:
294,147,5517,6,0,P|287:196|281:233,1,62.9999980773926,2|2,0:0|0:0,0:0:0:0:
232,272,5868,2,0,P|189:261|155:254,1,62.9999980773926,2|0,0:0|0:0,0:0:0:0:
288,330,6219,2,0,P|330:319|364:312,1,62.9999980773926,2|2,0:0|0:0,0:0:0:0:
420,271,6570,1,2,0:3:0:0:
420,271,6746,6,0,P|365:232|314:246,2,94.499997116089,2|0|2,0:0|0:0|0:0,0:0:0:0:
380,344,7447,1,0,0:0:0:0:
380,344,7623,2,0,P|337:333|303:326,1,62.9999980773926,2|0,0:0|0:0,0:0:0:0:
264,268,7974,5,2,0:0:0:0:
105,309,8324,2,0,L|39:312,2,62.9999980773926,2|2|2,0:0|0:0|0:0,0:0:0:0:
160,247,8851,2,0,P|174:216|170:183,1,62.9999980773926,0|4,1:0|0:3,0:0:0:0:
91,173,9202,2,0,P|77:202|81:235,1,62.9999980773926,0|4,1:0|0:3,0:0:0:0:
188,324,9553,6,0,P|276:307|349:294,1,140,4|0,3:1|1:0,0:0:0:0:
388,231,10079,2,0,P|391:185|366:156,1,70,4|2,0:3|0:3,0:0:0:0:
306,129,10430,1,0,3:0:0:0:
306,129,10517,1,0,3:0:0:0:
306,129,10605,1,0,1:0:0:0:
354,51,10781,6,0,P|387:41|419:53,1,70,0|2,0:0|0:3,0:0:0:0:
483,117,11131,2,0,P|472:172|466:211,1,70,0|0,0:0|1:0,0:0:0:0:
388,231,11482,2,0,B|321:222|321:222|315:211|315:211|235:199,1,140,0|4,0:0|0:3,0:0:0:0:
189,265,12009,1,0,1:0:0:0:
252,337,12184,1,0,3:0:0:0:
252,337,12272,1,0,3:0:0:0:
252,337,12360,6,0,B|285:361|320:339|310:326|342:297|385:317,1,140,4|0,0:3|1:0,0:0:0:0:
467,291,12886,2,0,P|482:257|471:215,1,70,4|2,0:3|0:3,0:0:0:0:
428,148,13237,2,0,P|384:119|292:160,1,140,0|0,3:0|3:0,0:0:0:0:
279,179,13675,1,0,3:0:0:0:
279,179,13763,6,0,P|295:256|309:328,1,140,4|0,0:3|1:0,0:0:0:0:
238,376,14289,2,0,P|189:382|166:367,1,70,8|4,0:3|0:3,0:0:0:0:
143,337,14553,1,4,0:3:0:0:
143,337,14640,2,0,P|154:271|163:191,1,140,0|0,1:0|3:3,0:3:0:0:
129,107,15167,6,0,P|88:83|-2:125,1,140,4|0,3:1|1:0,0:0:0:0:
34,215,15693,2,0,P|87:232|116:246,1,70,4|2,0:3|0:3,0:0:0:0:
202,245,16044,1,0,3:0:0:0:
202,245,16131,1,0,3:0:0:0:
202,245,16219,1,0,1:0:0:0:
260,314,16395,6,0,P|293:324|325:312,1,70,0|2,0:0|0:3,0:0:0:0:
389,246,16746,2,0,P|399:213|387:181,1,70,0|0,0:0|1:0,0:0:0:0:
314,126,17096,2,0,B|245:137|245:137|240:148|240:148|164:161,1,140,0|4,0:0|0:3,0:0:0:0:
108,104,17623,1,0,1:0:0:0:
166,36,17798,1,0,3:0:0:0:
166,36,17886,1,0,3:0:0:0:
166,36,17974,6,0,P|230:5|299:56,1,140,4|0,0:3|1:0,0:0:0:0:
314,126,18500,2,0,P|304:173|299:210,1,70,4|2,0:3|0:3,0:0:0:0:
364,260,18851,2,0,L|443:247,1,70,0|0,3:0|1:0,0:0:0:0:
310,329,19202,6,0,L|231:316,1,70,0|4,3:0|0:3,0:0:0:0:
179,250,19553,1,0,3:0:0:0:
179,250,19640,1,0,3:0:0:0:
179,250,19728,1,0,1:0:0:0:
245,188,19903,2,0,P|263:152|249:121,1,70,0|4,0:0|0:3,0:0:0:0:
185,65,20254,1,0,1:0:0:0:
288,288,20781,6,0,P|348:270|421:254,1,125.999996154785,4|0,3:1|1:0,0:0:0:0:
463,193,21307,1,8,0:3:0:0:
413,127,21482,2,0,P|381:120|351:132,1,62.9999980773926,0|4,0:0|0:3,0:0:0:0:
299,192,21833,2,0,P|267:199|237:187,1,62.9999980773926,0|8,1:0|0:3,0:0:0:0:
170,144,22184,6,0,L|156:8,2,125.999996154785,4|0|2,0:3|1:0|0:3,0:0:0:0:
60,266,23237,1,0,1:0:0:0:
60,266,23412,1,8,0:3:0:0:
124,317,23588,6,0,B|154:335|185:312|175:303|206:277|242:292,1,125.999996154785,4|0,0:3|1:0,0:0:0:0:
306,337,24114,1,8,0:3:0:0:
369,285,24289,2,0,P|376:252|364:223,1,62.9999980773926,0|4,0:0|0:3,0:0:0:0:
299,177,24640,2,0,P|291:144|303:114,1,62.9999980773926,0|8,1:0|0:3,0:0:0:0:
367,67,24991,6,0,L|376:-11,2,62.9999980773926,4|8|0,0:3|0:3|1:0,0:0:0:0:
495,169,25693,2,0,P|509:206|496:244,1,62.9999980773926,2|4,0:3|0:3,0:0:0:0:
453,292,26044,1,0,1:0:0:0:
453,292,26219,1,8,0:3:0:0:
351,253,26395,5,4,0:3:0:0:
351,253,26570,2,0,L|347:174,2,62.9999980773926,0|0|8,0:0|1:0|0:3,0:0:0:0:
302,320,27096,1,0,0:0:0:0:
302,320,27272,2,0,B|242:309|242:309|230:296|230:296|170:286,1,125.999996154785,4|8,0:3|0:3,0:0:0:0:
113,331,27798,6,0,P|81:342|40:327,1,62.9999980773926,4|8,0:3|0:3,0:0:0:0:
4,269,28149,2,0,P|-7:237|8:196,1,62.9999980773926,0|8,1:0|0:3,0:0:0:0:
52,146,28500,1,2,0:3:0:0:
161,267,28851,2,0,P|194:280|227:266,1,62.9999980773926,0|10,1:0|0:3,0:0:0:0:
252,197,29202,6,0,P|284:174|373:220,1,125.999996154785,4|0,0:3|1:0,0:0:0:0:
415,258,29728,1,8,0:3:0:0:
480,209,29903,2,0,P|484:178|471:149,1,62.9999980773926,4|8,0:3|0:3,0:0:0:0:
415,89,30254,1,0,1:0:0:0:
415,89,30430,1,8,0:3:0:0:
325,150,30605,6,0,L|215:132,2,94.499997116089,0|8|0,1:0|0:3|1:0,0:0:0:0:
382,208,31307,2,0,P|396:243|379:290,1,62.9999980773926,8|4,0:3|0:3,0:0:0:0:
337,328,31658,1,0,1:0:0:0:
241,218,32009,6,0,P|197:211|177:207,2,56,4|0|4,0:3|0:0|0:3,0:0:0:0:
294,160,32535,1,0,0:0:0:0:
294,160,32710,2,0,P|338:136|404:165,1,112,4|4,0:3|0:3,0:0:0:0:
447,219,33237,1,0,1:0:0:0:
447,219,33412,6,0,P|430:291|419:345,1,112,0|4,0:3|0:3,0:0:0:0:
273,380,34114,2,0,P|265:335|255:306,1,56,4|0,0:3|1:0,0:0:0:0:
326,279,34465,2,0,P|334:234|344:205,1,56,4|0,0:3|1:0,0:0:0:0:
398,174,34816,5,4,0:3:0:0:
398,174,34991,1,0,0:0:0:0:
360,104,35167,1,0,1:0:0:0:
237,201,35517,2,0,L|176:193,1,56,4|8,0:3|0:3,0:0:0:0:
115,234,35868,1,4,0:3:0:0:
115,234,36044,1,8,0:3:0:0:
68,171,36219,6,0,L|60:48,2,112,4|0|4,0:3|1:0|0:3,0:0:0:0:
19,232,37096,2,0,P|7:269|16:303,1,56,0|4,1:0|1:2,0:0:0:0:
65,354,37447,1,0,0:0:0:0:
65,354,37535,1,0,0:0:0:0:
65,354,37623,6,0,P|120:342|154:337,1,84,4|0,0:3|0:0,0:0:0:0:
183,353,37974,2,0,P|218:368|250:360,1,56,4|0,1:2|0:0,0:0:0:0:
299,322,38324,2,0,P|313:282|296:237,1,84,4|8,0:3|0:3,0:0:0:0:
271,217,38675,2,0,P|259:187|266:157,1,56,8|8,0:3|0:3,0:0:0:0:
310,101,39026,6,0,P|350:90|383:111,1,56,4|0,0:3|1:0,0:0:0:0:
396,123,39289,1,0,0:0:0:0:
396,123,39377,2,0,P|407:153|399:188,1,56,0|8,1:0|0:3,0:0:0:0:
345,228,39728,2,0,L|274:220,1,56,4|8,0:3|0:3,0:0:0:0:
211,213,40079,1,4,0:3:0:0:
94,317,40430,6,0,P|135:358|204:349,1,112,4|0,0:3|1:0,0:0:0:0:
250,314,40956,1,0,0:0:0:0:
203,251,41131,2,0,L|131:240,2,56,4|8|4,0:3|0:3|0:3,0:0:0:0:
288,194,41658,6,0,P|308:139|280:85,1,112,0|0,1:2|1:0,0:0:0:0:
220,51,42184,1,4,0:3:0:0:
163,105,42360,2,0,P|174:153|178:180,1,56,0|4,1:0|0:3,0:0:0:0:
119,214,42710,2,0,B|109:269|109:269|112:274|112:274|99:339,1,112,4|8,1:2|0:3,0:0:0:0:
129,352,43149,1,8,0:3:0:0:
129,352,43237,6,0,P|175:378|260:345,1,125.999996154785,4|4,0:3|1:2,0:0:0:0:
297,300,43763,1,4,0:3:0:0:
246,236,43938,2,0,P|230:200|241:166,1,62.9999980773926,0|4,1:0|0:3,0:0:0:0:
258,144,44202,1,4,0:3:0:0:
258,144,44289,2,0,P|306:132|334:124,1,62.9999980773926,4|8,1:2|0:3,0:0:0:0:
396,169,44640,5,4,0:3:0:0:
396,169,44816,1,4,0:3:0:0:
469,132,44991,2,0,P|479:98|466:64,1,62.9999980773926,4|4,1:2|0:3,0:0:0:0:
408,19,45342,2,0,L|323:33,1,62.9999980773926,4|8,0:3|0:3,0:0:0:0:
310,49,45605,1,8,0:3:0:0:
310,49,45693,2,0,L|225:35,1,62.9999980773926,4|8,0:3|0:3,0:0:0:0:
150,115,46044,6,0,P|102:130|39:109,1,105,4|4,0:3|0:3,0:0:0:0:
19,82,46395,1,0,0:0:0:0:
100,41,46570,2,0,P|156:33|216:24,1,105,0|0,1:0|1:0,0:0:0:0:
247,37,46921,1,0,0:0:0:0:
325,130,47096,5,0,1:0:0:0:
260,195,47272,2,0,P|215:184|181:182,1,70,4|0,1:2|0:0,0:0:0:0:
131,251,47623,1,0,1:0:0:0:
131,251,47798,1,0,1:0:0:0:
190,320,47974,2,0,P|236:328|269:311,1,70,0|2,1:0|0:0,0:0:0:0:
331,268,48324,1,4,1:2:0:0:
150,27,48851,6,0,P|115:49|118:138,1,115.50000352478,6|0,3:1|0:0,0:0:0:0:
137,156,49202,2,0,P|196:168|240:178,1,77.0000023498536,2|0,1:3|0:0,0:0:0:0:
304,130,49553,2,0,L|310:43,2,77.0000023498536,6|0|2,0:3|0:3|1:3,0:0:0:0:
375,200,50079,1,0,0:3:0:0:
313,278,50254,2,0,P|245:287|213:295,1,77.0000023498536,6|0,0:3|0:0,0:3:0:0:
142,254,50605,2,0,P|94:240|59:261,1,77.0000023498536,2|0,1:3|3:3,0:0:0:0:
29,341,50956,2,0,P|83:382|168:355,1,154.000004699707,6|2,0:3|1:3,0:3:0:0:
236,288,51482,1,0,0:3:0:0:
236,288,51570,1,0,3:3:0:0:
236,288,51658,6,0,B|248:215|248:215|238:204|238:204|249:125,1,154.000004699707,6|2,0:3|1:3,0:3:0:0:
171,72,52184,1,0,3:3:0:0:
242,1,52360,2,0,P|286:-11|330:17,1,77.0000023498536,6|0,0:3|0:3,0:3:0:0:
384,70,52710,1,2,1:3:0:0:
334,159,52886,1,0,0:3:0:0:
334,159,52974,1,0,0:0:0:0:
334,159,53061,6,0,B|288:178|252:146|260:135|228:103|179:131,1,154.000004699707,6|2,0:3|1:3,0:0:0:0:
129,203,53588,1,0,0:3:0:0:
202,270,53763,1,6,0:3:0:0:
202,270,53851,1,8,0:3:0:0:
202,270,53938,2,0,P|245:264|300:256,1,77.0000023498536,8|2,0:3|1:3,0:3:0:0:
358,319,54289,1,8,0:3:0:0:
458,256,54465,6,0,P|485:197|448:135,1,115.50000352478,4|0,0:3|3:3,0:3:0:0:
430,119,54816,2,0,P|391:105|350:130,1,77.0000023498536,2|0,1:3|0:3,0:0:0:0:
283,183,55167,2,0,P|220:199|165:152,1,115.50000352478,6|0,0:3|0:0,0:3:0:0:
144,139,55518,2,0,P|136:98|168:62,1,77.0000023498536,2|0,1:3|0:3,0:0:0:0:
257,70,55868,6,0,P|270:117|287:213,1,115.50000352478,4|0,0:3|3:3,0:3:0:0:
328,204,56219,2,0,P|345:246|329:289,1,77.0000023498536,2|0,1:3|0:3,0:0:0:0:
259,337,56570,2,0,L|173:319,1,77.0000023498536,6|0,0:3|0:3,0:0:0:0:
98,374,56921,1,2,1:3:0:0:
22,326,57096,1,0,0:3:0:0:
22,326,57184,1,0,3:3:0:0:
22,326,57272,6,0,B|1:283|21:248|37:253|66:214|42:161,1,154.000004699707,4|2,0:3|1:3,0:3:0:0:
2,92,57798,1,0,3:3:0:0:
2,92,57886,1,0,3:3:0:0:
2,92,57974,2,0,P|52:103|101:112,1,77.0000023498536,6|0,0:3|0:3,0:0:0:0:
147,179,58324,2,0,P|197:168|246:159,1,77.0000023498536,2|0,1:3|3:3,0:0:0:0:
258,127,58588,1,0,3:3:0:0:
258,127,58675,6,0,P|292:104|377:122,1,115.50000352478,4|0,0:3|3:3,0:3:0:0:
399,145,59026,1,0,1:3:0:0:
325,241,59202,2,0,P|275:233|240:227,1,77.0000023498536,4|0,0:3|0:3,0:3:0:0:
169,289,59553,1,0,1:3:0:0:
59,122,59903,1,8,0:3:0:0:
59,122,59991,1,8,0:3:0:0:
59,122,60079,5,6,3:1:0:0:
122,44,60254,1,0,0:0:0:0:
188,119,60430,2,0,P|201:157|183:197,1,77.0000023498536,6|0,1:2|0:0,0:0:0:0:
104,243,60781,2,0,L|21:231,2,77.0000023498536,6|0|2,0:3|0:3|1:3,0:0:0:0:
161,325,61307,1,0,0:3:0:0:
246,272,61482,2,0,P|283:255|322:269,1,77.0000023498536,6|0,0:3|0:0,0:3:0:0:
377,344,61833,2,0,P|414:361|453:347,1,77.0000023498536,2|0,1:3|3:3,0:0:0:0:
507,271,62184,2,0,B|499:195|499:195|492:187|492:187|482:101,1,154.000004699707,6|2,0:3|1:3,0:3:0:0:
414,63,62710,1,0,0:3:0:0:
414,63,62798,1,0,3:3:0:0:
414,63,62886,6,0,B|368:34|326:64|339:74|315:100|258:81,1,154.000004699707,6|2,0:3|1:3,0:3:0:0:
180,43,63412,1,0,3:3:0:0:
180,43,63500,1,0,3:3:0:0:
180,43,63588,2,0,P|188:90|193:122,1,77.0000023498536,6|0,0:3|0:3,0:3:0:0:
123,191,63938,1,2,1:3:0:0:
208,262,64114,1,0,0:3:0:0:
208,262,64202,1,0,0:0:0:0:
208,262,64289,6,0,B|274:252|274:252|286:242|286:242|356:230,1,154.000004699707,6|2,0:3|1:3,0:0:0:0:
441,283,64816,1,0,0:3:0:0:
382,365,64991,1,6,0:3:0:0:
382,365,65079,1,8,0:3:0:0:
382,365,65166,2,0,P|339:359|284:351,1,77.0000023498536,8|2,0:3|1:3,0:3:0:0:
230,291,65517,1,8,0:3:0:0:
125,374,65693,6,0,P|56:383|18:355,1,115.50000352478,4|0,0:3|3:3,0:3:0:0:
7,309,66044,2,0,P|-4:271|22:224,1,77.0000023498536,2|0,1:3|0:3,0:0:0:0:
83,170,66395,2,0,P|144:157|203:141,1,115.50000352478,6|0,0:3|0:0,0:3:0:0:
233,176,66746,2,0,P|279:195|321:180,1,77.0000023498536,2|0,1:3|0:3,0:0:0:0:
359,106,67096,6,0,P|401:84|474:114,1,115.50000352478,4|0,0:3|3:3,0:3:0:0:
497,139,67447,2,0,P|515:188|497:221,1,77.0000023498536,2|0,1:3|0:3,0:0:0:0:
432,276,67798,2,0,L|334:269,1,77.0000023498536,6|0,0:3|0:3,0:0:0:0:
275,331,68149,1,2,1:3:0:0:
200,273,68324,1,0,0:3:0:0:
200,273,68412,1,0,3:3:0:0:
200,273,68500,6,0,B|168:258|138:278|148:287|118:308|73:288,1,115.50000352478,4|0,0:3|0:3,0:3:0:0:
47,270,68851,2,0,P|32:230|55:181,1,77.0000023498536,2|0,1:3|3:3,0:0:0:0:
106,122,69202,2,0,P|150:103|212:135,1,115.50000352478,6|0,0:3|0:0,0:3:0:0:
237,170,69553,2,0,L|242:251,1,77.0000023498536,2|8,1:3|0:3,0:0:0:0:
327,332,69903,6,0,B|376:319|376:319|387:311|387:311|458:293,1,115.50000352478,4|4,0:3|0:3,0:3:0:0:
484,284,70254,2,0,P|502:244|478:200,1,77.0000023498536,0|4,0:0|0:3,0:0:0:0:
428,143,70605,1,0,0:3:0:0:
428,143,70781,1,0,1:3:0:0:
356,212,70956,2,0,P|300:199|256:191,1,77.0000023498536,0|8,0:0|0:3,0:0:0:0:
183,121,71307,6,0,P|170:76|189:39,1,77.0000023498536,4|8,0:3|0:3,0:0:0:0:
280,43,71658,2,0,P|293:88|274:125,1,77.0000023498536,4|8,0:3|1:3,0:0:0:0:
239,205,72009,2,0,P|228:241|241:276,1,77.0000023498536,4|8,0:3|0:3,0:0:0:0:
342,270,72360,2,0,P|352:233|339:198,1,77.0000023498536,4|8,0:3|0:3,0:0:0:0:
282,114,72710,5,0,1:3:0:0:
18,39,73412,2,0,L|31:85,1,41.9999987182618,2|0,0:0|0:0,0:0:0:0:
85,157,73763,2,0,L|74:209,1,41.9999987182618,2|0,0:0|0:0,0:0:0:0:
142,272,74114,6,0,B|204:259|204:259|215:245|215:245|297:229,1,140,4|0,3:1|1:0,0:0:0:0:
360,259,74640,2,0,P|379:296|366:336,1,70,4|2,0:3|0:3,0:0:0:0:
309,384,74991,1,0,3:0:0:0:
309,384,75078,1,0,3:0:0:0:
309,384,75166,1,0,1:0:0:0:
225,346,75342,6,0,L|214:264,1,70,0|2,0:0|0:3,0:0:0:0:
284,217,75693,2,0,L|295:135,1,70,0|0,0:0|1:0,0:0:0:0:
243,71,76044,2,0,B|206:47|167:76|174:81|152:108|98:89,1,140,0|4,0:0|0:3,0:0:0:0:
23,72,76570,1,0,1:0:0:0:
13,165,76745,1,0,3:0:0:0:
13,165,76833,1,0,3:0:0:0:
13,165,76921,6,0,P|59:210|149:196,1,140,4|0,0:3|1:0,0:0:0:0:
199,147,77447,2,0,P|241:137|282:154,1,70,4|2,0:3|0:3,0:0:0:0:
343,192,77798,2,0,P|373:254|339:325,1,140,0|0,3:0|3:0,0:0:0:0:
312,344,78236,1,0,3:0:0:0:
312,344,78324,6,0,B|247:334|247:334|236:318|236:318|160:304,1,140,4|0,0:3|1:0,0:0:0:0:
105,358,78851,2,0,P|54:373|29:355,1,70,0|4,0:0|0:3,0:0:0:0:
6,338,79114,1,4,0:3:0:0:
6,338,79202,1,0,1:0:0:0:
56,262,79377,2,0,L|67:178,1,70,2|0,0:3|3:0,0:0:0:0:
9,83,79728,6,0,P|31:31|119:27,1,140,4|0,1:2|1:0,0:0:0:0:
175,80,80254,2,0,P|214:95|262:76,1,70,4|0,0:3|1:0,0:0:0:0:
301,21,80605,2,0,P|340:6|388:25,1,70,4|0,0:3|1:0,0:0:0:0:
441,63,80956,6,0,P|460:101|446:137,1,70,4|0,0:3|1:0,0:0:0:0:
385,187,81307,1,4,0:3:0:0:
385,187,81482,1,0,1:0:0:0:
441,257,81658,2,0,L|522:245,1,70,4|0,0:3|1:0,0:0:0:0:
403,329,82009,1,4,0:3:0:0:
403,329,82096,1,4,0:3:0:0:
403,329,82184,2,0,L|322:317,1,70,0|4,1:0|0:3,0:0:0:0:
248,246,82535,6,0,B|186:253|186:253|167:269|167:269|96:281,1,140,0|0,1:0|1:0,0:0:0:0:
33,235,83061,2,0,P|21:202|38:158,1,70,4|0,0:3|1:0,0:0:0:0:
97,108,83412,1,4,0:3:0:0:
97,108,83500,1,4,0:3:0:0:
97,108,83588,1,0,1:0:0:0:
174,155,83763,6,0,L|253:142,1,70,4|0,0:3|1:0,0:0:0:0:
318,90,84114,2,0,L|321:52,2,35,4|4|0,0:3|0:3|1:0,0:0:0:0:
393,140,84464,2,0,P|405:182|395:211,1,70,0|4,1:0|0:3,0:0:0:0:
326,263,84815,1,0,1:0:0:0:
326,263,84903,1,0,1:0:0:0:
326,263,84991,1,0,1:0:0:0:
380,336,85167,5,6,1:2:0:0:
