osu file format v14

[General]
AudioFilename: audio.mp3
AudioLeadIn: 0
PreviewTime: 48061
Countdown: 0
SampleSet: Soft
StackLeniency: 0.7
Mode: 0
LetterboxInBreaks: 0
WidescreenStoryboard: 0

[Editor]
DistanceSpacing: 1
BeatDivisor: 4
GridSize: 32
TimelineZoom: 4.099998

[Metadata]
Title:Zankyo Sanka (TV Size)
TitleUnicode:残響散歌 (TV Size)
Artist:Aimer
ArtistUnicode:Aimer
Creator:Sotarks
Version:Kujinn's Insane
Source:「鬼滅の刃」遊郭編
Tags:japanese pop j-pop jpop anime demon slayer season 2 two op opening kimetsu no yaiba yuukaku-hen blade of destruction entertainment district arc 鬼滅の刃遊郭編 yumerios kujinn reform basensorex female vocals vocalist エメ
BeatmapID:3399990
BeatmapSetID:1665441

[Difficulty]
HPDrainRate:5.3
CircleSize:4
OverallDifficulty:8
ApproachRate:9
SliderMultiplier:1.62
SliderTickRate:1

[Events]
//Background and Video events
0,0,"bg.jpg",0,0
Video,-300,"video.mp4"
//Break Periods
//Storyboard Layer 0 (Background)
//Storyboard Layer 1 (Fail)
//Storyboard Layer 2 (Pass)
//Storyboard Layer 3 (Foreground)
//Storyboard Layer 4 (Overlay)
//Storyboard Sound Samples

[TimingPoints]
80,350.877192982456,4,2,0,52,1,0
80,-133.333333333333,4,2,0,52,0,0
2887,-153.846153846153,4,2,0,52,0,0
3939,350.877192982456,4,2,0,72,1,0
3939,-105.263157894737,4,2,0,72,0,0
4289,-105.263157894737,4,2,0,62,0,0
9553,-95.2380952380954,4,2,0,82,0,0
20781,-117.647058823529,4,2,0,82,0,0
21131,-117.647058823529,4,2,0,62,0,0
26395,-105.263157894737,4,2,0,62,0,0
32009,-117.647058823529,4,2,0,62,0,0
41658,-95.238095238095,4,2,0,62,0,0
42710,-95.238095238095,4,2,0,72,0,0
46044,-80,4,2,0,72,0,0
48851,-86.9565217391304,4,2,0,82,0,1
69903,-74.0740740740741,4,2,0,82,0,1
71307,-86.9565217391304,4,2,0,82,0,1
72710,-86.9565217391304,4,2,0,82,0,0
74114,-95.2380952380952,4,2,0,72,0,0
79728,-80,4,2,0,82,0,0
85254,-80,4,2,0,5,0,0

[Colours]
Combo1 : 205,235,241
Combo2 : 71,52,182
Combo3 : 134,85,223
Combo4 : 133,245,252

[HitObjects]
64,44,80,5,0,1:0:0:0:
60,51,430,5,0,1:0:0:0:
57,59,781,6,0,P|80:91|132:90,1,91.125003476143,8|0,0:3|1:0,0:0:0:0:
133,99,1132,1,0,1:0:0:0:
225,38,1308,2,0,P|268:36|296:71,1,91.125003476143,8|0,0:3|1:0,0:0:0:0:
294,78,1658,1,0,1:0:0:0:
410,94,1834,6,0,P|399:134|386:192,1,91.125003476143,8|0,0:3|1:0,0:0:0:0:
392,189,2185,1,0,1:0:0:0:
279,234,2360,2,0,P|290:274|303:332,1,91.125003476143,8|8,0:3|0:3,0:0:0:0:
297,329,2711,1,4,0:3:0:0:
228,381,2887,6,0,B|179:336|209:258|257:260|259:264|261:267|313:242|347:184|288:130,1,289.574986744309,0|0,1:0|0:0,0:0:0:0:
294,144,3939,6,0,P|319:197|421:180,1,153.899995890427,6|0,3:1|0:0,0:0:0:0:
442,116,4465,2,0,P|431:73|417:28,1,76.9499979452134,2|0,0:0|0:0,0:0:0:0:
492,243,4816,2,0,P|503:206|512:168,1,76.9499979452134,2|0,0:0|0:0,0:0:0:0:
397,273,5167,1,2,0:3:0:0:
499,341,5342,1,2,0:3:0:0:
504,348,5430,1,2,0:3:0:0:
509,354,5517,1,2,0:3:0:0:
323,335,5693,6,0,L|283:349,1,38.4749989726067,2|0,0:3|0:0,0:0:0:0:
217,376,5868,1,2,0:3:0:0:
210,378,5956,2,0,P|171:366|123:351,1,76.9499979452134
130,361,6219,1,2,0:0:0:0:
7,365,6395,5,2,0:3:0:0:
13,358,6482,2,0,P|0:317|-14:272,1,76.9499979452134,2|0,0:3|0:0,0:0:0:0:
1,273,6746,6,0,P|40:259|96:303,1,115.42499691782,2|0,0:0|0:0,0:0:0:0:
92,308,7096,1,2,0:3:0:0:
153,223,7272,6,0,P|192:237|248:193,1,115.42499691782,2|0,0:0|0:0,0:0:0:0:
246,188,7623,2,0,P|231:146|213:103,1,76.9499979452134,2|0,0:0|0:0,0:0:0:0:
270,43,7974,1,2,0:0:0:0:
191,10,8149,5,0,0:0:0:0:
271,53,8324,1,2,0:3:0:0:
340,133,8500,5,2,0:0:0:0:
419,85,8675,1,2,0:3:0:0:
481,293,8851,6,0,L|432:279,1,38.4749989726067,0|0,1:0|0:0,0:0:0:0:
343,359,9026,1,4,0:3:0:0:
481,299,9202,6,0,L|432:313,1,38.4749989726067,0|0,1:0|0:0,0:0:0:0:
329,255,9377,1,4,0:3:0:0:
181,180,9553,6,0,P|196:237|218:320,1,127.57499610672,4|0,3:1|0:0,0:0:0:0:
207,313,9903,1,0,1:0:0:0:
40,323,10079,2,0,P|86:316|111:281,1,85.0499974044801,4|2,0:3|0:3,0:0:0:0:
0,85,10430,5,0,3:0:0:0:
105,143,10606,1,0,1:0:0:0:
4,213,10781,1,0,0:0:0:0:
117,18,10956,6,0,P|138:65|214:56,1,127.57499610672,2|0,0:3|0:0,0:0:0:0:
214,67,11307,1,0,1:0:0:0:
371,0,11482,2,0,P|329:1|302:33,1,85.0499974044801,0|2,0:0|0:3,0:0:0:0:
358,203,11833,1,4,0:3:0:0:
285,155,12009,1,0,1:0:0:0:
458,78,12184,5,0,3:0:0:0:
463,73,12272,1,0,3:0:0:0:
467,69,12360,2,0,P|451:117|438:158,1,85.0499974044801,4|0,0:3|0:0,0:0:0:0:
457,187,12623,1,0,3:0:0:0:
459,194,12710,1,0,1:0:0:0:
411,307,12886,6,0,P|457:324|492:342,1,85.0499974044801,4|2,0:3|0:3,0:0:0:0:
270,258,13237,1,0,3:0:0:0:
348,369,13412,1,0,1:0:0:0:
258,232,13588,5,0,3:0:0:0:
252,226,13675,1,0,3:0:0:0:
245,222,13763,2,0,P|258:180|281:130,1,85.0499974044801,4|0,0:3|0:0,0:0:0:0:
200,14,14114,1,0,1:0:0:0:
42,139,14289,5,8,0:3:0:0:
48,143,14377,1,8,0:3:0:0:
57,146,14465,1,4,0:3:0:0:
67,146,14553,1,4,0:3:0:0:
78,144,14640,1,0,1:0:0:0:
163,296,14816,1,2,0:3:0:0:
38,224,14991,1,0,3:0:0:0:
256,203,15167,6,0,P|232:259|204:353,1,127.57499610672,4|0,3:1|0:0,0:0:0:0:
219,334,15517,1,0,1:0:0:0:
101,181,15693,2,0,P|137:153|187:165,1,85.0499974044801,4|2,0:3|0:3,0:0:0:0:
310,310,16044,2,0,P|346:338|396:326,1,85.0499974044801,0|0,3:0|1:0,0:0:0:0:
447,280,16395,1,0,0:0:0:0:
212,218,16570,6,0,P|281:193|364:169,1,127.57499610672,2|0,0:3|0:0,0:0:0:0:
335,167,16921,1,0,1:0:0:0:
286,24,17096,2,0,P|277:70|260:123,1,85.0499974044801,0|2,0:0|0:3,0:0:0:0:
406,277,17447,2,0,P|415:231|432:178,1,85.0499974044801,4|0,0:3|1:0,0:0:0:0:
510,92,17798,5,0,3:0:0:0:
505,84,17886,1,0,3:0:0:0:
499,77,17974,2,0,P|461:74|427:120,1,85.0499974044801,4|0,0:3|0:0,0:0:0:0:
407,145,18237,1,0,3:0:0:0:
411,152,18324,1,0,1:0:0:0:
464,298,18500,2,0,P|422:274|304:236,1,170.09999480896,4|0,0:3|3:0,0:0:0:0:
193,368,19026,2,0,P|236:363|263:326,1,85.0499974044801,0|0,1:0|3:0,0:0:0:0:
168,211,19377,5,4,0:3:0:0:
22,308,19553,1,0,3:0:0:0:
33,311,19640,1,0,3:0:0:0:
41,316,19728,1,0,1:0:0:0:
88,178,19903,2,0,P|76:129|64:93,1,85.0499974044801,0|4,0:0|0:3,0:0:0:0:
181,289,20254,6,0,B|224:258|265:281|276:316|273:319|269:323|284:367|332:370|368:341,1,212.6249935112,0|0,1:0|3:0,0:0:0:0:
365,345,20781,6,0,P|417:381|475:360,1,103.275001969814,4|0,3:1|0:0,0:0:0:0:
462,371,21131,2,0,P|477:330|495:289,1,68.8500013132096,0|8,1:0|0:3,0:0:0:0:
343,201,21482,2,0,P|356:232|367:265,1,68.8500013132096,0|4,0:0|0:3,0:0:0:0:
472,147,21833,1,0,1:0:0:0:
478,141,22009,1,8,0:3:0:0:
312,86,22184,6,0,P|273:98|223:46,1,103.275001969814,4|8,0:3|0:3,0:0:0:0:
226,53,22535,1,0,1:0:0:0:
106,21,22710,2,0,P|121:72|149:168,1,137.700002626419,8|4,0:3|0:3,0:0:0:0:
142,162,23149,1,0,3:0:0:0:
139,168,23237,2,0,P|116:198|71:199,1,68.8500013132096,0|8,1:0|0:3,0:0:0:0:
211,317,23588,6,0,P|267:330|336:356,1,103.275001969814,4|0,0:3|0:0,0:0:0:0:
317,341,23938,2,0,P|329:301|341:269,1,68.8500013132096,0|8,1:0|0:3,0:0:0:0:
359,255,24202,1,0,3:0:0:0:
356,248,24289,2,0,P|344:208|332:176,1,68.8500013132096,0|4,0:0|0:3,0:0:0:0:
444,194,24640,1,0,1:0:0:0:
319,101,24816,1,8,0:3:0:0:
493,23,24991,6,0,P|453:39|411:51,1,68.8500013132096,4|8,0:3|0:3,0:0:0:0:
311,106,25342,2,0,P|271:90|229:78,1,68.8500013132096,0|8,1:0|0:3,0:0:0:0:
415,254,25693,6,0,P|424:220|434:187,1,68.8500013132096,2|4,0:3|0:3,0:0:0:0:
318,102,26044,2,0,P|308:68|298:35,1,68.8500013132096,0|8,1:0|0:3,0:0:0:0:
124,142,26395,6,0,P|101:181|161:249,1,115.42499691782,4|0,0:3|0:0,0:0:0:0:
139,238,26746,1,0,1:0:0:0:
87,310,26921,1,8,0:3:0:0:
229,360,27096,1,0,3:0:0:0:
229,360,27184,1,0,3:0:0:0:
229,360,27272,2,0,P|217:314|207:280,1,76.9499979452134,4|0,0:3|1:0,0:0:0:0:
266,226,27623,1,8,0:3:0:0:
174,104,27798,6,0,P|221:121|261:142,1,76.9499979452134,4|8,0:3|0:3,0:0:0:0:
78,30,28149,2,0,P|112:13|149:1,1,76.9499979452134,0|8,1:0|0:3,0:0:0:0:
22,138,28500,1,2,0:3:0:0:
22,138,28588,1,8,0:3:0:0:
22,138,28675,1,6,0:3:0:0:
155,195,28851,1,0,1:0:0:0:
63,287,29026,1,10,0:3:0:0:
237,359,29202,6,0,P|227:321|217:284,1,76.9499979452134,4|0,0:3|0:0,0:0:0:0:
292,208,29553,1,0,1:0:0:0:
196,127,29728,1,8,0:3:0:0:
200,120,29816,1,8,0:3:0:0:
203,113,29903,2,0,P|212:75|222:38,1,76.9499979452134,4|8,0:3|0:3,0:0:0:0:
114,178,30254,1,0,1:0:0:0:
302,93,30430,5,8,0:3:0:0:
298,86,30517,1,8,0:3:0:0:
294,79,30605,2,0,P|339:69|389:135,1,115.42499691782,0|8,1:0|0:3,0:0:0:0:
385,123,30956,1,4,0:3:0:0:
285,253,31131,2,0,P|243:270|204:290,1,76.9499979452134,0|8,1:0|0:3,0:0:0:0:
213,292,31395,1,8,0:3:0:0:
211,300,31482,1,4,0:3:0:0:
426,365,31658,2,0,P|408:309|386:237,1,115.42499691782,0|0,1:0|3:0,0:0:0:0:
391,254,32009,6,0,P|434:268|501:201,2,137.700002626419,4|4|4,0:3|0:3|0:3,0:0:0:0:
264,98,33061,1,4,0:3:0:0:
269,89,33237,1,0,1:0:0:0:
220,22,33412,6,0,P|180:15|133:5,1,68.8500013132096,0|0,0:3|0:0,0:0:0:0:
312,159,33763,2,0,P|345:164|379:171,1,68.8500013132096,4|0,0:3|0:0,0:0:0:0:
294,2,34114,5,4,0:3:0:0:
237,183,34289,1,0,1:0:0:0:
259,90,34465,5,4,0:3:0:0:
264,98,34641,1,0,1:0:0:0:
139,175,34816,6,0,P|103:165|67:159,1,68.8500013132096,4|0,0:3|0:0,0:0:0:0:
0,270,35167,2,0,P|33:276|66:285,1,68.8500013132096,0|0,1:0|0:0,0:0:0:0:
162,364,35517,1,4,0:3:0:0:
256,285,35693,1,8,0:3:0:0:
261,279,35781,1,8,0:3:0:0:
266,274,35868,2,0,P|260:235|252:195,1,68.8500013132096,4|8,0:3|0:3,0:0:0:0:
327,93,36219,6,0,P|360:125|430:109,1,103.275001969814,4|0,0:3|0:0,0:0:0:0:
417,116,36570,2,0,P|453:128|493:140,1,68.8500013132096,0|8,1:0|0:3,0:0:0:0:
494,134,36833,1,8,0:3:0:0:
506,129,36921,1,4,0:3:0:0:
375,221,37096,1,0,1:0:0:0:
512,312,37272,1,4,1:2:0:0:
471,207,37447,5,0,3:0:0:0:
464,203,37535,1,0,3:0:0:0:
458,202,37623,2,0,P|449:260|437:324,1,103.275001969814,4|0,0:3|0:0,0:0:0:0:
441,303,37974,2,0,P|435:342|429:383,1,68.8500013132096,4|0,1:2|0:0,0:0:0:0:
259,280,38324,6,0,P|268:222|275:180,1,68.8500013132096,4|8,0:3|0:3,0:0:0:0:
263,198,38588,1,8,0:3:0:0:
263,191,38675,2,0,P|269:152|275:111,1,68.8500013132096,8|8,0:3|0:3,0:0:0:0:
106,174,39026,6,0,P|97:232|91:267,1,68.8500013132096,4|0,0:3|1:0,0:0:0:0:
107,261,39289,1,0,3:0:0:0:
112,266,39377,2,0,P|106:305|100:346,1,68.8500013132096,0|8,1:0|0:3,0:0:0:0:
170,209,39728,5,4,0:3:0:0:
61,134,39903,1,8,0:3:0:0:
61,134,39991,1,8,0:3:0:0:
61,134,40079,1,4,0:3:0:0:
190,60,40254,1,8,0:3:0:0:
1,22,40430,6,0,P|25:63|93:49,1,103.275001969814,4|0,0:3|0:0,0:0:0:0:
81,57,40781,2,0,P|92:98|99:132,1,68.8500013132096,0|0,1:0|0:0,0:0:0:0:
273,261,41131,2,0,P|262:220|255:186,1,68.8500013132096,4|8,0:3|0:3,0:0:0:0:
298,123,41482,1,4,0:3:0:0:
178,296,41658,6,0,P|237:277|308:355,1,170.09999480896,0|0,1:2|1:0,0:0:0:0:
307,345,42184,1,4,0:3:0:0:
490,328,42360,2,0,P|447:323|422:270,1,85.0499974044801,0|4,1:0|0:3,0:0:0:0:
385,70,42710,6,0,P|370:139|343:255,1,170.09999480896,4|8,1:2|0:3,0:0:0:0:
342,241,43149,1,8,0:3:0:0:
336,249,43237,2,0,P|349:298|358:339,1,85.0499974044801,4|4,0:3|0:3,0:0:0:0:
195,364,43588,1,4,1:2:0:0:
188,358,43675,1,0,0:0:0:0:
181,353,43763,1,4,0:3:0:0:
22,228,43938,5,0,1:0:0:0:
37,217,44026,1,4,0:3:0:0:
52,208,44114,1,4,0:3:0:0:
65,199,44202,1,4,0:3:0:0:
78,194,44289,2,0,P|67:161|59:133,2,42.52499870224,4|0|8,1:2|3:0|0:3,0:0:0:0:
195,59,44640,5,4,0:3:0:0:
140,249,44816,1,4,0:3:0:0:
145,237,44903,1,8,0:3:0:0:
149,225,44991,2,0,P|166:280|182:332,1,85.0499974044801,4|4,1:2|0:3,0:0:0:0:
452,244,45342,5,4,0:3:0:0:
426,260,45430,1,8,0:3:0:0:
396,260,45517,1,8,0:3:0:0:
373,240,45605,1,8,0:3:0:0:
364,212,45693,2,0,P|377:174|386:150,3,42.52499870224,4|8|8|8,0:3|0:3|0:3|0:3,0:0:0:0:
350,89,46044,6,0,P|302:72|250:37,1,101.25,4|0,0:3|0:0,0:0:0:0:
260,53,46307,2,0,P|220:76|229:136,1,101.25,4|0,0:3|0:0,0:0:0:0:
66,229,46570,6,0,P|114:212|166:177,1,101.25,0|0,1:0|0:0,0:0:0:0:
156,193,46833,2,0,P|195:216|186:276,1,101.25,0|0,1:0|0:0,0:0:0:0:
139,314,47096,5,0,1:0:0:0:
413,379,47272,2,0,B|384:334|315:348|315:348|277:285|334:249,1,202.5,4|0,1:2|1:0,0:0:0:0:
433,184,47798,5,0,1:0:0:0:
253,76,47974,1,0,1:0:0:0:
270,174,48149,5,2,0:0:0:0:
417,67,48324,2,0,B|347:49|332:128|357:97|348:210|250:175,1,202.5,4|2,1:2|0:3,0:0:0:0:
42,277,48851,6,0,P|113:303|184:346,1,139.725002665043,6|0,3:1|0:0,0:0:0:0:
168,334,49202,2,0,P|200:317|204:259,1,93.1500017766953,2|0,1:3|0:0,0:0:0:0:
12,183,49553,5,6,0:3:0:0:
168,81,49728,1,0,0:3:0:0:
29,34,49903,5,2,1:3:0:0:
24,26,50079,1,0,0:3:0:0:
173,252,50254,6,0,P|187:199|200:154,1,93.1500017766953,6|0,0:3|0:0,0:3:0:0:
0,306,50605,2,0,P|48:318|88:283,1,93.1500017766953,2|0,1:3|3:3,0:0:0:0:
224,60,50956,2,0,P|159:84|43:153,1,186.300003553391,6|2,0:3|1:3,0:3:0:0:
280,258,51482,5,0,0:3:0:0:
288,258,51570,1,0,3:3:0:0:
300,262,51658,2,0,P|287:217|192:214,1,139.725002665043,6|0,0:3|0:0,0:3:0:0:
204,203,52009,2,0,P|218:261|228:310,1,93.1500017766953,2|0,1:3|3:3,0:0:0:0:
398,67,52360,2,0,P|370:103|325:106,1,93.1500017766953,6|0,0:3|0:3,0:3:0:0:
487,208,52710,1,2,1:3:0:0:
379,307,52886,1,0,0:3:0:0:
325,106,53061,5,6,0:3:0:0:
331,100,53149,2,0,P|344:149|359:202,1,93.1500017766953,8|8,0:3|0:3,0:0:0:0:
340,204,53412,1,2,1:3:0:0:
459,274,53588,1,0,0:3:0:0:
351,366,53763,1,6,0:3:0:0:
359,362,53851,1,8,0:3:0:0:
366,358,53938,1,8,0:3:0:0:
195,206,54114,1,2,1:3:0:0:
187,202,54202,1,8,0:3:0:0:
179,198,54289,2,0,P|173:223|164:259,1,46.5750008883476,8|8,0:3|0:3,0:3:0:0:
77,362,54465,6,0,P|63:295|44:211,1,139.725002665043,4|0,0:3|3:3,0:3:0:0:
28,212,54816,1,2,1:3:0:0:
139,132,54991,1,0,0:3:0:0:
23,16,55167,2,0,P|73:69|152:33,1,139.725002665043,6|0,0:3|0:0,0:3:0:0:
132,56,55517,2,0,P|118:104|103:158,1,93.1500017766953,2|0,1:3|0:3,0:0:0:0:
215,347,55868,6,0,P|201:299|186:245,1,93.1500017766953,4|0,0:3|0:0,0:3:0:0:
180,252,56131,1,0,3:3:0:0:
172,246,56219,1,2,1:3:0:0:
258,158,56395,1,0,0:3:0:0:
275,44,56570,5,6,0:3:0:0:
398,153,56746,1,0,0:3:0:0:
512,76,56921,2,0,P|462:64|421:46,1,93.1500017766953,2|0,1:3|0:3,0:3:0:0:
419,41,57184,5,0,3:3:0:0:
414,36,57272,2,0,P|376:60|415:160,1,139.725002665043,4|0,0:3|0:0,0:3:0:0:
394,147,57623,2,0,P|381:196|367:258,1,93.1500017766953,2|0,1:3|3:3,0:0:0:0:
220,334,57974,2,0,P|268:355|315:385,1,93.1500017766953,6|0,0:3|0:3,0:0:0:0:
151,181,58324,2,0,P|102:211|45:187,1,93.1500017766953,2|0,1:3|3:3,0:0:0:0:
61,211,58588,5,0,3:3:0:0:
55,217,58675,2,0,P|39:161|21:111,1,93.1500017766953,4|0,0:3|0:3,0:3:0:0:
11,115,58938,1,0,3:3:0:0:
4,110,59026,1,0,1:3:0:0:
98,10,59202,2,0,P|134:44|206:26,1,93.1500017766953,4|0,0:3|0:3,0:3:0:0:
339,111,59553,2,0,P|293:114|261:146,1,93.1500017766953,0|0,1:3|0:3,0:3:0:0:
362,287,59903,5,8,0:3:0:0:
368,281,59991,1,8,0:3:0:0:
376,274,60079,2,0,P|441:304|515:333,1,139.725002665043,6|0,3:1|0:0,0:0:0:0:
510,322,60430,1,6,1:2:0:0:
342,384,60605,1,0,0:0:0:0:
426,208,60781,6,0,P|414:156|403:101,1,93.1500017766953,6|0,0:3|0:3,0:0:0:0:
221,285,61131,1,2,1:3:0:0:
269,153,61307,1,0,0:3:0:0:
392,341,61482,6,0,P|363:308|297:313,1,93.1500017766953,6|0,0:3|0:0,0:3:0:0:
108,370,61833,2,0,P|124:318|137:268,1,93.1500017766953,2|0,1:3|3:3,0:0:0:0:
70,72,62184,2,0,P|84:124|206:141,1,186.300003553391,6|2,0:3|1:3,0:3:0:0:
392,35,62710,5,0,0:3:0:0:
383,30,62798,1,0,3:3:0:0:
373,27,62886,2,0,P|330:30|319:122,1,139.725002665043,6|0,0:3|0:0,0:3:0:0:
314,116,63237,2,0,P|374:132|409:145,1,93.1500017766953,2|0,1:3|3:3,0:0:0:0:
270,291,63588,2,0,P|226:275|180:264,1,93.1500017766953,6|0,0:3|0:3,0:3:0:0:
409,238,63938,1,2,1:3:0:0:
307,375,64114,1,0,0:3:0:0:
138,189,64289,6,0,P|194:176|243:164,1,93.1500017766953,6|0,0:3|0:0,0:0:0:0:
229,168,64640,1,2,1:3:0:0:
96,62,64816,1,0,0:3:0:0:
47,216,64991,5,6,0:3:0:0:
195,83,65167,1,8,0:3:0:0:
5,11,65342,1,2,1:3:0:0:
9,21,65430,1,8,0:3:0:0:
12,30,65517,2,0,P|20:53|31:84,1,46.5750008883476,8|8,0:3|0:3,0:3:0:0:
116,149,65693,6,0,P|101:210|79:298,1,139.725002665043,4|0,0:3|3:3,0:3:0:0:
71,284,66044,1,2,1:3:0:0:
207,157,66219,1,0,0:3:0:0:
0,166,66395,2,0,P|29:201|89:198,1,93.1500017766953,6|0,0:3|0:3,0:3:0:0:
208,303,66746,2,0,P|160:322|118:348,1,93.1500017766953,2|0,1:3|0:3,0:0:0:0:
304,185,67096,6,0,P|332:239|428:224,1,139.725002665043,4|0,0:3|3:3,0:3:0:0:
413,236,67447,2,0,P|450:220|505:260,1,93.1500017766953,2|0,1:3|0:3,0:0:0:0:
381,352,67798,1,6,0:3:0:0:
282,238,67974,1,0,0:3:0:0:
383,153,68149,2,0,P|375:101|362:46,1,93.1500017766953,2|0,1:3|0:3,0:3:0:0:
320,42,68412,5,0,3:3:0:0:
325,36,68500,2,0,P|277:28|242:122,1,139.725002665043,4|0,0:3|0:3,0:3:0:0:
225,101,68851,1,2,1:3:0:0:
308,142,69026,1,0,3:3:0:0:
123,247,69202,6,0,P|169:226|225:210,1,93.1500017766953,6|0,0:3|0:3,0:3:0:0:
32,112,69553,1,2,1:3:0:0:
146,24,69728,5,8,0:3:0:0:
154,18,69816,1,8,0:3:0:0:
162,13,69903,2,0,P|147:75|129:155,1,109.350000417137,4|0,0:3|0:3,0:3:0:0:
84,174,70167,2,0,P|94:205|120:293,1,109.350000417137,4|0,0:3|0:3,0:3:0:0:
72,353,70430,2,0,P|108:300|218:312,1,164.025000625706,4|0,0:3|0:0,0:3:0:0:
265,345,70781,5,0,1:3:0:0:
358,303,70956,1,0,0:0:0:0:
453,264,71131,1,8,0:3:0:0:
506,381,71307,6,0,P|463:386|419:332,1,93.1500017766953,4|8,0:3|0:3,0:0:0:0:
354,229,71658,2,0,P|368:177|379:122,1,93.1500017766953,4|8,0:3|1:3,0:0:0:0:
318,51,72009,5,4,0:3:0:0:
455,173,72184,1,8,0:3:0:0:
249,273,72360,1,4,0:3:0:0:
290,144,72535,1,8,0:3:0:0:
483,313,72710,5,0,1:3:0:0:
137,293,74114,6,0,P|83:317|13:345,1,127.57499610672,4|0,3:1|0:0,0:0:0:0:
12,337,74465,1,0,1:0:0:0:
277,371,74640,2,0,P|233:374|197:329,1,85.0499974044801,4|2,0:3|0:3,0:0:0:0:
332,254,74991,2,0,P|378:271|420:289,1,85.0499974044801,0|0,3:0|1:0,0:0:0:0:
455,358,75342,1,0,0:0:0:0:
212,205,75517,6,0,P|227:147|245:64,1,127.57499610672,2|0,0:3|0:0,0:0:0:0:
256,69,75868,1,0,1:0:0:0:
169,27,76044,2,0,P|158:78|145:121,1,85.0499974044801,0|2,0:0|0:3,0:0:0:0:
300,256,76395,2,0,P|311:205|324:162,1,85.0499974044801,4|0,0:3|1:0,0:0:0:0:
138,281,76746,5,0,3:0:0:0:
142,273,76833,1,0,3:0:0:0:
145,265,76921,2,0,P|95:268|68:340,1,127.57499610672,4|0,0:3|3:0,0:0:0:0:
54,342,77272,1,0,1:0:0:0:
243,376,77447,2,0,P|232:328|217:277,1,85.0499974044801,4|2,0:3|0:3,0:0:0:0:
315,213,77798,1,0,3:0:0:0:
195,128,77974,1,0,1:0:0:0:
287,33,78149,2,0,L|335:24,1,42.52499870224,0|0,3:0|3:0,0:0:0:0:
436,66,78324,5,4,0:3:0:0:
445,63,78412,2,0,P|431:114|414:179,1,85.0499974044801,8|0,0:3|0:0,0:0:0:0:
443,170,78675,1,0,1:0:0:0:
344,218,78851,1,0,0:0:0:0:
425,306,79026,1,4,0:3:0:0:
420,311,79114,1,4,0:3:0:0:
414,316,79202,2,0,P|460:335|516:360,1,85.0499974044801,0|2,1:0|0:3,0:0:0:0:
273,384,79553,1,0,3:0:0:0:
96,311,79728,6,0,P|89:260|171:212,1,151.875,4|0,1:2|0:0,0:0:0:0:
164,210,80079,2,0,P|214:253|265:239,1,101.25,0|4,1:0|0:3,0:0:0:0:
53,150,80430,5,0,1:0:0:0:
259,28,80605,1,4,0:3:0:0:
93,17,80781,5,0,1:0:0:0:
101,23,80956,1,4,0:3:0:0:
262,134,81131,6,0,P|202:129|163:210,1,151.875,0|4,1:0|0:3,0:0:0:0:
151,203,81482,2,0,P|166:259|176:315,1,101.25,0|4,1:0|0:3,0:0:0:0:
381,355,81833,2,0,P|332:363|279:381,1,101.25,0|4,1:0|0:3,0:0:0:0:
320,65,82184,2,0,P|335:121|345:177,1,101.25,0|4,1:0|0:3,0:0:0:0:
269,299,82535,5,0,1:0:0:0:
416,232,82710,2,0,P|473:248|528:280,1,101.25,4|0,0:3|1:0,0:0:0:0:
266,143,83061,2,0,P|223:176|166:165,1,101.25,4|0,0:3|1:0,0:0:0:0:
380,64,83412,1,4,0:3:0:0:
377,56,83500,1,4,0:3:0:0:
374,48,83588,1,0,1:0:0:0:
418,189,83763,1,4,0:3:0:0:
288,73,83938,5,0,1:0:0:0:
483,133,84114,1,0,1:0:0:0:
249,265,84289,5,0,1:0:0:0:
363,128,84465,1,0,1:0:0:0:
156,170,84640,5,4,0:3:0:0:
407,307,84816,1,0,1:0:0:0:
414,303,84903,1,0,1:0:0:0:
421,300,84991,1,0,1:0:0:0:
226,331,85167,6,0,B|202:376|153:382|105:336|111:330|118:325|69:289|12:309|1:376,1,253.125,6|0,1:2|0:0,0:0:0:0:
