osu file format v14

[General]
AudioFilename: audio.mp3
AudioLeadIn: 0
PreviewTime: 48061
Countdown: 0
SampleSet: Soft
StackLeniency: 0.7
Mode: 0
LetterboxInBreaks: 0
WidescreenStoryboard: 0

[Editor]
DistanceSpacing: 1
BeatDivisor: 4
GridSize: 8
TimelineZoom: 2

[Metadata]
Title:Zankyo Sanka (TV Size)
TitleUnicode:残響散歌 (TV Size)
Artist:Aimer
ArtistUnicode:Aimer
Creator:Sotarks
Version:Expert
Source:「鬼滅の刃」遊郭編
Tags:japanese pop j-pop jpop anime demon slayer season 2 two op opening kimetsu no yaiba yuukaku-hen blade of destruction entertainment district arc 鬼滅の刃遊郭編 yumerios kujinn reform basensorex female vocals vocalist エメ
BeatmapID:3399989
BeatmapSetID:1665441

[Difficulty]
HPDrainRate:6
CircleSize:4
OverallDifficulty:8.7
ApproachRate:9.2
SliderMultiplier:1.72
SliderTickRate:1

[Events]
//Background and Video events
Video,-300,"video.mp4"
0,0,"bg.jpg",0,0
//Break Periods
//Storyboard Layer 0 (Background)
//Storyboard Layer 1 (Fail)
//Storyboard Layer 2 (Pass)
//Storyboard Layer 3 (Foreground)
//Storyboard Layer 4 (Overlay)
//Storyboard Sound Samples

[TimingPoints]
80,350.877192982456,4,2,0,52,1,0
80,-121.951219512195,4,2,0,52,0,0
2887,-138.888888888889,4,2,0,52,0,0
3939,350.877192982456,4,2,0,72,1,0
3939,-98.0392156862745,4,2,0,72,0,0
4289,-121.951219512195,4,2,0,62,0,0
9553,-98.0392156862745,4,2,0,82,0,0
21131,-108.695652173913,4,2,0,62,0,0
32009,-121.951219512195,4,2,0,62,0,0
42710,-98.0392156862744,4,2,0,72,0,0
48324,-89.2857142857143,4,2,0,72,0,0
48851,-98.0392156862745,4,2,0,82,0,0
60430,-81.9672131147541,4,2,0,82,0,0
60781,-98.0392156862745,4,2,0,82,0,0
69903,-89.2857142857143,4,2,0,82,0,0
74114,-98.0392156862745,4,2,0,72,0,0
79728,-98.0392156862745,4,2,0,82,0,0
85254,-98.0392156862745,4,2,0,5,0,0

[Colours]
Combo1 : 205,235,241
Combo2 : 71,52,182
Combo3 : 134,85,223
Combo4 : 133,245,252

[HitObjects]
350,129,80,5,0,1:0:0:0:
126,240,430,1,0,1:0:0:0:
350,384,781,6,0,P|358:340|371:262,1,105.780001614075,8|0,0:3|1:0,0:0:0:0:
374,248,1132,1,0,1:0:0:0:
237,316,1308,2,0,P|229:272|216:194,1,105.780001614075,8|0,0:3|1:0,0:0:0:0:
213,180,1659,1,0,1:0:0:0:
39,280,1834,2,0,P|47:236|60:158,1,105.780001614075,8|0,0:3|1:0,0:0:0:0:
63,144,2185,1,0,1:0:0:0:
189,18,2360,5,8,0:3:0:0:
163,5,2448,1,4,0:3:0:0:
257,129,2623,5,8,0:3:0:0:
231,142,2711,1,4,0:3:0:0:
330,27,2887,6,0,B|404:12|418:114|562:107|538:48|449:-3|359:110,1,340.560008314453,0|0,1:0|0:0,0:0:0:0:
318,180,3939,6,0,P|340:273|354:370,1,175.440001070801,6|0,3:1|0:0,0:0:0:0:
224,288,4465,2,0,P|169:299|129:313,1,70.5200010760498,2|0,0:0|0:0,0:0:0:0:
44,152,4816,2,0,P|87:159|128:172,1,70.5200010760498,2|0,0:0|0:0,0:0:0:0:
258,77,5167,1,2,0:3:0:0:
258,77,5254,1,2,0:3:0:0:
258,77,5342,6,0,P|224:31|126:39,1,141.0400021521,2|2,0:0|0:0,0:0:0:0:
261,208,5868,2,0,P|302:194|345:187,1,70.5200010760498,2|0,0:0|0:0,0:0:0:0:
459,86,6219,2,0,P|417:72|374:65,1,70.5200010760498,2|2,0:0|0:0,0:0:0:0:
481,217,6570,1,2,0:3:0:0:
384,310,6746,6,0,P|303:316|220:344,1,141.0400021521,2|2,0:0|0:0,0:0:0:0:
48,287,7272,2,0,P|76:345|86:378,1,70.5200010760498,2|0,0:0|0:0,0:0:0:0:
213,170,7623,2,0,P|185:228|175:261,1,70.5200010760498,2|0,0:0|0:0,0:0:0:0:
56,128,7974,6,0,P|73:70|171:46,1,141.0400021521,2|2,0:0|0:0,0:0:0:0:
311,115,8500,1,2,0:0:0:0:
180,31,8675,1,2,0:0:0:0:
318,245,8851,5,0,1:0:0:0:
436,25,9026,1,4,0:3:0:0:
323,249,9202,1,0,1:0:0:0:
441,29,9377,1,4,0:3:0:0:
276,124,9553,6,0,B|346:138|346:138|363:164|363:164|450:183,1,175.440001070801,4|0,3:1|1:0,0:0:0:0:
307,317,10079,1,4,0:3:0:0:
467,200,10254,1,2,0:3:0:0:
330,48,10430,1,0,3:0:0:0:
330,48,10517,1,0,3:0:0:0:
330,48,10605,1,0,1:0:0:0:
196,197,10781,6,0,P|251:247|359:212,1,175.440001070801
222,80,11307,1,0,1:0:0:0:
353,24,11482,2,0,P|340:83|331:127,1,87.7200005354004,0|2,0:0|0:3,0:0:0:0:
468,239,11833,1,4,0:3:0:0:
313,342,12009,1,0,1:0:0:0:
313,342,12096,1,0,3:0:0:0:
313,342,12184,1,0,3:0:0:0:
313,342,12272,1,0,3:0:0:0:
313,342,12360,6,0,P|250:353|204:362,1,87.7200005354004,4|0,0:3|0:0,0:0:0:0:
109,253,12710,1,0,1:0:0:0:
257,152,12886,2,0,P|244:211|235:255,1,87.7200005354004,4|2,0:3|0:3,0:0:0:0:
124,117,13237,1,0,3:0:0:0:
124,117,13324,1,0,3:0:0:0:
124,117,13412,1,0,1:0:0:0:
326,53,13588,2,0,L|276:38,1,43.8600002677002,0|0,3:0|3:0,0:0:0:0:
181,0,13763,6,0,P|190:42|199:85,1,87.7200005354004,4|0,0:3|0:0,0:0:0:0:
147,306,14114,1,0,1:0:0:0:
315,191,14289,1,8,0:3:0:0:
112,151,14465,1,4,0:3:0:0:
117,172,14552,1,4,0:3:0:0:
123,193,14640,1,0,1:0:0:0:
256,113,14816,1,2,0:3:0:0:
65,278,14991,2,0,L|117:293,1,43.8600002677002,0|0,3:0|3:0,0:0:0:0:
295,203,15167,6,0,B|225:217|225:217|208:243|208:243|121:262,1,175.440001070801,4|0,3:1|1:0,0:0:0:0:
273,384,15693,2,0,P|289:326|294:298,1,87.7200005354004,4|2,0:3|0:3,0:0:0:0:
151,159,16044,1,0,3:0:0:0:
151,159,16131,1,0,3:0:0:0:
151,159,16219,1,0,1:0:0:0:
355,29,16395,6,0,P|304:85|198:62,1,175.440001070801
400,176,16921,1,0,1:0:0:0:
251,223,17096,2,0,P|259:179|271:137,1,87.7200005354004,0|2,0:0|0:3,0:0:0:0:
370,305,17447,1,4,0:3:0:0:
370,305,17535,1,0,0:0:0:0:
370,305,17623,1,0,1:0:0:0:
130,267,17798,2,0,L|144:315,1,43.8600002677002,0|0,3:0|3:0,0:0:0:0:
231,368,17974,5,4,0:3:0:0:
34,274,18149,1,0,0:0:0:0:
34,274,18237,1,0,0:0:0:0:
34,274,18324,1,0,1:0:0:0:
238,159,18500,2,0,P|225:201|217:244,1,87.7200005354004,4|2,0:3|0:3,0:0:0:0:
100,78,18851,1,0,3:0:0:0:
273,10,19026,1,0,1:0:0:0:
91,75,19202,1,0,3:0:0:0:
329,216,19377,5,4,0:3:0:0:
216,130,19553,1,0,3:0:0:0:
216,130,19640,1,0,3:0:0:0:
216,130,19728,1,0,1:0:0:0:
431,42,19903,1,0,0:0:0:0:
224,319,20254,2,0,P|138:337|75:252,1,175.440001070801,0|0,1:0|3:0,0:0:0:0:
8,147,20781,6,0,P|66:151|164:177,1,131.580000803101,4|0,3:1|0:0,0:0:0:0:
217,206,21131,2,0,P|216:148|197:109,1,79.1199973439942,0|8,1:0|0:3,0:0:0:0:
272,0,21482,1,0,0:0:0:0:
130,82,21658,1,4,0:3:0:0:
299,199,21833,1,0,1:0:0:0:
329,73,22009,1,8,0:3:0:0:
217,206,22184,6,0,P|238:302|244:345,1,118.679996015991,4|8,0:3|0:3,0:0:0:0:
184,370,22535,2,0,P|130:375|96:343,1,79.1199973439942,0|8,1:0|0:3,0:0:0:0:
274,268,22886,1,2,0:3:0:0:
293,272,22973,1,8,0:3:0:0:
312,276,23061,1,4,0:3:0:0:
184,196,23237,1,0,1:0:0:0:
302,133,23412,1,8,0:3:0:0:
100,274,23588,6,0,P|79:167|72:139,1,118.679996015991,4|0,0:3|0:0,0:0:0:0:
38,77,23938,2,0,P|93:71|135:98,1,79.1199973439942,0|8,1:0|0:3,0:0:0:0:
138,98,24202,1,0,0:0:0:0:
138,98,24289,1,0,0:0:0:0:
292,37,24465,1,4,0:3:0:0:
192,184,24640,1,0,1:0:0:0:
361,281,24816,1,8,0:3:0:0:
243,366,24991,6,0,P|233:311|226:274,1,79.1199973439942,4|8,0:3|0:3,0:0:0:0:
321,191,25342,2,0,P|328:152|335:113,1,79.1199973439942,0|8,1:0|0:3,0:0:0:0:
181,18,25693,2,0,L|189:59,1,39.5599986719971,2|8,0:3|0:3,0:0:0:0:
240,131,25868,2,0,L|232:172,1,39.5599986719971,4|0,0:3|0:0,0:0:0:0:
156,244,26044,1,0,1:0:0:0:
343,171,26219,1,8,0:3:0:0:
266,339,26395,6,0,P|321:380|411:359,1,158.239994687988,4|0,0:3|1:0,0:0:0:0:
487,230,26921,1,8,0:3:0:0:
343,171,27096,2,0,P|361:231|369:260,1,79.1199973439942,0|4,0:0|0:3,0:0:0:0:
461,98,27447,1,0,1:0:0:0:
461,98,27535,1,0,0:0:0:0:
461,98,27623,1,8,0:3:0:0:
250,169,27798,6,0,P|197:157|163:148,1,79.1199973439942,4|8,0:3|0:3,0:0:0:0:
146,140,28061,1,8,0:3:0:0:
146,140,28149,1,0,1:0:0:0:
278,31,28324,1,8,0:3:0:0:
89,229,28500,1,2,0:3:0:0:
211,326,28675,1,6,0:3:0:0:
211,326,28763,1,0,0:0:0:0:
211,326,28851,2,0,P|200:287|188:250,1,79.1199973439942,0|10,1:0|0:3,0:0:0:0:
42,68,29202,6,0,P|98:115|196:88,1,158.239994687988,4|0,0:3|1:0,0:0:0:0:
305,35,29728,1,8,0:3:0:0:
305,35,29816,1,8,0:3:0:0:
305,35,29903,2,0,P|287:95|279:124,1,79.1199973439942,4|8,0:3|0:3,0:0:0:0:
399,231,30254,1,0,1:0:0:0:
281,322,30430,1,8,0:3:0:0:
281,322,30517,1,8,0:3:0:0:
281,322,30605,6,0,P|206:333|141:350,1,118.679996015991,0|8,1:0|0:3,0:0:0:0:
126,327,30956,1,4,0:3:0:0:
306,210,31131,2,0,P|231:199|166:182,1,118.679996015991,0|8,1:0|0:3,0:0:0:0:
151,205,31482,1,4,0:3:0:0:
283,98,31658,1,0,1:0:0:0:
289,79,31745,1,0,3:0:0:0:
291,59,31833,1,0,3:0:0:0:
288,40,31921,1,0,3:0:0:0:
279,22,32009,6,0,B|217:35|217:35|201:56|201:56|148:68,1,141.0400021521,4|4,0:3|0:3,0:0:0:0:
40,32,32535,1,0,0:0:0:0:
72,138,32710,2,0,L|91:205,1,70.5200010760498,4|0,0:3|0:0,0:0:0:0:
55,325,33061,1,4,0:3:0:0:
184,246,33237,1,0,1:0:0:0:
221,382,33412,6,0,P|175:375|143:345,1,70.5200010760498,0|0,0:3|0:0,0:0:0:0:
311,251,33763,2,0,P|357:258|389:288,1,70.5200010760498,4|0,0:3|0:0,0:0:0:0:
461,347,34114,1,4,0:3:0:0:
431,194,34289,1,0,1:0:0:0:
468,350,34465,1,4,0:3:0:0:
438,197,34640,1,0,1:0:0:0:
316,344,34816,6,0,P|305:299|291:260,1,70.5200010760498,4|0,0:3|0:0,0:0:0:0:
190,97,35167,2,0,P|178:162|164:227,1,105.780001614075,0|0,1:0|0:0,0:0:0:0:
160,232,35517,1,4,0:3:0:0:
304,156,35693,1,8,0:3:0:0:
304,156,35780,1,8,0:3:0:0:
304,156,35868,1,4,0:3:0:0:
214,327,36044,1,8,0:3:0:0:
389,237,36219,6,0,P|438:245|475:255,1,70.5200010760498,4|0,0:3|0:0,0:0:0:0:
512,111,36570,2,0,P|463:119|426:129,1,70.5200010760498,0|8,1:0|0:3,0:0:0:0:
410,113,36833,1,8,0:3:0:0:
410,113,36921,1,4,0:3:0:0:
236,218,37096,1,0,1:0:0:0:
290,46,37272,2,0,P|300:79|308:113,1,70.5200010760498,4|0,1:2|0:0,0:0:0:0:
337,352,37623,5,4,0:3:0:0:
140,259,37798,1,0,1:0:0:0:
300,142,37974,2,0,B|242:130|242:130|230:107|230:107|163:92,1,141.0400021521,4|4,1:2|0:3,0:0:0:0:
268,232,38500,1,8,0:3:0:0:
291,240,38587,1,8,0:3:0:0:
315,241,38675,1,8,0:3:0:0:
338,233,38763,1,8,0:3:0:0:
358,218,38851,2,0,P|368:184|376:150,1,70.5200010760498,8|4,0:3|0:3,0:0:0:0:
455,280,39202,5,0,1:0:0:0:
276,148,39377,1,0,1:0:0:0:
446,54,39553,1,8,0:3:0:0:
261,159,39728,1,4,0:3:0:0:
437,200,39903,1,8,0:3:0:0:
437,200,39991,1,8,0:3:0:0:
437,200,40079,1,4,0:3:0:0:
288,49,40254,1,8,0:3:0:0:
200,200,40430,6,0,P|259:187|294:181,1,70.5200010760498,4|0,0:3|0:0,0:0:0:0:
446,54,40781,2,0,P|411:60|377:68,1,70.5200010760498,0|0,1:0|0:0,0:0:0:0:
174,39,41131,5,4,0:3:0:0:
359,100,41307,1,8,0:3:0:0:
166,42,41482,1,4,0:3:0:0:
282,265,41658,2,0,P|288:229|298:170,1,70.5200010760498,0|4,1:2|0:3,0:0:0:0:
129,169,42009,2,0,P|157:192|203:230,1,70.5200010760498,0|4,1:0|0:3,0:0:0:0:
277,82,42360,2,0,P|242:94|186:115,1,70.5200010760498,0|4,1:0|0:3,0:0:0:0:
412,261,42710,6,0,B|433:215|433:215|411:179|411:179|438:149|430:78,1,175.440001070801,4|8,1:2|0:3,0:0:0:0:
411,72,43149,1,8,0:3:0:0:
411,72,43237,6,0,L|363:84,1,43.8600002677002,4|8,0:3|0:3,0:0:0:0:
307,206,43412,2,0,L|264:195,1,43.8600002677002,4|8,0:3|0:3,0:0:0:0:
148,78,43588,2,0,P|98:90|52:99,1,87.7200005354004,4|4,1:2|0:3,0:0:0:0:
5,257,43938,5,0,1:0:0:0:
40,281,44025,1,4,0:3:0:0:
83,286,44113,1,4,0:3:0:0:
124,270,44201,1,4,0:3:0:0:
152,237,44288,1,4,1:2:0:0:
307,94,44465,1,8,0:3:0:0:
203,321,44640,5,4,0:3:0:0:
349,216,44816,2,0,L|306:205,1,43.8600002677002,4|8,0:3|0:3,0:0:0:0:
161,138,44991,2,0,L|203:127,1,43.8600002677002,4|8,1:2|0:3,0:0:0:0:
317,66,45167,1,4,0:3:0:0:
204,242,45342,5,4,0:3:0:0:
162,254,45429,1,8,0:3:0:0:
118,249,45517,1,8,0:3:0:0:
81,227,45605,1,8,0:3:0:0:
55,192,45692,1,4,0:3:0:0:
45,150,45780,1,8,0:3:0:0:
52,107,45868,1,8,0:3:0:0:
76,70,45956,1,8,0:3:0:0:
112,46,46044,6,0,P|164:55|210:72,1,87.7200005354004,4|0,0:3|0:0,0:0:0:0:
254,118,46307,2,0,P|295:104|339:98,1,87.7200005354004,4|0,0:3|0:0,0:0:0:0:
466,63,46570,6,0,P|448:119|443:157,1,87.7200005354004,0|0,1:0|0:0,0:0:0:0:
385,206,46833,2,0,P|403:262|408:300,1,87.7200005354004,0|0,1:0|0:0,0:0:0:0:
463,381,47096,5,0,1:0:0:0:
227,254,47272,1,4,1:2:0:0:
227,254,47623,5,0,1:0:0:0:
443,147,47798,1,0,1:0:0:0:
224,262,47974,1,0,1:0:0:0:
435,144,48149,1,2,0:0:0:0:
333,345,48324,6,0,B|347:288|347:288|322:245|322:245|346:213|339:151,1,192.640002351563,4|2,1:2|0:3,0:0:0:0:
297,95,48763,1,2,0:3:0:0:
297,95,48851,6,0,P|231:108|188:121,1,87.7200005354004,6|0,3:1|0:0,0:0:0:0:
43,230,49202,2,0,P|86:237|128:248,1,87.7200005354004,2|0,1:3|0:0,0:0:0:0:
316,333,49553,1,6,0:3:0:0:
184,157,49728,1,0,0:3:0:0:
404,85,49903,1,2,1:3:0:0:
285,0,50079,1,0,0:3:0:0:
374,227,50254,6,0,P|465:234|515:156,1,175.440001070801,6|2,0:3|1:3,0:3:0:0:
288,103,50781,1,0,3:3:0:0:
288,103,50868,1,0,3:3:0:0:
288,103,50956,2,0,P|279:160|273:193,1,87.7200005354004,6|0,0:3|0:3,0:3:0:0:
104,366,51307,2,0,P|96:322|89:279,1,87.7200005354004,2|0,1:3|0:3,0:3:0:0:
83,250,51570,1,0,3:3:0:0:
83,250,51658,6,0,P|171:224|246:303,1,175.440001070801,6|2,0:3|1:3,0:3:0:0:
401,353,52184,1,0,3:3:0:0:
401,353,52272,1,0,3:3:0:0:
401,353,52360,2,0,P|393:309|386:266,1,87.7200005354004,6|0,0:3|0:3,0:3:0:0:
228,150,52710,2,0,P|235:106|242:63,1,87.7200005354004,2|0,1:3|0:3,0:3:0:0:
453,158,53061,5,6,0:3:0:0:
432,196,53148,1,8,0:3:0:0:
396,220,53236,1,8,0:3:0:0:
353,223,53324,1,8,0:3:0:0:
314,205,53411,1,2,1:3:0:0:
155,85,53588,1,0,0:3:0:0:
52,278,53763,2,0,P|108:289|133:295,1,43.8600002677002,6|8,0:3|0:3,0:3:0:0:
215,192,53938,2,0,P|159:203|134:209,1,43.8600002677002,8|8,0:3|0:3,0:3:0:0:
73,147,54114,2,0,P|77:168|81:190,1,43.8600002677002,2|8,1:3|0:3,0:3:0:0:
190,340,54289,2,0,P|193:318|198:296,1,43.8600002677002,8|8,0:3|0:3,0:3:0:0:
301,81,54465,6,0,P|242:119|158:93,1,131.580000803101,4|0,0:3|3:3,0:3:0:0:
155,85,54816,1,2,1:3:0:0:
338,188,54991,1,0,0:3:0:0:
198,296,55167,2,0,P|205:252|212:209,1,87.7200005354004,6|0,0:3|0:3,0:3:0:0:
339,330,55517,1,2,1:3:0:0:
106,208,55693,1,0,0:3:0:0:
266,72,55868,6,0,P|351:89|408:103,1,131.580000803101,4|0,0:3|3:3,0:3:0:0:
423,108,56219,1,2,1:3:0:0:
239,208,56395,1,0,0:3:0:0:
443,331,56570,1,6,0:3:0:0:
363,204,56746,1,0,0:3:0:0:
226,367,56921,2,0,P|271:358|320:347,1,87.7200005354004,2|0,1:3|0:3,0:3:0:0:
339,341,57184,1,0,3:3:0:0:
339,341,57272,6,0,P|349:260|262:189,1,175.440001070801,4|2,0:3|1:3,0:3:0:0:
88,107,57798,1,0,3:3:0:0:
93,128,57885,1,0,3:3:0:0:
98,149,57973,1,6,0:3:0:0:
265,37,58149,1,0,0:3:0:0:
90,256,58324,1,2,1:3:0:0:
289,130,58500,1,0,3:3:0:0:
289,130,58588,1,0,3:3:0:0:
289,130,58675,6,0,P|336:139|384:147,1,87.7200005354004,4|0,0:3|0:3,0:3:0:0:
403,152,58938,1,0,3:3:0:0:
403,152,59026,1,0,1:3:0:0:
255,333,59202,2,0,B|258:290|258:290|238:234,1,87.7200005354004,4|0,0:3|0:3,0:3:0:0:
78,41,59553,2,0,B|76:90|76:90|92:127,1,87.7200005354004,0|0,1:3|0:3,0:3:0:0:
348,98,59903,1,8,0:3:0:0:
348,98,59991,1,8,0:3:0:0:
348,98,60079,6,0,P|311:55|237:51,1,131.580000803101,6|0,3:1|0:0,0:0:0:0:
193,113,60430,2,0,B|196:155|208:179|208:179|198:207|198:207|216:244|223:296,1,157.379993516144,6|0,1:2|0:0,0:0:0:0:
223,295,60781,1,6,0:3:0:0:
413,203,60956,1,0,0:3:0:0:
225,304,61131,1,2,1:3:0:0:
415,212,61306,1,0,0:3:0:0:
326,383,61482,6,0,P|309:313|300:182,2,175.440001070801,6|2|6,0:3|1:3|0:3,0:3:0:0:
427,211,62360,1,0,0:3:0:0:
282,93,62535,1,2,1:3:0:0:
152,242,62710,1,0,0:3:0:0:
13,152,62886,6,0,P|55:98|190:112,1,175.440001070801,6|2,0:3|1:3,0:3:0:0:
305,219,63412,1,0,3:3:0:0:
305,219,63500,1,0,3:3:0:0:
305,219,63588,2,0,P|249:214|206:199,1,87.7200005354004,6|0,0:3|0:3,0:3:0:0:
265,0,63938,2,0,P|288:50|297:95,1,87.7200005354004,2|0,1:3|0:3,0:3:0:0:
442,214,64289,6,0,P|454:133|470:29,1,175.440001070801,6|2,0:3|1:3,0:0:0:0:
268,151,64816,1,0,0:3:0:0:
460,240,64991,1,6,0:3:0:0:
340,328,65167,1,8,0:3:0:0:
303,350,65254,1,8,0:3:0:0:
260,346,65342,1,2,1:3:0:0:
227,318,65430,1,8,0:3:0:0:
190,295,65517,1,8,0:3:0:0:
147,299,65605,1,8,0:3:0:0:
115,328,65693,6,0,P|105:241|86:178,1,131.580000803101,4|0,0:3|3:3,0:3:0:0:
76,170,66044,1,2,1:3:0:0:
237,72,66219,1,0,0:3:0:0:
96,0,66395,2,0,P|111:64|124:105,1,87.7200005354004,6|0,0:3|0:3,0:3:0:0:
273,254,66746,1,2,1:3:0:0:
76,170,66921,1,0,0:3:0:0:
237,46,67096,6,0,P|310:47|359:123,1,131.580000803101,4|0,0:3|3:3,0:3:0:0:
360,113,67447,1,2,1:3:0:0:
251,268,67623,1,0,0:3:0:0:
444,164,67798,1,6,0:3:0:0:
240,269,67974,1,0,0:3:0:0:
396,344,68149,1,2,1:3:0:0:
223,174,68324,1,0,0:3:0:0:
223,174,68412,1,0,3:3:0:0:
223,174,68500,6,0,P|144:184|72:211,1,131.580000803101,4|0,0:3|0:3,0:3:0:0:
71,215,68851,1,2,1:3:0:0:
219,67,69026,1,0,3:3:0:0:
219,67,69114,1,0,3:3:0:0:
219,67,69202,2,0,P|165:50|128:45,1,87.7200005354004,6|0,0:3|0:3,0:3:0:0:
239,197,69553,1,2,1:3:0:0:
276,218,69640,1,8,0:3:0:0:
320,220,69728,1,8,0:3:0:0:
359,200,69816,1,8,0:3:0:0:
384,165,69903,6,0,P|373:124|366:69,1,96.3200011757813,4|0,0:3|0:3,0:3:0:0:
233,55,70167,2,0,P|200:89|161:118,1,96.3200011757813,4|0,0:3|0:3,0:3:0:0:
220,237,70430,2,0,P|266:249|310:268,1,96.3200011757813,4|0,0:3|0:3,0:3:0:0:
279,143,70781,2,0,B|235:155|200:162|200:162|177:199|177:199|129:210|83:225,1,192.640002351563,0|8,1:3|0:3,0:3:0:0:
158,313,71307,5,4,0:3:0:0:
116,125,71482,1,8,0:3:0:0:
161,321,71658,1,4,0:3:0:0:
298,162,71833,1,8,1:3:0:0:
111,109,72009,1,4,0:3:0:0:
276,293,72184,1,8,0:3:0:0:
43,173,72360,1,4,0:3:0:0:
238,57,72535,1,8,0:3:0:0:
163,330,72710,1,0,1:3:0:0:
236,259,74114,6,0,B|166:245|166:245|149:219|149:219|62:200,1,175.440001070801,4|0,3:1|1:0,0:0:0:0:
205,66,74640,1,4,0:3:0:0:
45,183,74815,1,2,0:3:0:0:
182,335,74991,1,0,3:0:0:0:
182,335,75078,1,0,3:0:0:0:
182,335,75166,1,0,1:0:0:0:
316,186,75342,6,0,P|261:136|153:171,1,175.440001070801
290,303,75868,1,0,1:0:0:0:
159,359,76043,2,0,P|172:300|181:256,1,87.7200005354004,0|2,0:0|0:3,0:0:0:0:
44,144,76394,1,4,0:3:0:0:
199,41,76570,1,0,1:0:0:0:
199,41,76657,1,0,3:0:0:0:
199,41,76745,1,0,3:0:0:0:
199,41,76833,1,0,3:0:0:0:
199,41,76921,6,0,P|262:30|308:21,1,87.7200005354004,4|0,0:3|0:0,0:0:0:0:
403,130,77271,1,0,1:0:0:0:
255,231,77447,2,0,P|268:172|277:128,1,87.7200005354004,4|2,0:3|0:3,0:0:0:0:
388,266,77798,1,0,3:0:0:0:
388,266,77885,1,0,3:0:0:0:
388,266,77973,1,0,1:0:0:0:
186,330,78149,2,0,L|236:345,1,43.8600002677002,0|0,3:0|3:0,0:0:0:0:
297,218,78324,6,0,L|247:233,1,43.8600002677002,4|8,0:3|0:3,0:0:0:0:
174,155,78500,1,8,0:3:0:0:
307,64,78675,1,0,1:0:0:0:
128,247,78851,1,0,0:0:0:0:
93,220,78938,1,0,0:0:0:0:
73,181,79026,1,4,0:3:0:0:
72,138,79114,1,4,0:3:0:0:
96,100,79202,2,0,B|126:103|153:113|153:113|188:78|188:78|227:85|279:82,1,175.440001070801,0|0,1:0|3:0,0:0:0:0:
128,247,79728,5,4,1:2:0:0:
184,0,79903,1,4,0:3:0:0:
205,276,80079,5,0,1:0:0:0:
275,14,80254,1,4,0:3:0:0:
281,304,80430,5,0,1:0:0:0:
358,26,80605,1,4,0:3:0:0:
358,333,80781,5,0,1:0:0:0:
440,39,80956,1,4,0:3:0:0:
221,169,81131,5,0,1:0:0:0:
447,258,81307,1,4,0:3:0:0:
442,236,81394,1,4,0:3:0:0:
437,215,81482,1,0,1:0:0:0:
358,26,81658,1,4,0:3:0:0:
353,47,81746,1,4,0:3:0:0:
348,68,81833,1,0,1:0:0:0:
231,211,82009,1,4,0:3:0:0:
226,190,82096,1,4,0:3:0:0:
221,169,82184,1,0,1:0:0:0:
97,70,82360,1,4,0:3:0:0:
92,91,82448,1,4,0:3:0:0:
87,112,82535,5,0,1:0:0:0:
248,62,82710,1,4,0:3:0:0:
81,200,82886,5,0,1:0:0:0:
301,128,83061,1,4,0:3:0:0:
77,293,83237,5,0,1:0:0:0:
357,191,83412,2,0,L|344:252,1,43.8600002677002,4|4,0:3|0:3,0:0:0:0:
307,380,83588,1,0,1:0:0:0:
188,198,83763,1,4,0:3:0:0:
359,70,83938,6,0,L|291:58,1,43.8600002677002,0|0,1:0|0:0,0:0:0:0:
135,108,84114,2,0,L|178:115,1,43.8600002677002,0|0,1:0|0:0,0:0:0:0:
347,233,84289,2,0,L|279:221,1,43.8600002677002,0|0,1:0|0:0,0:0:0:0:
123,271,84465,2,0,L|166:278,1,43.8600002677002,0|0,1:0|0:0,0:0:0:0:
334,384,84640,1,4,0:3:0:0:
184,203,84816,1,0,1:0:0:0:
143,186,84903,1,0,1:0:0:0:
100,188,84991,1,0,1:0:0:0:
61,208,85079,1,0,1:0:0:0:
34,242,85166,1,6,1:2:0:0:
