osu file format v14

[General]
AudioFilename: audio.mp3
AudioLeadIn: 0
PreviewTime: 48061
Countdown: 0
SampleSet: Soft
StackLeniency: 0.7
Mode: 0
LetterboxInBreaks: 0
WidescreenStoryboard: 0

[Editor]
DistanceSpacing: 1
BeatDivisor: 4
GridSize: 16
TimelineZoom: 1.6

[Metadata]
Title:Zankyo Sanka (TV Size)
TitleUnicode:残響散歌 (TV Size)
Artist:Aimer
ArtistUnicode:Aimer
Creator:Sotarks
Version:Basen's Normal
Source:「鬼滅の刃」遊郭編
Tags:japanese pop j-pop jpop anime demon slayer season 2 two op opening kimetsu no yaiba yuukaku-hen blade of destruction entertainment district arc 鬼滅の刃遊郭編 yumerios kujinn reform basensorex female vocals vocalist エメ
BeatmapID:3399988
BeatmapSetID:1665441

[Difficulty]
HPDrainRate:4.2
CircleSize:3.6
OverallDifficulty:4.2
ApproachRate:5.6
SliderMultiplier:0.999999999999999
SliderTickRate:1

[Events]
//Background and Video events
0,0,"bg.jpg",0,0
Video,-300,"video.mp4"
//Break Periods
//Storyboard Layer 0 (Background)
//Storyboard Layer 1 (Fail)
//Storyboard Layer 2 (Pass)
//Storyboard Layer 3 (Foreground)
//Storyboard Layer 4 (Overlay)
//Storyboard Sound Samples

[TimingPoints]
80,350.877192982456,4,2,0,52,1,0
3939,350.877192982456,4,2,0,72,1,0
3939,-111.111111111111,4,2,0,72,0,0
4289,-111.111111111111,4,2,0,62,0,0
9553,-100,4,2,0,82,0,0
20781,-111.111111111111,4,2,0,82,0,0
21131,-111.111111111111,4,2,0,62,0,0
32009,-125,4,2,0,62,0,0
42710,-125,4,2,0,72,0,0
43237,-111.111111111111,4,2,0,72,0,0
47623,-99.9999999999999,4,2,0,72,0,0
48851,-90.9090909090909,4,2,0,82,0,1
72710,-90.9090909090909,4,2,0,82,0,0
74114,-100,4,2,0,72,0,0
79728,-100,4,2,0,82,0,0
85254,-100,4,2,0,5,0,0

[Colours]
Combo1 : 205,235,241
Combo2 : 71,52,182
Combo3 : 134,85,223
Combo4 : 133,245,252

[HitObjects]
9,30,3939,6,0,P|16:75|19:119,1,89.999997253418,6|0,3:1|0:0,0:0:0:0:
26,163,4465,1,2,0:0:0:0:
93,222,4816,2,0,P|138:215|182:211,2,89.999997253418,2|2|2,0:0|0:3|0:0,0:0:0:0:
38,293,5868,1,2,0:0:0:0:
98,359,6219,2,0,P|141:369|184:358,1,89.999997253418,2|2,0:0|0:3,0:0:0:0:
226,341,6746,6,0,P|228:309|235:261,2,67.4999979400635,2|0|2,0:0|0:0|0:0,0:0:0:0:
312,365,7623,1,2,0:0:0:0:
378,304,7974,1,2,0:0:0:0:
464,327,8324,2,0,P|461:350|458:374,2,44.999998626709,2|2|2,0:0|0:0|0:0,0:0:0:0:
497,296,8851,2,0,P|493:273|491:251,1,44.999998626709,0|4,1:0|0:3,0:0:0:0:
488,206,9202,1,0,1:0:0:0:
396,166,9553,6,0,L|408:66,1,99.9999999999999,4|0,3:1|1:0,0:0:0:0:
377,27,10079,2,0,P|353:18|328:17,1,50,4|2,0:3|0:3,0:0:0:0:
281,33,10430,1,0,3:0:0:0:
186,1,10781,1,0,0:0:0:0:
88,23,11131,1,0,0:0:0:0:
27,102,11482,2,0,L|39:201,1,99.9999999999999,0|4,0:0|0:3,0:0:0:0:
47,251,12009,1,0,1:0:0:0:
142,215,12360,5,4,0:3:0:0:
142,215,12535,2,0,P|188:197|236:206,1,99.9999999999999,0|4,0:0|0:3,0:0:0:0:
328,164,13237,2,0,P|374:181|422:172,1,99.9999999999999,0|0,3:0|3:0,0:0:0:0:
473,158,13763,1,4,0:3:0:0:
473,158,13938,2,0,L|460:257,1,99.9999999999999,0|8,0:0|0:3,0:0:0:0:
453,357,14640,2,0,P|406:374|358:365,1,99.9999999999999,0|0,1:0|3:0,0:0:0:0:
314,339,15167,6,0,L|214:351,1,99.9999999999999,4|0,3:1|1:0,0:0:0:0:
179,315,15693,2,0,L|115:307,1,50,4|2,0:3|0:3,0:0:0:0:
79,305,16044,1,0,3:0:0:0:
4,238,16395,1,0,0:0:0:0:
16,139,16745,1,0,0:0:0:0:
96,79,17096,2,0,P|142:61|190:70,1,99.9999999999999,0|4,0:0|0:3,0:0:0:0:
237,91,17623,1,0,1:0:0:0:
319,33,17974,5,4,0:3:0:0:
319,33,18149,2,0,P|365:50|413:41,1,99.9999999999999,0|4,0:0|0:3,0:0:0:0:
498,94,18851,2,0,L|491:143,1,50,0|0,3:0|1:0,0:0:0:0:
453,176,19202,2,0,L|465:275,1,99.9999999999999,0|0,3:0|3:0,0:0:0:0:
420,364,19903,1,0,0:0:0:0:
332,316,20254,2,0,P|285:298|237:307,1,99.9999999999999,0|0,1:0|3:0,0:0:0:0:
198,331,20781,6,0,P|153:324|108:320,1,89.999997253418,4|0,3:1|1:0,0:0:0:0:
56,246,21482,2,0,P|59:223|61:201,1,44.999998626709,0|4,0:0|0:3,0:0:0:0:
62,156,21833,1,0,1:0:0:0:
133,101,22184,2,0,P|126:56|122:11,2,89.999997253418,4|0|2,0:3|1:0|0:3,0:0:0:0:
214,139,23237,1,0,1:0:0:0:
231,227,23588,6,0,P|226:271|220:316,1,89.999997253418,4|0,0:3|1:0,0:0:0:0:
291,371,24289,2,0,P|313:367|335:365,1,44.999998626709,0|4,0:0|0:3,0:0:0:0:
380,365,24640,1,0,1:0:0:0:
423,286,24991,2,0,P|467:292|512:296,2,89.999997253418,4|0|2,0:3|1:0|0:3,0:0:0:0:
394,200,26044,1,0,1:0:0:0:
453,132,26395,5,4,0:3:0:0:
413,51,26746,2,0,P|370:39|326:50,1,89.999997253418,0|0,1:0|0:0,0:0:0:0:
288,73,27272,1,4,0:3:0:0:
210,38,27623,1,8,0:3:0:0:
210,38,27798,2,0,P|167:49|123:38,1,89.999997253418,4|0,0:3|1:0,0:0:0:0:
34,47,28500,1,2,0:3:0:0:
0,130,28851,1,0,1:0:0:0:
59,197,29202,6,0,P|52:241|48:286,1,89.999997253418,4|0,0:3|1:0,0:0:0:0:
114,346,29903,1,4,0:3:0:0:
201,322,30254,2,0,P|204:299|206:277,1,44.999998626709,0|8,1:0|0:3,0:0:0:0:
242,251,30605,2,0,P|237:217|234:183,2,67.4999979400635,0|8|0,1:0|0:3|1:0,0:0:0:0:
282,271,31307,1,8,0:3:0:0:
345,335,31658,1,0,1:0:0:0:
432,329,32009,6,0,P|496:288|491:212,1,160,4|4,0:3|0:3,0:0:0:0:
444,136,33061,2,0,P|425:133|405:132,1,40,4|0,0:3|1:0,0:0:0:0:
361,134,33412,1,0,0:3:0:0:
282,94,33763,2,0,P|242:100|202:104,1,79.9999999999999,4|4,0:3|0:3,0:0:0:0:
158,109,34289,1,0,1:0:0:0:
97,172,34640,1,0,1:0:0:0:
97,172,34816,6,0,P|85:209|91:249,1,79.9999999999999,4|0,0:3|1:0,0:0:0:0:
130,328,35517,2,0,P|152:324|174:322,1,40,4|8,0:3|0:3,0:0:0:0:
213,325,35868,1,4,0:3:0:0:
286,276,36219,2,0,P|325:282|365:286,1,79.9999999999999,4|0,0:3|1:0,0:0:0:0:
440,332,36921,2,0,P|436:354|434:376,2,40,4|0|4,0:3|1:0|1:2,0:0:0:0:
479,309,37447,1,0,0:0:0:0:
479,309,37623,6,0,P|490:271|484:231,1,79.9999999999999,4|4,0:3|1:2,0:0:0:0:
511,148,38324,2,0,P|492:112|460:89,1,79.9999999999999,4|8,0:3|0:3,0:0:0:0:
412,15,39026,2,0,P|374:3|334:9,1,79.9999999999999,4|0,0:3|1:0,0:0:0:0:
270,70,39728,1,4,0:3:0:0:
313,146,40079,1,4,0:3:0:0:
253,211,40430,6,0,P|259:250|263:290,1,79.9999999999999,4|0,0:3|1:0,0:0:0:0:
246,333,40956,1,0,0:0:0:0:
246,333,41131,2,0,P|208:322|168:328,1,79.9999999999999,4|4,0:3|0:3,0:0:0:0:
138,303,41658,1,0,1:2:0:0:
138,303,41833,2,0,P|100:314|60:308,1,79.9999999999999,4|4,0:3|0:3,0:0:0:0:
26,279,42360,1,0,1:0:0:0:
31,191,42710,2,0,P|68:179|108:185,1,79.9999999999999,4|8,1:2|0:3,0:0:0:0:
144,158,43237,6,0,P|186:169|230:158,1,89.999997253418,4|4,0:3|1:2,0:0:0:0:
297,98,43938,1,0,1:0:0:0:
386,93,44289,1,4,1:2:0:0:
456,149,44640,2,0,P|460:193|466:238,1,89.999997253418,4|4,0:3|1:2,0:0:0:0:
445,326,45342,1,4,0:3:0:0:
356,344,45693,1,4,0:3:0:0:
281,294,46044,2,0,P|239:297|199:304,2,67.4999979400635,4|4|0,0:3|0:3|1:0,0:0:0:0:
361,187,47096,5,0,1:0:0:0:
361,187,47272,1,4,1:2:0:0:
294,112,47623,2,0,P|296:87|300:62,1,50,0|0,1:0|1:0,0:0:0:0:
307,12,47974,1,0,1:0:0:0:
209,32,48324,1,4,1:2:0:0:
44,23,48851,6,0,B|18:74|18:74|35:123,1,110.000003356934,6|2,3:1|1:3,0:0:0:0:
25,233,49553,2,0,L|88:240,1,55.0000016784668,6|0,0:3|0:3,0:0:0:0:
100,290,49903,2,0,L|163:282,1,55.0000016784668,2|0,1:3|0:3,0:0:0:0:
209,283,50254,1,6,0:3:0:0:
290,357,50605,1,2,1:3:0:0:
397,333,50956,2,0,L|410:223,1,110.000003356934,6|2,0:3|1:3,0:3:0:0:
463,202,51482,1,0,0:3:0:0:
463,202,51658,6,0,L|449:92,1,110.000003356934,6|2,0:3|1:3,0:3:0:0:
439,43,52184,1,0,3:3:0:0:
439,43,52360,2,0,P|413:33|386:34,1,55.0000016784668,6|0,0:3|0:3,0:3:0:0:
335,56,52710,1,2,1:3:0:0:
233,12,53061,2,0,B|182:38|182:38|132:20,1,110.000003356934,6|2,0:3|1:3,0:0:0:0:
84,43,53587,1,0,0:3:0:0:
84,43,53763,2,0,L|70:152,1,110.000003356934,6|2,0:3|1:3,0:3:0:0:
161,214,54465,6,0,B|212:240|212:240|261:222,1,110.000003356934,4|2,0:3|1:3,0:3:0:0:
313,198,54991,1,0,0:3:0:0:
313,198,55167,2,0,B|364:172|364:172|413:189,1,110.000003356934,6|2,0:3|1:3,0:3:0:0:
507,246,55868,2,0,L|493:355,1,110.000003356934,4|2,0:3|1:3,0:3:0:0:
446,379,56394,1,0,0:3:0:0:
446,379,56570,2,0,P|418:380|393:370,1,55.0000016784668,6|0,0:3|0:3,0:0:0:0:
353,332,56921,1,2,1:3:0:0:
249,369,57272,6,0,L|139:355,1,110.000003356934,4|2,0:3|1:3,0:3:0:0:
69,270,57974,1,6,0:3:0:0:
150,196,58324,2,0,L|157:132,1,55.0000016784668,2|0,1:3|3:3,0:0:0:0:
126,95,58675,2,0,P|89:74|49:76,2,82.5000025177002,4|0|4,0:3|3:3|0:3,0:3:0:0:
216,32,59553,2,0,B|267:58|267:58|316:40,1,110.000003356934,0|8,1:3|0:3,0:3:0:0:
366,16,60079,6,0,L|379:125,1,110.000003356934,6|6,3:1|1:2,0:0:0:0:
483,162,60781,2,0,L|475:225,1,55.0000016784668,6|0,0:3|0:3,0:0:0:0:
432,250,61131,2,0,L|439:313,1,55.0000016784668,2|0,1:3|0:3,0:0:0:0:
444,359,61482,1,6,0:3:0:0:
341,318,61833,1,2,1:3:0:0:
241,364,62184,2,0,B|190:338|190:338|140:355,1,110.000003356934,6|2,0:3|1:3,0:0:0:0:
91,376,62710,1,0,0:3:0:0:
91,376,62886,6,0,L|77:266,1,110.000003356934,6|2,0:3|1:3,0:3:0:0:
35,240,63412,1,0,3:3:0:0:
35,240,63588,2,0,L|41:185,1,55.0000016784668,6|0,0:3|0:3,0:3:0:0:
48,130,63938,1,2,1:3:0:0:
123,50,64289,2,0,B|174:24|174:24|223:41,1,110.000003356934,6|2,0:3|1:3,0:0:0:0:
278,67,64815,1,0,0:3:0:0:
278,67,64991,2,0,L|264:176,1,110.000003356934,6|2,0:3|1:3,0:0:0:0:
161,216,65693,6,0,L|174:325,1,110.000003356934,4|2,0:3|1:3,0:3:0:0:
224,358,66219,1,0,0:3:0:0:
224,358,66395,2,0,B|273:375|273:375|324:349,1,110.000003356934,6|2,0:3|1:3,0:3:0:0:
417,289,67096,2,0,L|403:179,1,110.000003356934,4|2,0:3|1:3,0:3:0:0:
449,147,67622,1,0,0:3:0:0:
449,147,67798,2,0,L|455:92,1,55.0000016784668,6|0,0:3|0:3,0:0:0:0:
460,37,68149,1,2,1:3:0:0:
355,72,68500,6,0,B|305:89|305:89|254:63,1,110.000003356934,4|2,0:3|1:3,0:3:0:0:
162,2,69202,1,6,0:3:0:0:
85,80,69553,2,0,P|75:105|76:132,1,55.0000016784668,2|8,1:3|0:3,0:0:0:0:
83,187,69903,2,0,P|46:207|6:205,2,82.5000025177002,4|4|4,0:3|0:3|0:3,0:3:0:0:
146,276,70781,2,0,B|197:250|197:250|246:267,1,110.000003356934,0|8,1:3|0:3,0:3:0:0:
286,305,71307,6,0,L|395:291,1,110.000003356934,4|4,0:3|0:3,0:0:0:0:
470,210,72009,1,4,0:3:0:0:
403,122,72360,1,4,0:3:0:0:
473,37,72710,1,0,1:3:0:0:
473,37,74114,6,0,L|373:24,1,99.9999999999999,4|0,3:1|1:0,0:0:0:0:
343,64,74640,2,0,L|279:71,1,50,4|2,0:3|0:3,0:0:0:0:
244,80,74991,1,0,3:0:0:0:
163,20,75342,1,0,0:0:0:0:
68,52,75692,1,0,0:0:0:0:
27,143,76044,2,0,P|9:189|18:237,1,99.9999999999999,0|4,0:0|0:3,0:0:0:0:
41,282,76570,1,0,1:0:0:0:
130,337,76921,5,4,0:3:0:0:
130,337,77096,2,0,L|229:349,1,99.9999999999999,0|4,0:0|0:3,0:0:0:0:
293,272,77798,2,0,P|302:223|284:177,1,99.9999999999999,0|0,3:0|3:0,0:0:0:0:
261,138,78324,1,4,0:3:0:0:
261,138,78500,2,0,P|251:89|269:43,1,99.9999999999999,8|0,0:3|0:0,0:0:0:0:
360,0,79202,2,0,L|459:12,1,99.9999999999999,0|0,1:0|3:0,0:0:0:0:
495,47,79728,6,0,B|516:93|516:93|503:141,1,99.9999999999999,4|0,1:2|1:0,0:0:0:0:
485,189,80254,1,4,0:3:0:0:
485,189,80430,2,0,B|464:235|464:235|476:283,1,99.9999999999999,0|0,1:0|1:0,0:0:0:0:
424,367,81131,2,0,L|324:354,1,99.9999999999999,0|0,1:0|1:0,0:0:0:0:
295,320,81658,1,4,0:3:0:0:
295,320,81833,2,0,L|195:332,1,99.9999999999999,0|0,1:0|1:0,0:0:0:0:
100,350,82535,5,0,1:0:0:0:
100,350,82710,2,0,B|79:304|79:304|91:255,1,99.9999999999999,4|4,0:3|0:3,0:0:0:0:
30,175,83412,1,4,0:3:0:0:
78,89,83763,1,4,0:3:0:0:
78,89,83938,6,0,L|141:96,1,50,0|0,1:0|1:0,0:0:0:0:
158,55,84289,2,0,L|221:47,1,50,0|0,1:0|1:0,0:0:0:0:
250,84,84640,1,4,0:3:0:0:
250,84,84816,2,0,B|271:130|271:130|258:178,1,99.9999999999999,0|6,1:0|1:2,0:0:0:0:
