osu file format v14

[General]
AudioFilename: audio.mp3
AudioLeadIn: 0
PreviewTime: 48192
Countdown: 0
SampleSet: Soft
StackLeniency: 0.7
Mode: 3
LetterboxInBreaks: 0
SpecialStyle: 0
WidescreenStoryboard: 1

[Editor]
DistanceSpacing: 1
BeatDivisor: 1
GridSize: 32
TimelineZoom: 1.8

[Metadata]
Title:Zankyo Sanka (TV Size)
TitleUnicode:残響散歌 (TV Size)
Artist:Aimer
ArtistUnicode:Aimer
Creator:Kibitz
Version:Normal Demon
Source:「鬼滅の刃」遊郭編
Tags:エメ AmiiChii Hydria ML-ysg Demon Slayer Kimetsu no Yaiba yuukaku-hen Blade of Demon Destruction season 2 two 2期 2nd season opening op japanese anime j-pop jpop pop
BeatmapID:4019666
BeatmapSetID:1713396

[Difficulty]
HPDrainRate:6.5
CircleSize:4
OverallDifficulty:6.5
ApproachRate:5
SliderMultiplier:1.4
SliderTickRate:1

[Events]
//Background and Video events
0,0,"Normal.jpg",0,0
//Break Periods
//Storyboard Layer 0 (Background)
//Storyboard Layer 1 (Fail)
//Storyboard Layer 2 (Pass)
//Storyboard Layer 3 (Foreground)
//Storyboard Layer 4 (Overlay)
//Storyboard Sound Samples
Sample,5429,0,"Tom2.wav",50
Sample,5780,0,"Tom3.wav",50
Sample,6482,0,"Tom1.wav",50
Sample,7183,0,"Tom2.wav",50
Sample,12447,0,"Hat Open.wav",40
Sample,13499,0,"Hat Open.wav",40
Sample,13850,0,"Hat Open.wav",40
Sample,16657,0,"Hat Open.wav",40
Sample,18061,0,"Hat Open.wav",40
Sample,23850,0,"Tom3.wav",50
Sample,24201,0,"Tom3.wav",50
Sample,25078,0,"Tom2.wav",50
Sample,25604,0,"Hat Open.wav",40
Sample,28411,0,"Tom3.wav",50
Sample,28762,0,"Hat Open.wav",40
Sample,29113,0,"Hat Open.wav",40
Sample,29289,0,"Hat Close.wav",35
Sample,31745,0,"Hat Open.wav",40
Sample,34376,0,"Hat Open.wav",40
Sample,34727,0,"Hat Open.wav",40
Sample,37008,0,"Ride.wav",70
Sample,39464,0,"Ride.wav",70
Sample,40166,0,"Ride.wav",70
Sample,40517,0,"Hat Open.wav",40
Sample,41569,0,"Hat Open.wav",40
Sample,49640,0,"Hat Open.wav",40
Sample,50341,0,"Hat Open.wav",40
Sample,53148,0,"Hat Open.wav",40
Sample,54903,0,"Hat Open.wav",40
Sample,55604,0,"Hat Open.wav",40
Sample,56306,0,"Hat Open.wav",40
Sample,57008,0,"Hat Open.wav",40
Sample,60868,0,"Hat Open.wav",40
Sample,66131,0,"Hat Open.wav",40
Sample,66833,0,"Hat Open.wav",40
Sample,67534,0,"Hat Open.wav",40
Sample,68236,0,"Hat Open.wav",40
Sample,68938,0,"Hat Open.wav",40
Sample,69640,0,"Hat Open.wav",40
Sample,75604,0,"Hat Open.wav",40
Sample,76657,0,"Hat Open.wav",40
Sample,77008,0,"Hat Open.wav",40
Sample,78411,0,"Hat Open.wav",40
Sample,78762,0,"Tom1.wav",50
Sample,79289,0,"Tom1.wav",50

[TimingPoints]
868,350.877192982456,3,2,1,70,1,0
4026,350.877192982456,4,2,1,70,1,0
48938,-100,4,2,1,70,0,1
72797,-100,4,2,1,70,0,0

[HitObjects]
64,192,166,5,0,0:0:0:50:Snare1.wav
64,192,517,1,0,0:0:0:50:Snare1.wav
320,192,867,1,0,0:0:0:0:
448,192,867,1,0,0:0:0:70:Tom3.wav
64,192,1131,1,0,0:0:0:50:Snare2.wav
192,192,1218,1,0,0:0:0:60:Snare.wav
64,192,1394,1,0,0:0:0:50:Tom1.wav
448,192,1394,1,0,0:0:0:0:
448,192,1657,1,0,0:0:0:50:Snare2.wav
320,192,1745,1,0,0:0:0:60:Snare.wav
64,192,1920,1,0,0:0:0:50:Tom2.wav
192,192,1920,1,0,0:0:0:0:
320,192,2183,1,0,0:0:0:0:
192,192,2271,1,0,0:0:0:60:Snare.wav
64,192,2446,1,0,0:0:0:0:
448,192,2446,1,0,0:0:0:0:
320,192,2710,1,0,0:0:0:0:
64,192,2973,128,0,4026:0:0:0:40:Hat Open.wav
448,192,2973,128,0,4026:0:0:0:60:Snare.wav
192,192,4026,128,2,4552:0:0:0:0:
320,192,4026,1,4,0:0:0:0:
448,192,4552,128,0,4903:0:0:0:15:Snare2.wav
64,192,4903,1,0,0:0:0:30:Snare2.wav
320,192,4903,128,0,5254:0:0:0:0:
192,192,5254,128,0,5604:0:0:0:30:Snare2.wav
64,192,5604,1,0,0:0:0:15:Snare2.wav
448,192,5604,128,0,5955:0:0:0:0:
192,192,5955,1,0,0:0:0:30:Snare2.wav
320,192,5955,128,0,6306:0:0:0:50:Tom2.wav
64,192,6306,128,0,6657:0:0:0:30:Snare2.wav
320,192,6657,1,0,0:0:0:20:Snare2.wav
64,192,6833,1,4,0:0:0:30:soft-hitfinish.wav
448,192,6833,128,0,7096:0:0:0:30:Snare2.wav
320,192,7096,128,0,7359:0:0:0:25:Snare2.wav
64,192,7359,128,4,7710:0:0:0:30:soft-hitfinish.wav
448,192,7359,1,0,0:0:0:40:Snare2.wav
192,192,7710,128,0,8061:0:0:0:45:Snare2.wav
320,192,7710,1,0,0:0:0:50:Tom2.wav
64,192,8061,1,0,0:0:0:30:Snare2.wav
320,192,8061,128,0,8411:0:0:0:0:
64,192,8411,1,0,0:0:0:25:Snare2.wav
448,192,8411,128,0,8938:0:0:0:0:
320,192,8587,1,0,0:0:0:50:Tom2.wav
192,192,8762,1,0,0:0:0:50:Tom2.wav
64,192,8938,1,8,0:0:0:0:
320,192,8938,1,0,0:0:0:50:Tom3.wav
192,192,9113,1,2,0:0:0:0:
64,192,9289,1,8,0:0:0:0:
448,192,9289,1,0,0:0:0:0:
320,192,9464,1,2,0:0:0:0:
64,192,9640,1,2,0:0:0:0:
192,192,9640,1,4,0:0:0:0:
448,192,9903,1,2,0:0:0:0:
64,192,9990,1,8,0:0:0:0:
320,192,9990,1,0,0:0:0:40:Hat Open.wav
192,192,10166,1,2,0:0:0:0:
448,192,10341,1,0,0:0:0:40:Hat Open.wav
192,192,10517,1,2,0:0:0:0:
64,192,10692,1,8,0:0:0:0:
320,192,10692,1,0,0:0:0:40:Hat Open.wav
448,192,10868,1,2,0:0:0:0:
192,192,11043,1,0,0:0:0:40:Hat Open.wav
64,192,11218,1,0,0:0:0:0:
192,192,11306,1,0,0:0:0:0:
320,192,11394,1,8,0:0:0:0:
448,192,11394,1,0,0:0:0:40:Hat Open.wav
192,192,11569,1,2,0:0:0:0:
448,192,11745,1,0,0:0:0:40:Hat Open.wav
64,192,11920,1,2,0:0:0:0:
192,192,12096,1,8,0:0:0:0:
320,192,12096,1,0,0:0:0:40:Hat Open.wav
448,192,12271,1,2,0:0:0:0:
320,192,12359,1,8,0:0:0:0:
192,192,12447,1,2,0:0:0:0:
64,192,12622,1,0,0:0:0:0:
192,192,12710,1,2,0:0:0:0:
320,192,12797,1,8,0:0:0:0:
448,192,12797,1,0,0:0:0:40:Hat Open.wav
64,192,12973,1,2,0:0:0:0:
320,192,13148,1,0,0:0:0:40:Hat Open.wav
192,192,13324,1,2,0:0:0:0:
64,192,13499,1,8,0:0:0:0:
448,192,13499,1,0,0:0:0:0:
320,192,13675,1,2,0:0:0:0:
64,192,13850,1,2,0:0:0:0:
448,192,13938,1,0,0:0:0:0:
320,192,14025,1,2,0:0:0:0:
64,192,14201,1,8,0:0:0:0:
192,192,14201,1,0,0:0:0:40:Hat Open.wav
448,192,14376,1,2,0:0:0:0:
320,192,14552,1,0,0:0:0:50:Tom3.wav
192,192,14640,1,8,0:0:0:0:
64,192,14727,1,8,0:0:0:0:
448,192,14727,1,0,0:0:0:40:Hat Open.wav
320,192,14903,1,2,0:0:0:0:
64,192,15078,1,8,0:0:0:0:
192,192,15078,1,0,0:0:0:40:Hat Open.wav
320,192,15254,1,2,0:0:0:0:
448,192,15254,1,4,0:0:0:0:
64,192,15429,1,0,0:0:0:0:
192,192,15517,1,2,0:0:0:0:
320,192,15604,1,8,0:0:0:0:
448,192,15604,1,0,0:0:0:40:Hat Open.wav
64,192,15780,1,2,0:0:0:0:
192,192,15955,1,0,0:0:0:40:Hat Open.wav
448,192,16131,1,2,0:0:0:0:
320,192,16218,1,0,0:0:0:0:
64,192,16306,1,8,0:0:0:0:
192,192,16306,1,0,0:0:0:40:Hat Open.wav
448,192,16482,1,2,0:0:0:0:
192,192,16657,1,2,0:0:0:0:
64,192,16833,1,0,0:0:0:0:
448,192,16920,1,0,0:0:0:0:
192,192,17008,1,8,0:0:0:0:
320,192,17008,1,0,0:0:0:40:Hat Open.wav
64,192,17183,1,2,0:0:0:0:
448,192,17359,1,0,0:0:0:40:Hat Open.wav
64,192,17534,1,2,0:0:0:0:
192,192,17622,1,0,0:0:0:0:
320,192,17710,1,8,0:0:0:0:
448,192,17710,1,0,0:0:0:40:Hat Open.wav
64,192,17973,1,8,0:0:0:0:
192,192,17973,1,0,0:0:0:0:
320,192,18061,1,2,0:0:0:0:
448,192,18324,1,2,0:0:0:0:
64,192,18411,1,8,0:0:0:0:
192,192,18411,1,0,0:0:0:40:Hat Open.wav
320,192,18587,1,2,0:0:0:0:
448,192,18762,1,0,0:0:0:40:Hat Open.wav
64,192,18938,1,2,0:0:0:0:
192,192,19025,1,0,0:0:0:0:
320,192,19113,1,8,0:0:0:0:
448,192,19113,1,0,0:0:0:40:Hat Open.wav
192,192,19289,1,2,0:0:0:0:
64,192,19464,1,8,0:0:0:0:
448,192,19464,1,0,0:0:0:40:Hat Open.wav
192,192,19640,1,2,0:0:0:0:
320,192,19727,1,8,0:0:0:0:
448,192,19815,1,2,0:0:0:0:
64,192,19990,1,8,0:0:0:0:
192,192,19990,1,0,0:0:0:0:
320,192,20166,1,0,0:0:0:0:
64,192,20341,1,8,0:0:0:0:
448,192,20341,128,4,20868:0:0:0:0:
192,192,20868,1,2,0:0:0:0:
320,192,20868,128,4,21218:0:0:0:0:
64,192,21218,1,8,0:0:0:0:
448,192,21218,1,0,0:0:0:35:Hat Close.wav
192,192,21394,1,2,0:0:0:0:
64,192,21569,1,0,0:0:0:35:Hat Close.wav
448,192,21745,1,2,0:0:0:0:
64,192,21920,1,8,0:0:0:0:
192,192,21920,1,0,0:0:0:35:Hat Close.wav
320,192,22096,128,2,22447:0:0:0:0:
64,192,22447,128,2,22797:0:0:0:0:
320,192,22622,1,8,0:0:0:0:
448,192,22622,1,0,0:0:0:35:Hat Close.wav
192,192,22797,128,2,23148:0:0:0:0:
448,192,23148,128,2,23324:0:0:0:0:
64,192,23324,128,8,23499:0:0:0:0:
320,192,23324,1,0,0:0:0:35:Hat Close.wav
192,192,23499,128,2,23675:0:0:0:0:
64,192,23675,1,2,0:0:0:0:
448,192,23675,1,0,0:0:0:35:Hat Close.wav
320,192,23850,1,2,0:0:0:0:
64,192,23938,1,0,0:0:0:50:Tom3.wav
192,192,24025,1,8,0:0:0:0:
448,192,24025,1,0,0:0:0:35:Hat Close.wav
320,192,24201,1,2,0:0:0:0:
192,192,24289,1,0,0:0:0:50:Tom2.wav
64,192,24376,1,0,0:0:0:35:Hat Close.wav
448,192,24552,128,2,24727:0:0:0:0:
64,192,24727,128,8,24903:0:0:0:0:
192,192,24727,1,0,0:0:0:35:Hat Close.wav
448,192,24903,128,2,25254:0:0:0:0:
64,192,25078,1,0,0:0:0:35:Hat Close.wav
192,192,25254,128,2,25604:0:0:0:0:
320,192,25429,1,8,0:0:0:0:
448,192,25429,1,0,0:0:0:35:Hat Close.wav
64,192,25604,128,2,25780:0:0:0:0:
320,192,25780,128,0,25955:0:0:0:50:Tom3.wav
192,192,25955,128,2,26131:0:0:0:0:
64,192,26131,1,8,0:0:0:0:
448,192,26131,128,0,26306:0:0:0:35:Hat Close.wav
320,192,26306,128,2,26482:0:0:0:0:
192,192,26482,1,2,0:0:0:0:
448,192,26482,1,4,0:0:0:0:
64,192,26657,1,2,0:0:0:0:
320,192,26833,1,8,0:0:0:0:
448,192,26833,1,0,0:0:0:35:Hat Close.wav
192,192,27008,1,2,0:0:0:0:
64,192,27183,1,0,0:0:0:35:Hat Close.wav
448,192,27359,1,2,0:0:0:0:
192,192,27534,1,8,0:0:0:0:
320,192,27534,1,0,0:0:0:35:Hat Close.wav
64,192,27710,1,2,0:0:0:0:
448,192,27885,1,0,0:0:0:35:Hat Close.wav
192,192,28061,1,2,0:0:0:0:
64,192,28236,1,8,0:0:0:0:
448,192,28236,1,0,0:0:0:35:Hat Close.wav
320,192,28411,1,2,0:0:0:0:
192,192,28587,1,0,0:0:0:35:Hat Close.wav
64,192,28762,1,2,0:0:0:0:
320,192,28938,128,8,29289:0:0:0:0:
448,192,28938,1,0,0:0:0:0:
64,192,29289,128,2,29640:0:0:0:0:
192,192,29640,1,8,0:0:0:0:
448,192,29640,128,0,29990:0:0:0:35:Hat Close.wav
320,192,29990,128,0,30341:0:0:0:35:Hat Close.wav
64,192,30341,1,8,0:0:0:0:
192,192,30341,1,0,0:0:0:35:Hat Close.wav
448,192,30517,1,0,0:0:0:0:
320,192,30604,1,8,0:0:0:0:
64,192,30692,1,8,0:0:0:0:
192,192,30692,1,0,0:0:0:50:Tom2.wav
448,192,30868,1,2,0:0:0:0:
320,192,30955,1,8,0:0:0:0:
192,192,31043,1,2,0:0:0:0:
64,192,31218,128,8,31394:0:0:0:0:
448,192,31218,1,0,0:0:0:0:
320,192,31394,1,2,0:0:0:0:
192,192,31482,1,8,0:0:0:0:
448,192,31569,128,0,32096:0:0:0:50:Tom2.wav
64,192,31745,1,8,0:0:0:0:
192,192,31745,1,0,0:0:0:0:
64,192,32096,1,2,0:0:0:0:
320,192,32096,1,4,0:0:0:0:
64,192,32447,1,2,0:0:0:0:
320,192,32447,1,0,0:0:0:70:Ride.wav
64,192,32797,1,2,0:0:0:0:
320,192,32797,1,0,0:0:0:70:Ride.wav
64,192,33148,1,2,0:0:0:0:
192,192,33148,1,0,0:0:0:70:Ride.wav
192,192,33324,1,8,0:0:0:0:
320,192,33499,1,2,0:0:0:0:
448,192,33499,1,0,0:0:0:70:Ride.wav
320,192,33850,1,2,0:0:0:0:
448,192,33850,1,0,0:0:0:70:Ride.wav
320,192,34201,1,2,0:0:0:0:
448,192,34201,1,0,0:0:0:70:Ride.wav
448,192,34376,1,8,0:0:0:0:
192,192,34552,1,2,0:0:0:0:
320,192,34552,1,0,0:0:0:70:Ride.wav
192,192,34727,1,8,0:0:0:0:
64,192,34903,1,2,0:0:0:0:
448,192,34903,1,0,0:0:0:70:Ride.wav
64,192,35254,1,8,0:0:0:0:
448,192,35254,1,4,0:0:0:0:
64,192,35604,1,2,0:0:0:0:
448,192,35604,1,0,0:0:0:70:Ride.wav
192,192,35868,1,8,0:0:0:0:
320,192,35955,1,2,0:0:0:0:
448,192,35955,1,0,0:0:0:70:Ride.wav
64,192,36131,1,8,0:0:0:0:
192,192,36306,1,2,0:0:0:0:
320,192,36306,1,0,0:0:0:70:Ride.wav
192,192,36657,1,2,0:0:0:0:
320,192,36657,1,0,0:0:0:70:Ride.wav
448,192,36833,1,0,0:0:0:0:
64,192,36920,1,8,0:0:0:0:
192,192,37008,1,2,0:0:0:0:
320,192,37183,1,8,0:0:0:0:
448,192,37183,1,0,0:0:0:0:
64,192,37359,1,10,0:0:0:0:
192,192,37359,1,0,0:0:0:70:Ride.wav
64,192,37710,1,2,0:0:0:0:
448,192,37710,1,0,0:0:0:0:
192,192,37885,1,8,0:0:0:20:soft-hitclap.wav
320,192,38061,1,10,0:0:0:0:
448,192,38061,1,4,0:0:0:0:
192,192,38411,1,8,0:0:0:0:
320,192,38411,1,0,0:0:0:70:Ride.wav
64,192,38762,1,2,0:0:0:0:
448,192,38762,1,0,0:0:0:70:Ride.wav
192,192,38938,1,0,0:0:0:50:Tom2.wav
320,192,39113,1,2,0:0:0:0:
448,192,39113,1,0,0:0:0:70:Ride.wav
192,192,39289,1,8,0:0:0:0:
64,192,39464,1,10,0:0:0:0:
320,192,39464,1,0,0:0:0:40:Hat Open.wav
448,192,39640,1,0,0:0:0:0:
64,192,39815,1,6,0:0:0:0:
192,192,39815,1,8,0:0:0:0:
320,192,40078,1,8,0:0:0:0:
192,192,40166,1,2,0:0:0:0:
64,192,40341,1,8,0:0:0:0:
448,192,40341,1,0,0:0:0:0:
320,192,40517,128,2,40868:0:0:0:0:
64,192,40868,1,8,0:0:0:0:
448,192,40868,1,0,0:0:0:40:Hat Open.wav
192,192,41043,1,2,0:0:0:0:
64,192,41218,1,8,0:0:0:0:
448,192,41218,128,0,41569:0:0:0:40:Hat Open.wav
192,192,41394,1,2,0:0:0:0:
320,192,41569,1,2,0:0:0:0:
64,192,41745,128,8,42096:0:0:0:0:
192,192,41745,1,4,0:0:0:0:
320,192,42096,1,8,0:0:0:0:
448,192,42096,1,0,0:0:0:40:Hat Open.wav
192,192,42271,1,2,0:0:0:0:
64,192,42447,1,8,0:0:0:0:
448,192,42447,1,0,0:0:0:40:Hat Open.wav
320,192,42622,128,2,42797:0:0:0:0:
192,192,42797,1,8,0:0:0:0:
448,192,42797,128,4,43324:0:0:0:0:
192,192,43148,1,8,0:0:0:0:
64,192,43324,1,2,0:0:0:0:
320,192,43324,1,4,0:0:0:0:
192,192,43675,1,0,0:0:0:50:Tom2.wav
448,192,43850,1,2,0:0:0:0:
64,192,44025,1,8,0:0:0:0:
320,192,44025,1,4,0:0:0:0:
192,192,44201,1,8,0:0:0:0:
448,192,44376,1,2,0:0:0:0:
320,192,44552,1,8,0:0:0:0:
64,192,44727,1,4,0:0:0:0:
192,192,44727,1,2,0:0:0:0:
448,192,44903,1,8,0:0:0:0:
320,192,45078,1,8,0:0:0:0:
64,192,45254,1,2,0:0:0:0:
192,192,45429,1,8,0:0:0:0:
320,192,45429,1,0,0:0:0:0:
448,192,45604,1,8,0:0:0:0:
64,192,45780,1,2,0:0:0:0:
192,192,45955,1,8,0:0:0:0:
320,192,46131,1,10,0:0:0:0:
448,192,46131,1,0,0:0:0:50:Tom3.wav
64,192,46306,1,2,0:0:0:0:
448,192,46394,1,8,0:0:0:0:
64,192,46657,1,8,0:0:0:0:
192,192,46657,1,0,0:0:0:0:
448,192,46833,1,2,0:0:0:0:
64,192,46920,1,8,0:0:0:0:
192,192,47183,1,8,0:0:0:0:
320,192,47183,1,0,0:0:0:0:
64,192,47359,1,8,0:0:0:0:
448,192,47359,128,0,47710:0:0:0:40:Hat Open.wav
64,192,47710,1,8,0:0:0:0:
192,192,47710,1,0,0:0:0:0:
320,192,47885,1,8,0:0:0:0:
448,192,47885,1,0,0:0:0:0:
64,192,48061,1,8,0:0:0:0:
192,192,48061,1,0,0:0:0:0:
320,192,48236,128,2,48411:0:0:0:0:
64,192,48411,128,8,48938:0:0:0:0:
448,192,48411,128,4,48938:0:0:0:0:
192,192,48938,1,2,0:0:0:0:
320,192,48938,128,4,49289:0:0:0:0:
64,192,49289,1,8,0:0:0:0:
448,192,49289,128,0,49640:0:0:0:40:Hat Open.wav
192,192,49640,1,2,0:0:0:0:
320,192,49815,1,2,0:0:0:0:
64,192,49990,1,8,0:0:0:0:
448,192,49990,1,0,0:0:0:40:Hat Open.wav
192,192,50166,1,2,0:0:0:0:
320,192,50341,128,2,50692:0:0:0:0:
64,192,50517,1,2,0:0:0:0:
192,192,50692,128,8,51043:0:0:0:0:
448,192,50692,1,0,0:0:0:40:Hat Open.wav
320,192,50868,1,2,0:0:0:0:
64,192,51043,128,0,51394:0:0:0:40:Hat Open.wav
320,192,51218,1,2,0:0:0:0:
192,192,51394,1,8,0:0:0:0:
448,192,51394,1,0,0:0:0:40:Hat Open.wav
320,192,51569,1,2,0:0:0:0:
64,192,51745,128,4,52096:0:0:0:0:
192,192,51745,1,2,0:0:0:0:
320,192,52096,1,8,0:0:0:0:
448,192,52096,1,0,0:0:0:40:Hat Open.wav
192,192,52271,1,2,0:0:0:0:
64,192,52447,128,0,52797:0:0:0:0:
320,192,52797,1,8,0:0:0:0:
448,192,52797,128,0,53148:0:0:0:40:Hat Open.wav
64,192,53148,128,2,53499:0:0:0:0:
320,192,53324,1,0,0:0:0:0:
192,192,53499,1,8,0:0:0:0:
448,192,53499,1,0,0:0:0:40:Hat Open.wav
320,192,53675,1,2,0:0:0:0:
448,192,53850,128,4,54201:0:0:0:0:
64,192,54025,1,8,0:0:0:0:
192,192,54201,1,8,0:0:0:0:
320,192,54376,1,0,0:0:0:50:Tom2.wav
64,192,54552,1,4,0:0:0:0:
448,192,54552,128,2,54903:0:0:0:0:
320,192,54903,1,8,0:0:0:0:
64,192,55078,1,2,0:0:0:0:
192,192,55254,128,0,55604:0:0:0:40:Hat Open.wav
448,192,55254,1,0,0:0:0:0:
320,192,55604,1,8,0:0:0:0:
64,192,55780,1,2,0:0:0:0:
192,192,55955,1,0,0:0:0:40:Hat Open.wav
448,192,55955,128,0,56306:0:0:0:0:
64,192,56306,1,8,0:0:0:0:
320,192,56482,1,2,0:0:0:0:
64,192,56657,1,0,0:0:0:40:Hat Open.wav
192,192,56657,128,0,57008:0:0:0:0:
320,192,57008,1,8,0:0:0:0:
64,192,57359,1,2,0:0:0:0:
448,192,57359,128,4,57710:0:0:0:0:
192,192,57710,1,8,0:0:0:0:
320,192,57710,128,0,58061:0:0:0:40:Hat Open.wav
64,192,58061,128,0,58411:0:0:0:40:Hat Open.wav
448,192,58061,1,0,0:0:0:0:
192,192,58411,128,8,58762:0:0:0:0:
320,192,58411,1,0,0:0:0:40:Hat Open.wav
64,192,58762,1,2,0:0:0:0:
448,192,58762,1,4,0:0:0:0:
320,192,59025,1,8,0:0:0:0:
448,192,59025,1,0,0:0:0:0:
64,192,59289,1,8,0:0:0:0:
192,192,59289,1,0,0:0:0:0:
320,192,59464,128,2,59640:0:0:0:0:
64,192,59640,128,8,60166:0:0:0:0:
448,192,59640,128,4,60166:0:0:0:0:
192,192,60166,1,4,0:0:0:0:
320,192,60166,128,2,60517:0:0:0:0:
64,192,60517,1,8,0:0:0:0:
448,192,60517,128,0,60868:0:0:0:40:Hat Open.wav
320,192,60868,1,2,0:0:0:0:
192,192,61043,1,2,0:0:0:0:
64,192,61218,1,8,0:0:0:0:
448,192,61218,1,0,0:0:0:40:Hat Open.wav
320,192,61394,1,2,0:0:0:0:
192,192,61569,128,0,61920:0:0:0:40:Hat Open.wav
448,192,61745,1,2,0:0:0:0:
64,192,61920,1,8,0:0:0:0:
320,192,61920,128,0,62271:0:0:0:40:Hat Open.wav
192,192,62096,1,2,0:0:0:0:
448,192,62271,128,0,62622:0:0:0:40:Hat Open.wav
64,192,62447,1,2,0:0:0:0:
192,192,62622,1,8,0:0:0:0:
320,192,62622,1,0,0:0:0:40:Hat Open.wav
448,192,62797,1,2,0:0:0:0:
64,192,62973,128,2,63324:0:0:0:0:
320,192,62973,1,0,0:0:0:40:Hat Open.wav
192,192,63324,1,8,0:0:0:0:
448,192,63324,128,4,63675:0:0:0:0:
320,192,63499,1,2,0:0:0:0:
64,192,63675,128,0,64025:0:0:0:0:
192,192,64025,128,8,64376:0:0:0:0:
320,192,64025,1,0,0:0:0:40:Hat Open.wav
448,192,64376,128,0,64727:0:0:0:40:Hat Open.wav
192,192,64552,1,2,0:0:0:0:
64,192,64727,1,8,0:0:0:0:
320,192,64727,1,0,0:0:0:40:Hat Open.wav
448,192,64903,1,2,0:0:0:0:
64,192,65078,128,4,65429:0:0:0:0:
320,192,65254,1,8,0:0:0:0:
448,192,65254,1,0,0:0:0:0:
192,192,65429,1,8,0:0:0:0:
320,192,65604,1,0,0:0:0:50:Tom2.wav
64,192,65780,1,4,0:0:0:0:
448,192,65780,128,2,66131:0:0:0:0:
320,192,66131,1,8,0:0:0:0:
64,192,66306,1,2,0:0:0:0:
192,192,66482,1,0,0:0:0:40:Hat Open.wav
448,192,66482,128,0,66833:0:0:0:0:
320,192,66833,1,8,0:0:0:0:
192,192,67008,1,2,0:0:0:0:
64,192,67183,128,0,67534:0:0:0:40:Hat Open.wav
448,192,67183,1,0,0:0:0:0:
192,192,67534,1,8,0:0:0:0:
320,192,67710,1,2,0:0:0:0:
64,192,67885,1,0,0:0:0:40:Hat Open.wav
448,192,67885,128,0,68236:0:0:0:0:
192,192,68236,1,8,0:0:0:0:
64,192,68587,128,2,68938:0:0:0:0:
448,192,68587,1,0,0:0:0:40:Hat Open.wav
192,192,68938,1,8,0:0:0:0:
448,192,69113,1,2,0:0:0:0:
64,192,69289,1,0,0:0:0:40:Hat Open.wav
320,192,69289,128,0,69640:0:0:0:0:
192,192,69640,1,8,0:0:0:0:
448,192,69815,1,2,0:0:0:0:
64,192,69990,128,8,70254:0:0:0:0:
320,192,69990,1,0,0:0:0:40:Hat Open.wav
192,192,70254,1,8,0:0:0:0:
448,192,70341,1,0,0:0:0:50:Tom3.wav
64,192,70517,1,8,0:0:0:0:
192,192,70517,1,0,0:0:0:40:Hat Open.wav
320,192,70692,1,2,0:0:0:0:
64,192,70868,1,8,0:0:0:0:
448,192,70868,128,0,71218:0:0:0:40:Hat Open.wav
192,192,71043,1,0,0:0:0:50:Tom2.wav
320,192,71218,1,0,0:0:0:50:Tom3.wav
64,192,71394,128,8,71745:0:0:0:0:
448,192,71394,1,0,0:0:0:0:
192,192,71745,128,2,72096:0:0:0:0:
320,192,71745,1,0,0:0:0:0:
64,192,72096,1,2,0:0:0:0:
448,192,72096,128,0,72447:0:0:0:0:
192,192,72447,1,8,0:0:0:0:
320,192,72447,128,0,72797:0:0:0:50:Tom2.wav
64,192,72797,128,8,73148:0:0:0:0:
448,192,72797,128,0,73148:0:0:0:40:Hat Open.wav
192,192,73499,128,0,73850:0:0:0:0:
320,192,73850,128,0,74201:0:0:0:0:
64,192,74201,1,2,0:0:0:0:
448,192,74201,1,4,0:0:0:0:
320,192,74376,1,0,0:0:0:0:
192,192,74464,1,2,0:0:0:0:
64,192,74552,1,8,0:0:0:0:
448,192,74552,1,0,0:0:0:40:Hat Open.wav
320,192,74727,1,2,0:0:0:0:
64,192,74903,1,0,0:0:0:40:Hat Open.wav
448,192,75078,1,2,0:0:0:0:
192,192,75254,1,8,0:0:0:0:
320,192,75254,1,0,0:0:0:40:Hat Open.wav
64,192,75429,1,2,0:0:0:0:
320,192,75604,1,2,0:0:0:0:
192,192,75780,1,0,0:0:0:0:
64,192,75868,1,0,0:0:0:0:
320,192,75955,1,8,0:0:0:0:
448,192,75955,1,0,0:0:0:40:Hat Open.wav
192,192,76131,1,2,0:0:0:0:
448,192,76306,1,0,0:0:0:40:Hat Open.wav
64,192,76482,1,2,0:0:0:0:
192,192,76657,1,8,0:0:0:0:
320,192,76657,1,0,0:0:0:0:
448,192,76833,1,2,0:0:0:0:
320,192,76920,1,8,0:0:0:0:
192,192,77008,1,2,0:0:0:0:
64,192,77183,1,0,0:0:0:0:
192,192,77271,1,2,0:0:0:0:
320,192,77359,1,8,0:0:0:0:
448,192,77359,1,0,0:0:0:40:Hat Open.wav
64,192,77534,1,2,0:0:0:0:
320,192,77710,1,0,0:0:0:40:Hat Open.wav
192,192,77885,1,2,0:0:0:0:
64,192,78061,1,8,0:0:0:0:
448,192,78061,1,0,0:0:0:40:Hat Open.wav
320,192,78236,1,2,0:0:0:0:
192,192,78324,1,8,0:0:0:0:
64,192,78411,1,2,0:0:0:0:
448,192,78499,1,8,0:0:0:0:
320,192,78587,1,2,0:0:0:0:
64,192,78762,1,8,0:0:0:0:
192,192,78762,1,0,0:0:0:40:Hat Open.wav
448,192,78938,1,2,0:0:0:0:
192,192,79113,1,0,0:0:0:50:Tom3.wav
320,192,79201,1,8,0:0:0:0:
64,192,79289,1,8,0:0:0:0:
448,192,79289,1,0,0:0:0:40:Hat Open.wav
320,192,79464,1,2,0:0:0:0:
64,192,79640,1,8,0:0:0:0:
192,192,79640,1,0,0:0:0:40:Hat Open.wav
320,192,79815,1,8,0:0:0:0:
448,192,79815,1,4,0:0:0:0:
192,192,79990,1,0,0:0:0:0:
64,192,80166,1,8,0:0:0:0:
448,192,80166,1,0,0:0:0:40:Hat Open.wav
448,192,80341,1,2,0:0:0:0:
192,192,80517,1,8,0:0:0:0:
320,192,80517,1,0,0:0:0:40:Hat Open.wav
320,192,80692,1,2,0:0:0:0:
64,192,80868,1,8,0:0:0:0:
192,192,80868,1,0,0:0:0:40:Hat Open.wav
192,192,81043,1,2,0:0:0:0:
320,192,81218,1,8,0:0:0:0:
448,192,81218,1,0,0:0:0:40:Hat Open.wav
448,192,81394,1,2,0:0:0:0:
192,192,81569,1,8,0:0:0:0:
320,192,81569,1,0,0:0:0:40:Hat Open.wav
192,192,81745,1,2,0:0:0:0:
64,192,81920,1,8,0:0:0:0:
448,192,81920,1,0,0:0:0:40:Hat Open.wav
448,192,82096,1,2,0:0:0:0:
64,192,82271,1,8,0:0:0:0:
320,192,82271,1,0,0:0:0:40:Hat Open.wav
64,192,82447,1,2,0:0:0:0:
320,192,82622,1,8,0:0:0:0:
448,192,82622,1,0,0:0:0:40:Hat Open.wav
448,192,82797,1,2,0:0:0:0:
64,192,82973,1,8,0:0:0:0:
192,192,82973,1,0,0:0:0:40:Hat Open.wav
64,192,83148,1,2,0:0:0:0:
192,192,83324,1,8,0:0:0:0:
320,192,83324,1,0,0:0:0:40:Hat Open.wav
320,192,83499,1,2,0:0:0:0:
64,192,83675,1,8,0:0:0:0:
448,192,83675,1,0,0:0:0:40:Hat Open.wav
448,192,83850,1,2,0:0:0:0:
64,192,84025,1,12,0:0:0:0:
192,192,84025,1,2,0:0:0:0:
64,192,84201,1,8,0:0:0:0:
192,192,84201,1,0,0:0:0:0:
320,192,84376,1,12,0:0:0:0:
448,192,84376,1,2,0:0:0:0:
320,192,84552,1,8,0:0:0:0:
448,192,84552,1,0,0:0:0:0:
64,192,84727,1,8,0:0:0:0:
192,192,84727,1,2,0:0:0:0:
448,192,84903,1,0,0:0:0:50:Tom2.wav
320,192,84990,1,0,0:0:0:0:
192,192,85078,1,8,0:0:0:0:
64,192,85254,128,10,85780:0:0:0:0:
448,192,85254,128,0,85780:0:0:0:40:Hat Open.wav
