osu file format v14

[General]
AudioFilename: audio.mp3
AudioLeadIn: 0
PreviewTime: 47974
Countdown: 0
SampleSet: Soft
StackLeniency: 0.4
Mode: 0
LetterboxInBreaks: 0
WidescreenStoryboard: 1

[Editor]
DistanceSpacing: 6
BeatDivisor: 4
GridSize: 32
TimelineZoom: 2.699999

[Metadata]
Title:Zankyo Sanka (TV Size)
TitleUnicode:残響散歌 (TV Size)
Artist:Aimer
ArtistUnicode:Aimer
Creator:AsuKow
Version:Yereoz's Insane
Source:「鬼滅の刃」遊郭編
Tags:Kirishima- Shunao ShogunMoon Yereoz Soue GrazuKo エメ demon slayer kny kimetsu no yaiba yuukaku hen op opening anime pop jpop j-pop japanese female vocals vocalist season 2 two second entertainment district asa ga kuru 鬼滅の刃遊郭編 zankyousanka zankyosanka zankyou 胡蝶しのぶ Shinobu Kocho 胡蝶カナエ Kanae Kocho 栗花落カナヲ Kanao Tsuyuri Kochō Kochou
BeatmapID:3427818
BeatmapSetID:1677788

[Difficulty]
HPDrainRate:5
CircleSize:3.8
OverallDifficulty:8.2
ApproachRate:8.8
SliderMultiplier:1.67
SliderTickRate:1

[Events]
//Background and Video events
0,0,"94299481_p0.jpg",0,0
Video,-10,"video.mp4"
//Break Periods
//Storyboard Layer 0 (Background)
//Storyboard Layer 1 (Fail)
//Storyboard Layer 2 (Pass)
//Storyboard Layer 3 (Foreground)
//Storyboard Layer 4 (Overlay)
//Storyboard Sound Samples

[TimingPoints]
82,350.877192982456,4,2,1,45,1,0
783,350.877192982456,3,2,1,50,1,0
783,-78.7401574803149,4,2,1,45,0,0
959,-78.7401574803149,4,2,1,5,0,0
1046,-78.7401574803149,4,2,1,45,0,0
1310,-68.0272108843537,4,2,1,45,0,0
1485,-68.0272108843537,4,2,1,5,0,0
1573,-78.7401574803149,4,2,1,45,0,0
2889,-149.253731343284,4,2,1,45,0,0
3939,350.877192982456,4,2,1,55,1,0
3939,-63.6942675159236,4,2,1,55,0,0
4202,-100,4,2,1,55,0,0
4289,-100,4,2,1,55,0,0
4465,-72.992700729927,4,2,1,55,0,0
6746,-63.6942675159236,4,2,1,55,0,0
7272,-72.992700729927,4,2,1,55,0,0
8851,-63.6942675159236,4,2,1,55,0,0
8938,-63.6942675159236,4,2,1,5,0,0
9026,-93.4579439252336,4,2,1,55,0,0
9114,-63.6942675159236,4,2,1,5,0,0
9202,-63.6942675159236,4,2,1,55,0,0
9289,-63.6942675159236,4,2,1,5,0,0
9377,-93.4579439252336,4,2,1,55,0,0
9465,-63.6942675159236,4,2,1,5,0,0
9553,-68.0272108843537,4,2,1,70,0,0
11044,-68.0272108843537,4,2,1,5,0,0
11131,-68.0272108843537,4,2,1,70,0,0
13763,-63.6942675159236,4,2,1,70,0,0
14377,-63.6942675159236,4,2,1,5,0,0
14465,-63.6942675159236,4,2,1,70,0,0
14903,-63.6942675159236,4,2,1,5,0,0
14991,-63.6942675159236,4,2,1,70,0,0
15079,-63.6942675159236,4,2,1,5,0,0
15167,-63.6942675159236,4,2,1,70,0,0
15693,-68.0272108843537,4,2,1,70,0,0
16395,-63.6942675159236,4,2,1,70,0,0
16658,-63.6942675159236,4,2,1,5,0,0
16746,-68.0272108843537,4,2,1,70,0,0
18500,-56.4971751412429,4,2,1,70,0,0
20254,-93.4579439252336,4,2,1,70,0,0
20693,-93.4579439252336,4,2,1,5,0,0
20781,-93.4579439252336,4,2,1,70,0,0
21044,-93.4579439252336,4,2,1,5,0,0
21131,-103.092783505155,4,2,1,60,0,0
22798,-103.092783505155,4,2,1,5,0,0
22886,-103.092783505155,4,2,1,60,0,0
28149,-93.4579439252339,4,2,1,60,0,0
28412,-93.4579439252339,4,2,1,5,0,0
28500,-93.4579439252339,4,2,1,60,0,0
29114,-93.4579439252339,4,2,1,5,0,0
29202,-93.4579439252339,4,2,1,60,0,0
30605,-68.0272108843537,4,2,1,60,0,0
31482,-68.0272108843537,4,2,1,60,0,0
31921,-68.0272108843537,4,2,1,5,0,0
32009,-114.942528735632,4,2,1,55,0,0
33324,-114.942528735632,4,2,1,55,0,0
33412,-114.942528735632,4,2,1,55,0,0
36131,-114.942528735632,4,2,1,5,0,0
36219,-114.942528735632,4,2,1,55,0,0
36482,-114.942528735632,4,2,1,5,0,0
36570,-114.942528735632,4,2,1,55,0,0
37623,-85.4700854700855,4,2,1,55,0,0
37886,-85.4700854700855,4,2,1,5,0,0
37974,-85.4700854700855,4,2,1,55,0,0
38061,-85.4700854700855,4,2,1,5,0,0
38149,-85.4700854700855,4,2,1,55,0,0
38763,-85.4700854700855,4,2,1,5,0,0
38851,-85.4700854700855,4,2,1,55,0,0
40693,-85.4700854700855,4,2,1,5,0,0
40781,-85.4700854700855,4,2,1,65,0,0
41044,-85.4700854700855,4,2,1,5,0,0
41131,-85.4700854700855,4,2,1,65,0,0
41395,-85.4700854700855,4,2,1,5,0,0
41482,-85.4700854700855,4,2,1,65,0,0
41658,-72.992700729927,4,2,1,65,0,0
41921,-72.992700729927,4,2,1,5,0,0
42009,-72.992700729927,4,2,1,65,0,0
42360,-175.438596491228,4,2,1,65,0,0
42623,-175.438596491228,4,2,1,5,0,0
42710,-78.7401574803149,4,2,1,65,0,0
42974,-78.7401574803149,4,2,1,5,0,0
43061,-78.7401574803149,4,2,1,65,0,0
43237,-78.7401574803149,4,2,1,65,0,0
43500,-78.7401574803149,4,2,1,5,0,0
43588,-78.7401574803149,4,2,1,65,0,0
44640,-72.992700729927,4,2,1,65,0,0
46482,-72.992700729927,4,2,1,65,0,0
46570,-72.992700729927,4,2,1,65,0,0
47009,-72.992700729927,4,2,1,65,0,0
47096,-72.992700729927,4,2,1,65,0,0
47184,-72.992700729927,4,2,1,65,0,0
47272,-72.992700729927,4,2,1,65,0,0
47535,-72.992700729927,4,2,1,65,0,0
47623,-72.992700729927,4,2,1,65,0,0
47710,-72.992700729927,4,2,1,65,0,0
47798,-72.992700729927,4,2,1,65,0,0
48061,-72.992700729927,4,2,1,65,0,0
48149,-93.4579439252336,4,2,1,65,0,0
48237,-93.4579439252336,4,2,1,5,0,0
48324,-93.4579439252336,4,2,1,65,0,0
48851,-59.8802395209581,4,2,1,75,0,0
49114,-59.8802395209581,4,2,1,75,0,0
49202,-72.992700729927,4,2,1,75,0,0
49465,-72.992700729927,4,2,1,5,0,0
49553,-63.6942675159236,4,2,1,75,0,0
49640,-72.992700729927,4,2,1,5,0,0
49728,-63.6942675159236,4,2,1,75,0,0
49816,-72.992700729927,4,2,1,5,0,0
49903,-63.6942675159236,4,2,1,75,0,0
50254,-59.8802395209581,4,2,1,75,0,0
50342,-59.8802395209581,4,2,1,75,0,0
50430,-59.8802395209581,4,2,1,75,0,0
50517,-59.8802395209581,4,2,1,75,0,0
50605,-72.992700729927,4,2,1,75,0,0
50868,-72.992700729927,4,2,1,5,0,0
50956,-72.992700729927,4,2,1,75,0,0
51219,-72.992700729927,4,2,1,5,0,0
51307,-72.992700729927,4,2,1,75,0,0
51570,-72.992700729927,4,2,1,5,0,0
51658,-68.0272108843537,4,2,1,75,0,0
51921,-68.0272108843537,4,2,1,75,0,0
52009,-68.0272108843537,4,2,1,75,0,0
52272,-72.992700729927,4,2,1,5,0,0
52360,-68.0272108843537,4,2,1,75,0,0
52623,-68.0272108843537,4,2,1,75,0,0
52710,-68.0272108843537,4,2,1,75,0,0
53675,-72.992700729927,4,2,1,5,0,0
53763,-68.0272108843537,4,2,1,75,0,0
54465,-59.8802395209581,4,2,1,75,0,0
54903,-72.992700729927,4,2,1,5,0,0
54991,-59.8802395209581,4,2,1,75,0,0
55079,-72.992700729927,4,2,1,5,0,0
55167,-59.8802395209581,4,2,1,75,0,0
56570,-72.992700729927,4,2,1,75,0,0
56833,-72.992700729927,4,2,1,75,0,0
56921,-72.992700729927,4,2,1,75,0,0
57272,-63.6942675159236,4,2,1,75,0,0
57886,-63.6942675159236,4,2,1,75,0,0
57974,-63.6942675159236,4,2,1,75,0,0
58675,-59.8802395209581,4,2,1,75,0,0
59114,-72.992700729927,4,2,1,5,0,0
59202,-59.8802395209581,4,2,1,75,0,0
59289,-72.992700729927,4,2,1,5,0,0
59377,-59.8802395209581,4,2,1,75,0,0
59465,-72.992700729927,4,2,1,5,0,0
59553,-59.8802395209581,4,2,1,75,0,0
60342,-59.8802395209581,4,2,1,75,0,0
60430,-72.992700729927,4,2,1,75,0,0
60693,-72.992700729927,4,2,1,5,0,0
60781,-63.6942675159236,4,2,1,75,0,0
60868,-72.992700729927,4,2,1,5,0,0
60956,-63.6942675159236,4,2,1,75,0,0
61044,-72.992700729927,4,2,1,5,0,0
61131,-63.6942675159236,4,2,1,75,0,0
61482,-59.8802395209581,4,2,1,75,0,0
61570,-59.8802395209581,4,2,1,75,0,0
61658,-59.8802395209581,4,2,1,75,0,0
61746,-59.8802395209581,4,2,1,75,0,0
61833,-72.992700729927,4,2,1,75,0,0
62096,-72.992700729927,4,2,1,5,0,0
62184,-72.992700729927,4,2,1,75,0,0
62447,-72.992700729927,4,2,1,5,0,0
62535,-72.992700729927,4,2,1,75,0,0
62798,-72.992700729927,4,2,1,5,0,0
62886,-68.0272108843537,4,2,1,75,0,0
63149,-68.0272108843537,4,2,1,75,0,0
63237,-68.0272108843537,4,2,1,75,0,0
63500,-72.992700729927,4,2,1,5,0,0
63588,-68.0272108843537,4,2,1,75,0,0
63851,-68.0272108843537,4,2,1,75,0,0
63938,-68.0272108843537,4,2,1,75,0,0
64202,-72.992700729927,4,2,1,5,0,0
64289,-68.0272108843537,4,2,1,75,0,0
64903,-72.992700729927,4,2,1,5,0,0
64991,-68.0272108843537,4,2,1,75,0,0
65693,-59.8802395209581,4,2,1,75,0,0
66131,-72.992700729927,4,2,1,5,0,0
66219,-59.8802395209581,4,2,1,75,0,0
66307,-72.992700729927,4,2,1,5,0,0
66395,-59.8802395209581,4,2,1,75,0,0
67798,-68.0272108843537,4,2,1,75,0,0
68500,-59.8802395209581,4,2,1,75,0,0
68938,-72.992700729927,4,2,1,5,0,0
69026,-59.8802395209581,4,2,1,75,0,0
69114,-72.992700729927,4,2,1,5,0,0
69202,-59.8802395209581,4,2,1,75,0,0
70342,-72.992700729927,4,2,1,5,0,0
70430,-59.8802395209581,4,2,1,75,0,0
70517,-72.992700729927,4,2,1,5,0,0
70605,-59.8802395209581,4,2,1,75,0,0
71746,-72.992700729927,4,2,1,5,0,0
71833,-59.8802395209581,4,2,1,75,0,0
74114,-63.6942675159236,4,2,1,75,0,0
75605,-63.6942675159236,4,2,1,5,0,0
75693,-63.6942675159236,4,2,1,75,0,0
79728,-59.8802395209581,4,2,1,75,0,0
81219,-59.8802395209581,4,2,1,5,0,0
81307,-59.8802395209581,4,2,1,75,0,0
82623,-59.8802395209581,4,2,1,5,0,0
82710,-59.8802395209581,4,2,1,75,0,0
82798,-59.8802395209581,4,2,1,5,0,0
82886,-59.8802395209581,4,2,1,75,0,0

[Colours]
Combo1 : 168,0,168
Combo2 : 0,232,232
Combo3 : 159,159,208
Combo4 : 255,176,176

[HitObjects]
32,81,82,5,8,0:2:0:0:
93,136,432,5,8,0:2:0:0:
154,191,783,6,0,P|202:177|272:168,1,106.044999190941,2|0,1:2|0:2,0:0:0:0:
324,130,1046,2,8,P|338:160|328:194,1,53.0224995954704,10|8,0:2|0:2,0:0:0:0:
154,300,1310,6,0,B|115:293|103:258|103:258|126:293|174:280,1,122.744994287533,2|0,0:2|0:2,0:0:0:0:
227,304,1573,2,8,P|253:294|285:280,1,53.0224995954704,10|8,0:2|0:2,0:0:0:0:
385,268,1836,5,2,1:2:0:0:
445,135,2011,1,8,0:2:0:0:
445,135,2099,2,8,P|432:101|425:78,1,53.0224995954704,10|8,0:2|0:2,0:0:0:0:
310,7,2362,6,0,B|248:26|248:26|226:57|226:57|154:79,1,159.067498786411,2|2,0:2|0:2,0:0:0:0:
98,126,2713,5,0,1:2:0:0:
107,150,2800,1,0,1:2:0:0:
117,175,2889,2,0,B|207:114|253:201|250:205|247:209|278:283|372:230,1,279.72498676838,2|0,1:2|0:2,0:0:0:0:
405,142,3939,6,0,B|409:106|453:88|453:88|325:136,1,196.642500750132,6|8,1:2|0:2,0:0:0:0:
324,160,4289,1,0,3:2:0:0:
481,172,4465,6,0,P|469:228|460:288,1,114.395003229229,2|8,1:2|0:2,0:0:0:0:
488,363,4728,1,0,3:2:0:0:
488,363,4816,2,0,P|451:326|375:322,1,114.395003229229,2|0,0:2|0:2,0:0:0:0:
263,347,5079,5,0,3:2:0:0:
263,347,5167,2,0,B|237:353|215:339|215:339|235:364|271:368,1,114.395003229229,2|0,0:2|1:2,0:0:0:0:
315,277,5430,1,0,3:2:0:0:
315,277,5517,2,0,P|306:220|294:164,1,114.395003229229,2|0,0:2|1:2,0:0:0:0:
367,61,5781,5,0,3:2:0:0:
367,61,5868,2,0,B|368:49|390:36|390:36|306:71,1,114.395003229229,2|0,0:2|0:2,0:0:0:0:
241,97,6131,5,0,3:2:0:0:
241,97,6219,2,0,P|182:88|115:66,1,114.395003229229,2|0,0:2|1:2,0:0:0:0:
36,56,6482,2,0,P|28:24|16:-2,2,57.1975016146145,0|0|0,3:2|3:2|3:2,0:0:0:0:
70,193,6746,6,0,B|114:194|131:157|131:157|105:187|44:170,1,131.095000500088,2|0,1:2|0:2,0:0:0:0:
13,133,7009,1,2,0:2:0:0:
13,133,7096,1,0,3:2:0:0:
129,281,7272,6,0,P|171:255|249:236,1,114.395003229229,2|0,0:2|3:2,0:0:0:0:
325,193,7535,1,0,3:2:0:0:
325,193,7623,2,0,P|317:257|313:327,1,114.395003229229,2|0,0:2|0:2,0:0:0:0:
268,384,7886,5,0,3:2:0:0:
268,384,7974,2,0,P|313:346|400:373,1,114.395003229229,2|0,0:2|1:2,0:0:0:0:
471,378,8324,5,2,0:2:0:0:
443,300,8500,1,2,1:2:0:0:
415,222,8675,1,2,1:2:0:0:
346,123,8851,6,0,P|310:137|287:164,1,65.5475002500439,4|0,0:3|0:2,0:0:0:0:
266,240,9026,2,0,P|238:241|215:230,1,44.6724986367035,0|0,1:2|0:2,0:0:0:0:
58,266,9202,6,0,P|94:280|117:307,1,65.5475002500439,4|0,0:3|0:2,0:0:0:0:
138,383,9377,2,0,P|166:384|189:373,1,44.6724986367035,0|0,1:2|0:2,0:0:0:0:
375,355,9553,6,0,B|386:316|416:305|416:305|295:345,1,184.1174914313,6|0,1:2|1:2,0:0:0:0:
232,314,9903,1,8,0:2:0:0:
455,373,10079,2,0,P|496:320|475:250,1,122.744994287533,2|0,1:2|0:2,0:0:0:0:
318,172,10430,2,0,P|337:234|350:294,1,122.744994287533,2|8,1:2|0:2,0:0:0:0:
464,191,10781,6,0,B|517:186|536:137|536:137|510:176|459:173,1,184.1174914313,2|0,1:2|0:2,0:0:0:0:
391,122,11131,2,0,P|338:83|276:92,1,122.744994287533,2|8,0:2|0:2,0:0:0:0:
120,171,11482,2,0,B|114:149|90:136|90:136|199:174,1,122.744994287533,2|0,1:2|0:2,0:0:0:0:
287,207,11833,2,0,B|293:185|316:172|316:172|208:210,1,122.744994287533,2|8,1:2|0:2,0:0:0:0:
131,318,12184,5,0,1:2:0:0:
137,335,12271,1,8,0:2:0:0:
144,352,12360,2,0,P|202:354|270:369,1,122.744994287533,2|0,1:2|0:2,0:0:0:0:
341,335,12623,1,0,1:2:0:0:
341,335,12710,1,8,0:2:0:0:
244,197,12886,6,0,P|225:259|212:319,1,122.744994287533,2|0,1:2|0:2,0:0:0:0:
93,138,13237,2,0,P|112:200|125:260,1,122.744994287533,2|8,1:2|0:2,0:0:0:0:
124,256,13588,1,0,1:2:0:0:
210,114,13763,6,0,B|258:113|300:68|300:68|257:97|209:93,1,196.642500750132,2|0,1:2|1:2,0:0:0:0:
137,58,14114,1,8,0:2:0:0:
244,197,14289,2,0,P|273:186|314:176,1,65.5475002500439,2|0,1:2|0:2,0:0:0:0:
425,90,14465,5,8,0:3:0:0:
417,110,14553,1,8,0:2:0:0:
408,133,14640,2,0,B|450:186|395:250|373:209|319:254|388:343,1,196.642500750132,2|0,1:2|0:2,0:0:0:0:
426,357,14991,2,0,P|391:382|346:379,1,65.5475002500439,2|0,1:2|0:2,0:0:0:0:
167,281,15167,6,0,B|212:271|238:214|238:214|226:283|284:333,1,196.642500750132,6|0,1:2|1:2,0:0:0:0:
198,352,15517,1,8,0:2:0:0:
202,144,15693,2,0,P|274:143|311:193,1,122.744994287533,2|0,1:2|0:2,0:0:0:0:
100,353,16044,2,0,P|90:290|74:225,1,122.744994287533,2|8,1:2|0:2,0:0:0:0:
41,59,16395,6,0,B|29:18|-2:6|-2:6|117:45,1,196.642500750132,2|0,1:2|0:2,0:0:0:0:
202,144,16746,2,0,B|228:139|249:106|249:106|223:131|192:126,1,122.744994287533,2|8,0:2|0:2,0:0:0:0:
37,164,17096,2,0,B|30:140|9:130|9:130|115:175,1,122.744994287533,2|0,1:2|0:2,0:0:0:0:
210,249,17447,2,0,B|217:225|238:215|238:215|132:260,1,122.744994287533,2|8,1:2|0:2,0:0:0:0:
6,312,17798,5,0,1:2:0:0:
13,328,17885,1,8,0:2:0:0:
19,346,17974,2,0,P|68:328|152:330,1,122.744994287533,2|0,1:2|0:2,0:0:0:0:
211,370,18237,1,0,1:2:0:0:
211,370,18324,1,8,0:2:0:0:
388,325,18500,6,0,B|414:329|440:290|440:290|421:339|383:345,1,147.795004792242,2|0,1:2|0:2,0:0:0:0:
237,215,18851,2,0,B|227:189|206:176|206:176|306:217,1,147.795004792242,2|8,1:2|0:2,0:0:0:0:
440,290,19202,2,0,P|425:223|409:143,1,147.795004792242,2|8,1:2|0:2,0:0:0:0:
512,2,19553,5,8,0:3:0:0:
500,20,19640,1,8,0:2:0:0:
488,39,19728,1,0,1:2:0:0:
321,138,19903,2,0,P|385:158|463:184,1,147.795004792242,2|0,1:2|1:2,0:0:0:0:
459,369,20254,6,0,B|402:393|344:332|397:317|329:229|241:301,1,223.362493183518,6|0,1:2|0:2,0:0:0:0:
222,349,20781,6,0,P|231:279|255:199,1,134.017495910111,6|0,1:2|0:2,0:0:0:0:
148,265,21131,6,0,P|139:211|124:150,1,80.9950019156228,10|0,0:2|1:2,0:0:0:0:
157,0,21482,1,2,0:2:0:0:
97,68,21658,1,2,1:2:0:0:
44,141,21833,1,8,0:2:0:0:
44,141,21921,1,2,0:2:0:0:
44,141,22008,1,2,1:2:0:0:
197,80,22184,6,0,P|239:92|300:100,1,80.9950019156228,2|0,0:2|1:2,0:0:0:0:
363,157,22447,1,2,0:2:0:0:
363,157,22535,2,0,B|398:147|410:110|410:110|392:139|357:142,1,121.492502873434,10|0,0:2|0:2,0:0:0:0:
283,196,22886,1,2,0:2:0:0:
285,202,22973,1,2,0:2:0:0:
287,208,23061,1,2,1:2:0:0:
426,284,23237,5,10,0:2:0:0:
459,197,23412,1,2,1:2:0:0:
469,359,23588,6,0,P|424:336|340:320,1,121.492502873434,2|0,1:2|1:2,0:0:0:0:
275,362,23938,2,0,P|255:326|265:276,1,80.9950019156228,10|0,0:2|1:2,0:0:0:0:
325,244,24202,1,0,1:2:0:0:
325,244,24289,1,2,0:2:0:0:
194,128,24465,1,2,1:2:0:0:
297,134,24640,1,8,0:2:0:0:
295,140,24727,1,2,0:2:0:0:
293,146,24816,1,2,1:2:0:0:
163,285,24991,6,0,P|130:261|78:266,1,80.9950019156228,2|0,1:2|1:2,0:0:0:0:
108,348,25254,1,2,0:2:0:0:
108,348,25342,2,0,L|142:178,1,161.990003831246,10|2,0:2|0:2,0:0:0:0:
104,121,25781,1,2,0:2:0:0:
104,121,25868,1,0,1:2:0:0:
258,287,26044,5,10,0:2:0:0:
397,176,26219,1,2,1:2:0:0:
443,280,26395,6,0,B|488:290|517:244|517:244|482:272|443:261,1,161.990003831246,6|8,1:2|0:2,0:0:0:0:
302,179,26921,1,2,1:2:0:0:
362,282,27096,2,0,P|372:244|391:197,1,80.9950019156228,2|0,0:2|1:2,0:0:0:0:
439,80,27447,1,8,0:2:0:0:
446,98,27534,1,2,0:2:0:0:
453,117,27622,1,2,1:2:0:0:
301,179,27798,6,0,P|291:133|278:94,1,80.9950019156228,2|0,0:2|1:2,0:0:0:0:
327,22,28061,1,2,0:2:0:0:
327,22,28149,2,0,P|273:13|192:70,1,134.017495910111,10|0,0:2|0:2,0:0:0:0:
165,126,28500,1,2,0:2:0:0:
165,126,28675,1,0,1:2:0:0:
46,71,28851,6,0,B|40:50|15:38|15:38|102:63,1,134.017495910111,10|0,0:2|0:2,0:0:0:0:
165,126,29202,6,0,B|195:177|153:214|135:195|95:239|137:296,1,178.689994546814,6|10,1:2|0:2,0:0:0:0:
33,191,29728,1,0,1:2:0:0:
35,196,29815,1,2,0:2:0:0:
38,202,29903,1,2,0:2:0:0:
146,307,30079,1,2,1:2:0:0:
241,139,30254,6,0,P|236:160|232:182,1,44.6724986367035,10|2,0:2|0:2,0:0:0:0:
164,126,30430,2,0,P|159:147|155:169,1,44.6724986367035,2|8,0:2|0:2,0:0:0:0:
146,307,30605,6,0,P|202:341|277:321,1,122.744994287533,14|0,0:2|1:2,0:0:0:0:
288,316,30868,1,0,1:2:0:0:
288,316,30956,1,2,1:2:0:0:
434,156,31131,6,0,P|448:217|464:289,1,122.744994287533,12|0,0:2|1:2,0:0:0:0:
485,355,31395,1,8,0:2:0:0:
485,355,31482,2,1,B|451:398|371:372|347:302|406:295|380:211|288:180|233:258,1,306.862485718833,6|0,1:2|0:2,0:0:0:0:
185,257,32009,6,0,P|220:310|321:287,1,145.290001219322,6|2,1:2|1:2,0:0:0:0:
242,123,32710,2,0,P|175:142|97:168,1,145.290001219322,2|2,1:2|1:2,0:0:0:0:
9,136,33237,6,0,P|14:162|23:187,1,36.3225003048306,10|0,0:2|0:0,0:0:0:0:
85,266,33412,2,0,P|138:303|225:264,1,145.290001219322,2|2,1:2|1:2,0:0:0:0:
331,99,34114,5,2,1:2:0:0:
173,192,34289,1,10,0:2:0:0:
250,254,34465,5,2,1:2:0:0:
92,161,34640,1,8,0:2:0:0:
31,225,34816,6,0,P|96:208|178:190,1,145.290001219322,2|12,1:2|0:2,0:0:0:0:
172,191,35517,1,2,1:2:0:0:
321,138,35693,1,8,0:2:0:0:
326,140,35780,1,8,0:2:0:0:
332,143,35868,1,2,1:2:0:0:
216,68,36044,2,0,P|197:62|171:56,1,36.3225003048306,6|0,0:3|0:2,0:0:0:0:
99,28,36219,6,0,P|71:71|97:151,1,108.967500914492,6|0,1:2|0:2,0:0:0:0:
136,197,36570,2,0,P|127:240|121:281,1,72.6450006096611,2|8,1:2|0:3,0:0:0:0:
122,268,36833,1,0,0:3:0:0:
122,268,36921,1,2,1:2:0:0:
67,384,37096,5,4,0:3:0:0:
211,301,37272,1,2,1:2:0:0:
280,377,37447,5,8,0:3:0:0:
285,375,37534,1,8,0:3:0:0:
291,372,37623,2,0,B|376:392|335:313|438:334,1,146.542500559015,6|0,1:2|0:2,0:0:0:0:
493,361,37974,2,0,P|503:328|491:296,1,48.8475001863384,2|0,1:2|0:2,0:0:0:0:
450,256,38149,1,2,0:2:0:0:
289,139,38324,6,0,B|283:111|258:98|258:98|391:144,1,146.542500559015,2|8,1:2|0:3,0:0:0:0:
412,167,38675,2,0,P|398:197|367:203,1,48.8475001863384,2|0,1:2|0:2,0:0:0:0:
304,225,38851,5,8,0:3:0:0:
298,222,38939,1,8,0:3:0:0:
293,220,39026,1,2,1:2:0:0:
176,94,39202,5,8,0:2:0:0:
85,224,39377,1,2,1:2:0:0:
34,164,39553,1,2,0:2:0:0:
96,115,39728,1,10,0:2:0:0:
22,42,39903,5,8,0:3:0:0:
22,42,39991,1,8,0:3:0:0:
22,42,40079,2,0,P|35:90|53:163,1,97.6950003726768,2|8,1:2|0:2,0:0:0:0:
130,296,40430,6,0,B|160:299|194:258|194:258|159:282|130:276,1,146.542500559015,2|0,0:2|0:2,0:0:0:0:
55,250,40781,1,8,0:2:0:0:
210,180,40956,6,0,P|237:190|262:207,1,48.8475001863384,2|0,0:2|0:2,0:0:0:0:
329,297,41131,2,0,B|338:276|364:260|364:260|252:285,1,146.542500559015,10|0,0:2|0:2,0:0:0:0:
242,356,41482,1,2,0:2:0:0:
441,277,41658,6,0,B|482:228|439:182|423:195|370:168|426:91,1,171.592504843844,2|0,1:2|0:2,0:0:0:0:
456,37,42009,2,0,B|477:41|502:19|502:19|484:49|456:63,1,114.395003229229,10|0,0:2|1:2,0:0:0:0:
301,82,42360,6,0,P|266:73|216:64,1,71.3924991285095,10|0,0:2|0:2,0:0:0:0:
168,24,42710,6,0,P|204:95|214:204,1,159.067498786411,6|0,1:2|0:2,0:0:0:0:
193,252,43061,5,8,0:2:0:0:
189,258,43149,1,8,0:2:0:0:
186,264,43237,2,0,B|269:296|249:213|353:252,1,159.067498786411,2|0,1:2|0:2,0:0:0:0:
402,312,43588,2,0,B|435:308|451:279|451:279|427:301|396:299,1,106.044999190941,10|0,0:2|1:2,0:0:0:0:
295,333,43938,5,8,0:3:0:0:
285,348,44026,1,8,0:3:0:0:
267,359,44114,1,8,0:3:0:0:
241,364,44202,1,8,0:3:0:0:
208,350,44289,2,0,P|160:300|106:295,1,106.044999190941,2|8,1:2|0:2,0:0:0:0:
45,323,44553,5,8,0:3:0:0:
45,323,44640,2,0,P|75:207|92:175,1,114.395003229229,2|8,1:2|0:2,0:0:0:0:
24,138,44903,1,8,0:2:0:0:
24,138,44991,2,0,P|87:124|149:159,1,114.395003229229,10|0,0:2|1:2,0:0:0:0:
293,273,45342,5,8,0:3:0:0:
308,263,45430,1,8,0:3:0:0:
319,245,45518,1,8,0:3:0:0:
325,223,45606,1,8,0:3:0:0:
317,196,45693,1,8,0:3:0:0:
299,166,45781,1,8,0:3:0:0:
294,125,45868,1,8,0:3:0:0:
313,83,45956,1,8,0:3:0:0:
354,51,46044,6,0,P|415:44|466:108,1,114.395003229229,14|0,0:2|1:2,0:0:0:0:
486,142,46307,2,0,P|477:174|468:199,1,57.1975016146145,8|0,0:2|0:2,0:0:0:0:
384,363,46570,6,0,P|323:333|249:326,1,114.395003229229,4|0,1:2|1:2,0:0:0:0:
204,345,46833,2,0,P|191:308|178:288,1,57.1975016146145,8|0,0:2|0:2,0:0:0:0:
123,75,47096,5,14,0:2:0:0:
62,197,47272,1,14,0:2:0:0:
62,197,47623,5,8,0:2:0:0:
195,118,47798,1,8,0:2:0:0:
54,37,47974,1,8,0:2:0:0:
136,250,48149,6,0,P|158:239|187:231,1,44.6724986367035,6|0,0:3|0:2,0:0:0:0:
284,197,48324,5,10,0:2:0:0:
233,135,48500,5,2,0:2:0:0:
297,43,48675,5,2,0:2:0:0:
460,81,48851,6,0,P|442:153|420:255,1,139.444995638088,6|0,1:2|0:2,0:0:0:0:
417,371,49202,2,0,B|467:368|494:323|494:323|462:355|406:342,1,171.592504843844,10|0,0:2|0:2,0:0:0:0:
331,334,49553,2,0,P|296:323|257:307,1,65.5475002500439,2|0,0:2|0:2,0:0:0:0:
191,347,49728,2,0,P|180:310|193:268,1,65.5475002500439,2|0,1:2|0:2,0:0:0:0:
248,164,49903,1,10,0:2:0:0:
260,178,50079,1,2,1:2:0:0:
139,36,50254,6,0,P|71:68|72:150,1,139.444995638088,2|0,0:2|1:2,0:0:0:0:
162,267,50605,2,0,B|182:239|206:232|206:232|86:264,1,171.592504843844,10|0,0:2|0:2,0:0:0:0:
21,312,50956,2,0,P|85:354|212:324,1,171.592504843844,2|0,0:2|0:2,0:0:0:0:
237,304,51307,1,10,0:2:0:0:
460,294,51482,6,0,P|422:310|400:319,1,57.1975016146145,2|0,0:2|0:2,0:0:0:0:
342,363,51658,2,0,B|292:290|335:233|377:277|444:210|369:131,1,245.489988575066,6|8,1:2|0:2,0:0:0:0:
255,39,52184,6,0,P|285:28|325:40,1,61.3724971437665,2|0,1:2|0:2,0:0:0:0:
289,109,52360,2,0,P|273:158|258:236,1,122.744994287533,2|0,0:2|1:2,0:0:0:0:
325,292,52710,1,10,0:2:0:0:
167,358,52886,5,0,1:2:0:0:
150,358,52974,1,0,1:2:0:0:
120,345,53061,6,0,P|135:278|144:210,1,122.744994287533,2|2,1:2|1:2,0:0:0:0:
246,164,53412,1,8,0:2:0:0:
249,60,53588,2,0,P|221:47|174:47,1,61.3724971437665,2|0,1:2|0:2,0:0:0:0:
97,0,53763,2,0,P|87:31|92:68,1,61.3724971437665,2|8,1:2|0:2,0:0:0:0:
132,143,53938,2,0,P|98:150|57:160,1,61.3724971437665,8|0,0:2|1:2,0:0:0:0:
6,206,54114,1,10,0:2:0:0:
0,227,54202,1,8,0:3:0:0:
0,254,54289,1,8,0:3:0:0:
14,275,54377,1,8,0:3:0:0:
41,291,54465,6,0,P|110:269|209:260,1,139.444995638088,2|0,1:2|0:2,0:0:0:0:
242,324,54728,1,0,1:2:0:0:
242,324,54816,2,0,P|261:286|262:238,1,69.7224978190442,10|0,0:2|0:2,0:0:0:0:
343,207,54991,2,0,P|334:165|305:126,1,69.7224978190442,2|0,1:2|0:2,0:0:0:0:
180,82,55167,2,0,B|130:87|108:69|108:69|126:98|205:116,1,139.444995638088,2|0,0:2|1:2,0:0:0:0:
281,57,55517,2,0,P|361:57|420:119,1,139.444995638088,10|0,0:2|1:2,0:0:0:0:
483,267,55868,6,0,B|493:249|522:235|522:235|411:257,1,139.444995638088,2|0,1:2|0:2,0:0:0:0:
419,337,56131,1,0,1:2:0:0:
419,337,56219,2,0,P|357:276|359:221,1,139.444995638088,10|0,0:2|1:2,0:0:0:0:
472,61,56570,2,0,P|465:141|405:165,1,114.395003229229,2|0,0:2|1:2,0:0:0:0:
290,150,56921,2,0,P|239:132|174:124,1,114.395003229229,10|0,0:2|0:2,0:0:0:0:
125,54,57184,1,8,0:2:0:0:
125,54,57272,6,0,P|92:128|144:208,1,131.095000500088,2|0,1:2|0:2,0:0:0:0:
220,309,57623,2,0,B|273:316|306:255|306:255|266:293|216:286,1,196.642500750132,10|0,0:2|0:2,0:0:0:0:
141,291,57974,2,0,P|78:265|13:255,1,131.095000500088,2|0,0:2|1:2,0:0:0:0:
206,82,58324,2,0,P|214:149|238:210,1,131.095000500088,10|0,0:2|0:2,0:0:0:0:
305,256,58588,1,8,0:3:0:0:
305,256,58675,6,0,P|367:279|429:213,1,139.444995638088,6|0,1:2|0:2,0:0:0:0:
354,188,58938,2,0,P|363:120|404:56,1,139.444995638088,8|0,0:2|0:2,0:0:0:0:
292,102,59202,2,0,P|262:84|225:77,1,69.7224978190442,10|0,0:2|0:2,0:0:0:0:
184,5,59377,2,0,P|157:27|139:60,1,69.7224978190442,2|0,1:2|0:2,0:0:0:0:
230,156,59553,1,6,1:2:0:0:
133,262,59728,1,2,0:2:0:0:
13,159,59903,5,10,0:2:0:0:
15,152,59990,1,8,0:2:0:0:
17,145,60079,2,0,P|82:160|176:194,1,139.444995638088,6|0,1:2|0:2,0:0:0:0:
298,322,60430,2,0,B|236:294|218:340|206:327|188:378|105:327,1,171.592504843844,10|0,0:2|0:2,0:0:0:0:
41,341,60781,2,0,P|48:300|79:280,1,65.5475002500439,2|0,0:2|0:2,0:0:0:0:
7,227,60956,2,0,P|38:200|75:204,1,65.5475002500439,2|0,1:2|0:2,0:0:0:0:
210,242,61131,1,10,0:2:0:0:
194,253,61307,1,2,1:2:0:0:
212,54,61482,6,0,P|286:67|350:136,1,139.444995638088,2|0,1:2|1:2,0:0:0:0:
412,237,61833,2,0,B|458:232|489:188|489:188|458:222|417:216,1,171.592504843844,10|0,0:2|0:2,0:0:0:0:
333,202,62184,2,0,P|286:171|165:201,1,171.592504843844,2|0,0:2|0:2,0:0:0:0:
165,264,62535,1,8,0:2:0:0:
40,188,62710,6,0,P|46:161|55:128,1,57.1975016146145,2|0,1:2|0:2,0:0:0:0:
18,47,62886,2,0,B|86:12|142:72|114:93|152:164|271:101,1,245.489988575066,2|8,1:2|0:2,0:0:0:0:
369,21,63412,6,0,P|405:30|446:57,1,61.3724971437665,2|0,1:2|0:2,0:0:0:0:
512,109,63588,2,0,P|450:119|389:156,1,122.744994287533,2|0,0:2|0:2,0:0:0:0:
294,265,63938,2,0,B|279:230|250:220|250:220|376:267,1,184.1174914313,10|0,0:2|0:2,0:0:0:0:
421,326,64289,2,0,P|334:365|202:291,1,245.489988575066,2|8,1:2|0:2,0:0:0:0:
271,119,64816,2,0,P|280:149|288:184,1,61.3724971437665,2|0,1:2|0:2,0:0:0:0:
294,265,64991,1,2,0:2:0:0:
294,265,65079,1,8,0:2:0:0:
294,265,65167,1,8,0:2:0:0:
159,177,65342,5,8,0:2:0:0:
127,175,65430,1,8,0:3:0:0:
97,196,65517,1,8,0:3:0:0:
82,233,65605,1,8,0:3:0:0:
93,275,65693,6,0,P|140:319|216:295,1,139.444995638088,2|0,1:2|0:2,0:0:0:0:
247,232,65956,1,0,1:2:0:0:
247,232,66044,2,0,P|263:198|286:171,1,69.7224978190442,10|0,0:2|0:2,0:0:0:0:
317,273,66219,2,0,P|338:246|353:214,1,69.7224978190442,2|0,1:2|0:2,0:0:0:0:
438,79,66395,2,0,P|381:39|315:70,1,139.444995638088,2|0,0:2|1:2,0:0:0:0:
162,122,66746,2,0,P|93:110|19:100,1,139.444995638088,10|0,0:2|1:2,0:0:0:0:
55,323,67096,6,0,P|91:263|145:210,1,139.444995638088,2|0,1:2|0:2,0:0:0:0:
183,301,67360,1,0,1:2:0:0:
183,301,67447,2,0,P|262:296|323:269,1,139.444995638088,10|0,0:2|1:2,0:0:0:0:
424,172,67798,2,0,B|432:157|458:148|458:148|366:166,1,122.744994287533,2|0,0:2|1:2,0:0:0:0:
457,348,68149,2,0,P|470:280|484:221,1,122.744994287533,10|0,0:2|0:2,0:0:0:0:
459,152,68412,5,0,1:2:0:0:
459,152,68500,2,0,P|406:92|343:96,1,139.444995638088,2|0,1:2|0:2,0:0:0:0:
283,39,68763,1,0,1:2:0:0:
283,39,68851,2,0,P|268:83|269:123,1,69.7224978190442,10|0,0:2|0:2,0:0:0:0:
184,86,69026,2,0,P|187:132|203:168,1,69.7224978190442,2|0,1:2|0:2,0:0:0:0:
290,265,69202,6,0,B|302:243|327:233|327:233|241:257,1,139.444995638088,2|0,0:2|1:2,0:0:0:0:
107,323,69553,2,0,B|69:319|46:283|46:283|69:310|102:308,1,139.444995638088,10|0,0:2|1:2,0:0:0:0:
259,364,69903,6,0,P|323:347|410:339,1,139.444995638088,10|0,0:2|1:2,0:0:0:0:
467,377,70167,1,8,0:2:0:0:
467,377,70254,2,0,P|479:338|470:299,1,69.7224978190442,2|0,1:2|0:2,0:0:0:0:
357,190,70430,2,0,P|361:230|384:262,1,69.7224978190442,2|0,1:2|0:2,0:0:0:0:
463,94,70605,6,0,P|411:35|334:42,1,139.444995638088,2|0,1:2|0:0,0:0:0:0:
243,101,70956,1,0,1:2:0:0:
181,219,71131,1,2,0:2:0:0:
112,84,71307,6,0,P|155:96|293:158,1,139.444995638088,10|0,0:2|1:2,0:0:0:0:
357,190,71658,2,0,P|324:199|280:223,1,69.7224978190442,2|0,1:2|0:2,0:0:0:0:
245,280,71833,1,4,0:3:0:0:
80,172,72009,6,0,P|93:241|108:322,1,139.444995638088,2|0,1:2|1:2,0:0:0:0:
214,90,72360,2,0,P|201:159|186:240,1,139.444995638088,6|0,0:3|1:2,0:0:0:0:
35,45,72710,5,14,0:2:0:0:
356,253,74114,6,0,B|389:234|398:192|398:192|383:319,1,196.642500750132,6|0,1:2|1:2,0:0:0:0:
418,379,74465,1,8,0:2:0:0:
476,178,74640,2,0,P|442:119|363:121,1,131.095000500088,2|0,1:2|0:2,0:0:0:0:
196,149,74991,2,0,P|261:168|333:190,1,131.095000500088,2|8,1:2|0:2,0:0:0:0:
266,0,75342,6,0,P|201:19|77:63,1,196.642500750132,2|0,1:2|0:2,0:0:0:0:
6,6,75693,2,0,P|-2:79|29:136,1,131.095000500088,2|8,1:2|0:2,0:0:0:0:
185,234,76044,2,0,B|192:209|216:200|216:200|135:224,1,131.095000500088,2|0,1:2|0:2,0:0:0:0:
22,288,76395,2,0,B|15:263|-9:254|-9:254|72:278,1,131.095000500088,2|8,1:2|0:2,0:0:0:0:
159,354,76746,5,0,1:2:0:0:
147,369,76833,1,8,0:2:0:0:
135,384,76921,2,0,P|140:329|157:240,1,131.095000500088,2|0,0:2|0:2,0:0:0:0:
112,194,77184,1,0,1:2:0:0:
112,194,77272,1,8,0:2:0:0:
267,342,77447,6,0,B|333:326|447:280|408:311,1,131.095000500088,2|0,1:2|0:2,0:0:0:0:
508,189,77798,2,0,P|442:173|367:158,1,131.095000500088,2|8,1:2|0:2,0:0:0:0:
253,110,78149,1,2,1:2:0:0:
226,76,78237,1,8,0:2:0:0:
238,46,78324,1,0,1:2:0:0:
255,35,78412,1,8,0:2:0:0:
276,37,78500,6,0,P|336:51|407:76,1,131.095000500088,2|4,1:2|0:3,0:0:0:0:
302,235,78851,2,0,P|242:215|169:190,1,131.095000500088,2|4,1:2|0:3,0:0:0:0:
163,111,79114,1,8,0:2:0:0:
163,111,79201,2,0,P|98:165|102:218,1,131.095000500088,6|0,1:2|0:0,0:0:0:0:
176,338,79553,5,8,0:2:0:0:
205,340,79640,1,8,0:2:0:0:
234,362,79728,2,0,P|291:369|372:291,1,139.444995638088,14|0,0:2|0:2,0:0:0:0:
473,254,80079,1,8,0:2:0:0:
434,353,80254,2,0,P|377:298|383:219,1,139.444995638088,2|8,1:2|0:2,0:0:0:0:
439,116,80605,2,0,B|453:93|474:81|474:81|355:125,1,139.444995638088,2|8,1:2|0:2,0:0:0:0:
238,223,80956,6,0,B|168:215|145:163|145:163|181:202|263:208,1,209.167493457133,2|0,1:2|0:2,0:0:0:0:
300,161,81307,2,0,P|289:90|277:16,1,139.444995638088,2|8,1:2|0:2,0:0:0:0:
209,102,81658,5,2,1:2:0:0:
101,13,81833,1,8,0:2:0:0:
25,201,82009,6,1,B|56:228|122:224|149:153|96:147|126:73|211:59|251:113,1,278.889991276177,6|0,1:2|1:2,0:0:0:0:
338,211,82535,6,0,P|334:247|316:280,1,69.7224978190442,10|0,0:2|0:2,0:0:0:0:
398,316,82710,2,0,P|376:349|338:359,1,69.7224978190442,2|0,1:2|0:2,0:0:0:0:
199,269,82886,1,8,0:2:0:0:
330,116,83061,6,0,B|354:121|389:98|389:98|366:131|323:131,1,139.444995638088,2|8,1:2|0:2,0:0:0:0:
213,186,83412,1,0,1:2:0:0:
201,178,83500,1,8,0:2:0:0:
190,170,83587,1,8,0:2:0:0:
318,276,83763,6,0,P|388:249|460:243,1,139.444995638088,2|8,1:2|0:2,0:0:0:0:
451,79,84114,1,10,0:2:0:0:
443,96,84202,1,8,0:2:0:0:
441,116,84289,1,8,0:2:0:0:
298,52,84465,5,8,0:2:0:0:
371,172,84640,1,8,0:2:0:0:
239,245,84816,5,8,0:3:0:0:
226,238,84903,1,8,0:3:0:0:
213,233,84991,1,8,0:3:0:0:
337,363,85167,6,0,L|497:326,1,139.444995638088,6|0,1:2|0:2,0:0:0:0:
