osu file format v14

[General]
AudioFilename: audio.mp3
AudioLeadIn: 0
PreviewTime: 47974
Countdown: 0
SampleSet: Soft
StackLeniency: 0.7
Mode: 0
LetterboxInBreaks: 0
WidescreenStoryboard: 0

[Editor]
DistanceSpacing: 6
BeatDivisor: 4
GridSize: 32
TimelineZoom: 2.799999

[Metadata]
Title:Zankyo Sanka (TV Size)
TitleUnicode:残響散歌 (TV Size)
Artist:Aimer
ArtistUnicode:Aimer
Creator:AsuKow
Version:Soue's Expert
Source:「鬼滅の刃」遊郭編
Tags:Kirishima- Shunao ShogunMoon Yereoz Soue GrazuKo エメ demon slayer kny kimetsu no yaiba yuukaku hen op opening anime pop jpop j-pop japanese female vocals vocalist season 2 two second entertainment district asa ga kuru 鬼滅の刃遊郭編 zankyousanka zankyosanka zankyou 胡蝶しのぶ Shinobu Kocho 胡蝶カナエ Kanae Kocho 栗花落カナヲ Kanao Tsuyuri Kochō Kochou
BeatmapID:3427817
BeatmapSetID:1677788

[Difficulty]
HPDrainRate:5.5
CircleSize:4.2
OverallDifficulty:8.5
ApproachRate:9.2
SliderMultiplier:1.74
SliderTickRate:1

[Events]
//Background and Video events
0,0,"77870356_p1.jpg",0,0
Video,-10,"video.mp4"
//Break Periods
//Storyboard Layer 0 (Background)
//Storyboard Layer 1 (Fail)
//Storyboard Layer 2 (Pass)
//Storyboard Layer 3 (Foreground)
//Storyboard Layer 4 (Overlay)
//Storyboard Sound Samples

[TimingPoints]
82,350.877192982456,4,2,2,40,1,0
82,-166.666666666667,4,2,2,40,0,0
345,-166.666666666667,4,2,2,5,0,0
432,-166.666666666667,4,2,2,40,0,0
696,-166.666666666667,4,2,2,5,0,0
783,350.877192982456,3,2,2,50,1,0
783,-125,4,2,2,50,0,0
1046,-166.666666666667,4,2,2,50,0,0
1309,-125,4,2,2,50,0,0
1573,-166.666666666667,4,2,2,50,0,0
1836,-125,4,2,2,50,0,0
2099,-166.666666666667,4,2,2,50,0,0
2362,-125,4,2,2,50,0,0
2625,-166.666666666667,4,2,2,50,0,0
2889,-249.999999999999,4,2,2,50,0,0
3853,-249.999999999999,4,2,2,5,0,0
3939,350.877192982456,4,2,2,60,1,0
3939,-166.666666666667,4,2,2,60,0,0
8851,-250,4,2,2,60,0,0
8938,-250,4,2,2,5,0,0
9026,-250,4,2,2,60,0,0
9114,-250,4,2,2,5,0,0
9202,-250,4,2,2,60,0,0
9289,-250,4,2,2,5,0,0
9377,-250,4,2,2,60,0,0
9465,-250,4,2,2,5,0,0
9553,-90.9090909090909,4,2,2,75,0,0
9991,-90.9090909090909,4,2,2,5,0,0
10079,-90.9090909090909,4,2,2,75,0,0
10342,-90.9090909090909,4,2,2,5,0,0
10430,-90.9090909090909,4,2,2,75,0,0
11044,-90.9090909090909,4,2,2,5,0,0
11131,-90.9090909090909,4,2,2,75,0,0
11746,-90.9090909090909,4,2,2,5,0,0
11833,-90.9090909090909,4,2,2,75,0,0
11921,-90.9090909090909,4,2,2,5,0,0
12009,-90.9090909090909,4,2,2,75,0,0
13149,-90.9090909090909,4,2,2,5,0,0
13237,-90.9090909090909,4,2,2,75,0,0
14289,-111.111111111111,4,2,2,75,0,0
14640,-142.857142857143,4,2,2,75,0,0
14728,-142.857142857143,4,2,2,75,0,0
14816,-142.857142857143,4,2,2,75,0,0
14903,-142.857142857143,4,2,2,75,0,0
14991,-142.857142857143,4,2,2,75,0,0
15167,-90.9090909090909,4,2,2,75,0,0
15605,-90.9090909090909,4,2,2,5,0,0
15693,-90.9090909090909,4,2,2,75,0,0
15956,-90.9090909090909,4,2,2,5,0,0
16044,-90.9090909090909,4,2,2,75,0,0
16658,-90.9090909090909,4,2,2,5,0,0
16746,-90.9090909090909,4,2,2,75,0,0
17360,-90.9090909090909,4,2,2,5,0,0
17447,-90.9090909090909,4,2,2,75,0,0
17535,-90.9090909090909,4,2,2,5,0,0
17623,-90.9090909090909,4,2,2,75,0,0
18763,-90.9090909090909,4,2,2,5,0,0
18851,-90.9090909090909,4,2,2,75,0,0
19903,-125,4,2,2,75,0,0
20254,-166.666666666667,4,2,2,75,0,0
20693,-166.666666666667,4,2,2,5,0,0
20781,-111.111111111111,4,2,2,60,0,0
21044,-111.111111111111,4,2,2,5,0,0
21131,-111.111111111111,4,2,2,60,0,0
22447,-111.111111111111,4,2,2,5,0,0
22535,-111.111111111111,4,2,2,60,0,0
30605,-90.9090909090908,4,2,2,60,0,0
30868,-83.3333333333333,4,2,2,60,0,0
31131,-90.9090909090909,4,2,2,60,0,0
31482,-111.111111111111,4,2,2,60,0,0
31570,-111.111111111111,4,2,2,5,0,0
31658,-111.111111111111,4,2,2,60,0,0
31921,-111.111111111111,4,2,2,5,0,0
32009,-142.857142857143,4,2,2,60,0,0
38237,-142.857142857143,4,2,2,5,0,0
38324,-142.857142857143,4,2,2,60,0,0
39114,-142.857142857143,4,2,2,5,0,0
39202,-142.857142857143,4,2,2,60,0,0
40430,-133.333333333333,4,2,2,60,0,0
40956,-142.857142857143,4,2,2,60,0,0
41658,-125,4,2,2,60,0,0
41833,-142.857142857143,4,2,2,60,0,0
42535,-166.666666666667,4,2,2,60,0,0
42623,-166.666666666667,4,2,2,5,0,0
42710,-111.111111111111,4,2,2,60,0,0
43061,-142.857142857143,4,2,2,60,0,0
43237,-125,4,2,2,60,0,0
44640,-117.647058823529,4,2,2,60,0,0
44991,-125,4,2,2,60,0,0
45342,-133.333333333333,4,2,2,60,0,0
45693,-142.857142857143,4,2,2,60,0,0
46044,-111.111111111111,4,2,2,60,0,0
46307,-142.857142857143,4,2,2,60,0,0
46482,-142.857142857143,4,2,2,5,0,0
46570,-111.111111111111,4,2,2,60,0,0
46833,-142.857142857143,4,2,2,60,0,0
47009,-142.857142857143,4,2,2,5,0,0
47096,-111.111111111111,4,2,2,60,0,0
47184,-111.111111111111,4,2,2,5,0,0
47272,-90.9090909090908,4,2,2,60,0,0
47535,-90.9090909090908,4,2,2,5,0,0
47623,-83.3333333333333,4,2,2,60,0,0
47710,-83.3333333333333,4,2,2,5,0,0
47798,-76.9230769230769,4,2,2,60,0,0
47886,-76.9230769230769,4,2,2,5,0,0
47974,-71.4285714285714,4,2,2,60,0,0
48061,-71.4285714285714,4,2,2,5,0,0
48149,-166.666666666667,4,2,2,60,0,0
48237,-166.666666666667,4,2,2,5,0,0
48324,-125,4,2,2,60,0,0
48588,-125,4,2,2,5,0,0
48675,-250,4,2,2,60,0,0
48851,-90.9090909090908,4,2,2,75,0,1
49114,-90.9090909090908,4,2,2,5,0,1
49202,-90.9090909090908,4,2,2,75,0,1
50254,-90.9090909090908,4,2,2,75,0,1
50342,-90.9090909090908,4,2,2,5,0,1
50430,-90.9090909090908,4,2,2,75,0,1
50517,-90.9090909090908,4,2,2,5,0,1
50605,-90.9090909090908,4,2,2,75,0,1
50868,-90.9090909090908,4,2,2,5,0,1
50956,-90.9090909090908,4,2,2,75,0,1
51658,-83.3333333333333,4,2,2,75,0,1
52360,-90.9090909090909,4,2,2,75,0,1
52710,-100,4,2,2,75,0,1
53061,-111.111111111111,4,2,2,75,0,1
53763,-99.9999999999999,4,2,2,75,0,1
54465,-90.9090909090909,4,2,2,75,0,1
55430,-90.9090909090909,4,2,2,5,0,1
55517,-90.9090909090909,4,2,2,75,0,1
58675,-76.9230769230769,4,2,2,75,0,1
58851,-83.3333333333333,4,2,2,75,0,1
59202,-76.9230769230769,4,2,2,75,0,1
59377,-76.9230769230769,4,2,2,75,0,1
59465,-76.9230769230769,4,2,2,5,0,1
59553,-90.9090909090909,4,2,2,75,0,1
59640,-90.9090909090909,4,2,2,5,0,1
59728,-90.9090909090909,4,2,2,75,0,1
59903,-100,4,2,2,75,0,1
60079,-90.9090909090908,4,2,2,75,0,1
62096,-90.9090909090908,4,2,2,5,0,1
62184,-90.9090909090908,4,2,2,75,0,1
62886,-83.3333333333333,4,2,2,75,0,1
63588,-90.9090909090909,4,2,2,75,0,1
63938,-100,4,2,2,75,0,1
64202,-100,4,2,2,75,0,1
64289,-111.111111111111,4,2,2,75,0,1
64991,-100,4,2,2,75,0,1
65693,-90.9090909090909,4,2,2,75,0,1
66658,-90.9090909090909,4,2,2,5,0,1
66746,-90.9090909090909,4,2,2,75,0,1
69465,-90.9090909090909,4,2,2,5,0,1
69553,-90.9090909090909,4,2,2,75,0,1
69903,-83.3333333333333,4,2,2,75,0,1
70167,-76.9230769230769,4,2,2,75,0,1
70342,-76.9230769230769,4,2,2,5,0,1
70430,-71.4285714285714,4,2,2,75,0,1
70605,-66.6666666666667,4,2,2,75,0,1
70781,-76.9230769230769,4,2,2,75,0,1
71131,-76.9230769230769,4,2,2,5,0,1
71307,-90.9090909090908,4,2,2,75,0,1
71658,-83.3333333333333,4,2,2,75,0,1
72009,-76.9230769230769,4,2,2,75,0,1
72360,-71.4285714285714,4,2,2,75,0,1
72710,-250.000000000001,4,2,2,75,0,0
73061,-250.000000000001,4,2,2,5,0,0
73412,-250.000000000001,4,2,2,75,0,0
73675,-250.000000000001,4,2,2,5,0,0
73763,-250.000000000001,4,2,2,75,0,0
74026,-250.000000000001,4,2,2,5,0,0
74114,-90.9090909090911,4,2,2,75,0,0
74553,-90.9090909090911,4,2,2,5,0,0
74640,-90.9090909090911,4,2,2,75,0,0
74903,-90.9090909090911,4,2,2,5,0,0
74991,-90.9090909090911,4,2,2,75,0,0
75605,-90.9090909090911,4,2,2,5,0,0
75693,-90.9090909090911,4,2,2,75,0,0
76307,-90.9090909090911,4,2,2,5,0,0
76395,-90.9090909090911,4,2,2,75,0,0
76482,-90.9090909090911,4,2,2,5,0,0
76570,-90.9090909090911,4,2,2,75,0,0
77710,-90.9090909090911,4,2,2,5,0,0
77798,-90.9090909090911,4,2,2,75,0,0
78851,-111.111111111111,4,2,2,75,0,0
79202,-142.857142857143,4,2,2,75,0,0
79728,-83.3333333333333,4,2,2,80,0,1
83763,-71.4285714285714,4,2,2,80,0,1
84114,-68.9655172413793,4,2,2,80,0,1
84289,-66.6666666666667,4,2,2,80,0,1
84465,-64.5161290322581,4,2,2,80,0,1
84640,-62.5,4,2,2,80,0,1
84816,-83.3333333333333,4,2,2,80,0,1
85167,-166.666666666667,4,2,2,80,0,0
85693,-166.666666666667,4,2,2,80,0,0

[Colours]
Combo1 : 136,155,200
Combo2 : 89,172,255
Combo3 : 183,255,255

[HitObjects]
399,285,82,6,0,B|389:320|389:320|413:353,1,78.2999976104737,8|0,0:0|0:0,0:0:0:0:
492,338,432,2,0,B|501:302|501:302|477:269,1,78.2999976104737,8|0,0:0|0:0,0:0:0:0:
384,187,783,6,0,P|349:191|323:221,1,69.6,2|0,1:0|0:0,0:0:0:0:
332,242,1046,1,8,0:1:0:0:
332,242,1134,1,8,0:0:0:0:
162,125,1309,2,0,P|215:131|237:152,1,69.6,2|0,1:2|0:0,0:0:0:0:
221,175,1572,1,8,0:0:0:0:
221,175,1661,1,10,0:2:0:0:
156,268,1836,6,0,P|121:272|95:302,1,69.6,2|8,1:2|0:0,0:0:0:0:
104,323,2098,1,10,0:2:0:0:
104,323,2186,1,8,0:0:0:0:
9,140,2362,5,2,0:2:0:0:
3,153,2450,2,0,P|28:177|62:181,1,69.6,0|2,1:2|1:2,0:0:0:0:
82,162,2713,1,8,1:3:0:0:
92,151,2801,1,4,1:3:0:0:
140,86,2889,6,0,B|197:67|235:117|205:123|238:175|303:158,1,191.4,12|0,0:0|0:0,0:0:0:0:
346,92,3939,6,0,B|321:133|321:133|353:189,1,104.399996813965,4|8,1:2|0:0,0:0:0:0:
485,260,4465,5,2,1:2:0:0:
467,241,4552,1,0,1:2:0:0:
442,231,4640,1,8,0:0:0:0:
417,233,4728,1,8,0:0:0:0:
394,246,4816,2,0,P|383:255|364:258,3,26.0999992034912,2|8|0|0,1:2|0:0|1:2|1:2,0:0:0:0:
306,301,5167,2,0,P|295:292|276:289,3,26.0999992034912,2|8|8|8,1:2|0:0|0:0|0:0,0:0:0:0:
179,201,5517,5,2,1:2:0:0:
184,226,5604,1,0,1:2:0:0:
190,251,5692,1,8,0:0:0:0:
196,277,5780,1,8,0:0:0:0:
202,302,5868,2,0,P|191:311|172:314,3,26.0999992034912,2|8|0|0,1:2|0:0|1:2|1:2,0:0:0:0:
142,380,6219,2,0,P|128:374|116:360,3,26.0999992034912,8|8|8|8,0:1|0:0|1:3|1:3,0:0:0:0:
62,309,6570,2,0,P|75:303|87:289,1,26.0999992034912,4|4,1:3|1:3,0:0:0:0:
67,210,6746,5,6,1:2:0:0:
72,185,6833,1,0,3:2:0:0:
78,160,6921,1,8,0:0:0:0:
84,134,7009,1,8,0:2:0:0:
90,109,7097,2,0,L|82:69,1,26.0999992034912,8|8,0:0|0:0,0:0:0:0:
178,14,7272,5,2,1:2:0:0:
183,39,7359,1,0,1:2:0:0:
189,64,7447,1,8,0:0:0:0:
195,90,7535,1,8,0:0:0:0:
201,115,7623,2,0,L|195:140,3,26.0999992034912,10|8|0|0,0:1|0:0|1:0|1:0,0:0:0:0:
289,195,7974,5,2,1:2:0:0:
298,171,8061,1,8,0:0:0:0:
288,148,8149,1,0,1:2:0:0:
257,284,8325,1,2,1:2:0:0:
248,308,8412,1,0,1:0:0:0:
258,331,8500,1,2,1:2:0:0:
334,384,8675,1,2,1:2:0:0:
122,290,8851,6,0,L|153:284,1,17.4,12|0,1:2|0:0,0:0:0:0:
131,274,9026,2,0,L|162:268,1,17.4,0|0,1:2|0:0,0:0:0:0:
363,176,9202,6,0,L|331:170,1,17.4,12|0,1:2|0:0,0:0:0:0:
354,160,9377,2,0,L|322:154,1,17.4,0|0,1:2|0:0,0:0:0:0:
208,6,9553,6,0,B|183:46|207:79|221:61|246:102|222:147,1,143.550004380798,6|0,1:2|1:2,0:0:0:0:
155,168,9903,2,0,P|137:164|152:162,1,47.8500014602662,8|0,0:0|0:0,0:0:0:0:
424,264,10079,2,0,B|369:280|369:280|353:307|353:307|301:324,1,143.550004380798,2|0,1:2|0:0,0:0:0:0:
231,303,10430,2,0,P|206:262|222:215,1,95.7000029205323,2|8,1:2|0:0,0:0:0:0:
438,83,10781,6,0,P|405:142|335:156,1,143.550004380798,2|0,1:2|0:0,0:0:0:0:
274,111,11131,2,0,P|234:86|189:98,1,95.7000029205323,2|8,0:0|0:0,0:0:0:0:
8,231,11482,2,0,B|62:247|62:247|78:274|78:274|130:291,1,143.550004380798,2|0,1:2|0:0,0:0:0:0:
176,351,11833,2,0,P|193:353|180:346,1,47.8500014602662,2|0,1:2|0:0,0:0:0:0:
301,334,12009,2,0,B|313:310|331:297|331:297|324:276|329:250,1,95.7000029205323,8|0,0:0|1:2,0:0:0:0:
349,179,12272,5,8,0:0:0:0:
331,168,12360,2,0,L|284:183,1,47.8500014602662,2|0,1:2|3:2,0:0:0:0:
425,95,12535,2,0,L|472:110,2,47.8500014602662,2|0|8,0:0|1:2|0:0,0:0:0:0:
344,20,12886,2,0,P|294:-1|209:46,1,143.550004380798,2|0,1:2|0:0,0:0:0:0:
171,97,13237,2,0,P|128:117|84:103,1,95.7000029205323,2|8,1:2|0:0,0:0:0:0:
241,279,13588,5,0,1:2:0:0:
251,258,13675,1,0,1:2:0:0:
242,237,13763,1,2,1:2:0:0:
186,340,13938,2,0,P|233:363|282:350,1,95.7000029205323,2|8,1:2|0:0,0:0:0:0:
403,246,14289,1,10,1:3:0:0:
309,188,14465,1,4,1:3:0:0:
309,188,14553,1,8,0:0:0:0:
309,188,14640,2,0,L|328:266,1,60.8999981414796,14|0,0:0|1:2,0:0:0:0:
388,95,14991,5,8,0:0:0:0:
388,95,15079,1,8,0:0:0:0:
388,95,15167,2,0,B|343:84|322:122|342:127|316:167|270:160,1,143.550004380798,6|0,1:2|1:2,0:0:0:0:
210,125,15517,2,0,P|201:108|216:119,1,47.8500014602662,8|0,0:0|0:0,0:0:0:0:
101,206,15693,2,0,B|156:222|156:222|172:249|172:249|224:266,1,143.550004380798,2|0,1:2|0:0,0:0:0:0:
273,325,16044,2,0,P|300:283|296:239,1,95.7000029205323,2|8,1:2|0:0,0:0:0:0:
43,59,16395,6,0,P|77:124|148:137,1,143.550004380798,2|0,1:2|0:0,0:0:0:0:
201,89,16746,2,0,P|246:68|289:78,1,95.7000029205323,2|8,0:0|0:0,0:0:0:0:
407,291,17096,2,0,B|352:307|352:307|336:334|336:334|284:351,1,143.550004380798,2|0,1:2|0:0,0:0:0:0:
218,309,17447,2,0,P|209:292|224:303,1,47.8500014602662,2|0,1:2|0:0,0:0:0:0:
306,151,17623,2,0,B|311:180|326:195|326:195|311:211|307:243,1,95.7000029205323,8|0,0:0|1:2,0:0:0:0:
223,211,17886,5,8,0:0:0:0:
210,220,17974,2,0,L|155:204,1,47.8500014602662,2|0,1:2|3:2,0:0:0:0:
328,310,18149,2,0,L|374:297,2,47.8500014602662,2|0|8,0:0|1:2|0:0,0:0:0:0:
260,373,18500,2,0,P|185:374|142:317,1,143.550004380798,2|0,1:2|0:0,0:0:0:0:
110,254,18851,2,0,L|136:162,1,95.7000029205323,2|8,1:2|0:0,0:0:0:0:
324,13,19202,6,0,L|350:104,1,95.7000029205323,2|8,1:2|0:0,0:0:0:0:
503,223,19553,1,2,1:2:0:0:
468,216,19640,1,8,0:0:0:0:
434,228,19728,1,2,1:2:0:0:
412,255,19816,1,0,1:2:0:0:
407,290,19903,2,0,P|407:304|413:285,1,69.6,10|0,1:2|1:2,0:0:0:0:
250,89,20254,6,0,B|210:86|195:128|214:125|200:161|155:166,1,130.499996017456,14|0,0:0|0:0,0:0:0:0:
88,141,20781,6,0,P|55:107|72:34,1,117.449996415711,6|0,1:2|0:0,0:0:0:0:
88,23,21131,2,0,L|175:44,1,78.2999976104737,10|0,0:0|1:2,0:0:0:0:
18,201,21482,1,2,0:0:0:0:
39,294,21657,1,2,1:2:0:0:
185,377,21833,1,10,0:0:0:0:
206,284,22008,1,2,1:2:0:0:
307,143,22184,6,0,P|327:200|291:251,1,117.449996415711,2|0,0:0|0:0,0:0:0:0:
274,259,22535,2,0,L|197:240,1,78.2999976104737,10|2,0:0|1:0,0:0:0:0:
302,379,22886,1,2,0:2:0:0:
302,379,22974,1,2,0:2:0:0:
302,379,23061,1,2,1:2:0:0:
479,308,23237,1,8,0:2:0:0:
415,377,23412,1,2,1:2:0:0:
311,269,23588,6,0,P|298:237|312:195,1,78.2999976104737,4|0,1:2|3:2,0:0:0:0:
332,186,23851,1,0,3:2:0:0:
350,181,23938,2,0,L|426:199,1,78.2999976104737,10|0,0:2|1:2,0:0:0:0:
445,194,24202,1,0,1:2:0:0:
459,188,24289,1,2,3:2:0:0:
363,75,24465,1,2,1:2:0:0:
433,16,24640,1,10,0:2:0:0:
295,115,24816,1,2,1:2:0:0:
160,58,24991,6,0,L|83:76,1,78.2999976104737,2|2,0:0|1:2,0:0:0:0:
74,94,25254,1,0,3:2:0:0:
63,111,25342,1,10,0:0:0:0:
182,241,25517,1,0,1:2:0:0:
111,289,25693,1,2,1:2:0:0:
96,265,25780,1,0,1:2:0:0:
96,237,25868,1,0,1:2:0:0:
188,143,26044,1,10,0:0:0:0:
281,201,26219,1,0,1:2:0:0:
226,364,26395,5,4,1:2:0:0:
376,277,26570,1,2,0:0:0:0:
451,358,26746,1,10,0:0:0:0:
426,376,26833,1,0,3:2:0:0:
397,371,26921,1,2,1:2:0:0:
291,286,27096,5,2,3:2:0:0:
291,286,27272,2,0,L|308:197,1,78.2999976104737,2|8,1:2|0:0,0:0:0:0:
373,130,27623,1,2,1:2:0:0:
289,52,27798,6,0,L|212:70,1,78.2999976104737,2|0,0:0|1:2,0:0:0:0:
139,245,28149,2,0,L|215:226,1,78.2999976104737,10|0,0:0|1:2,0:0:0:0:
80,303,28500,1,2,3:2:0:0:
61,274,28588,1,0,3:2:0:0:
62,240,28675,1,0,1:2:0:0:
199,143,28851,6,0,P|215:107|212:69,1,78.2999976104737,10|0,0:0|1:2,0:0:0:0:
69,25,29202,2,0,L|87:101,1,78.2999976104737,2|0,1:2|1:2,0:0:0:0:
77,117,29465,1,0,3:2:0:0:
66,132,29553,1,10,0:0:0:0:
151,261,29728,5,0,1:2:0:0:
151,261,29816,1,0,1:2:0:0:
151,261,29903,2,0,P|172:264|189:270,1,39.1499988052369,2|0,1:2|3:2,0:0:0:0:
247,212,30079,2,0,P|268:209|285:202,1,39.1499988052369,2|0,1:2|3:2,0:0:0:0:
352,265,30254,1,10,0:2:0:0:
496,137,30430,5,2,0:2:0:0:
496,137,30517,1,8,0:0:0:0:
496,137,30605,2,0,P|516:89|492:43,1,95.7000029205323,14|0,1:2|1:2,0:0:0:0:
443,7,30868,5,8,0:0:0:0:
426,2,30956,2,0,L|376:18,1,52.1999984069825,2|0,1:2|3:2,0:0:0:0:
223,73,31131,1,14,1:2:0:0:
296,30,31307,5,2,1:2:0:0:
311,47,31394,1,8,1:2:0:0:
317,70,31482,2,0,P|313:106|306:121,1,39.1499988052369,4|0,1:2|0:0,0:0:0:0:
142,125,31658,2,0,P|118:80|135:18,1,117.449996415711,8|0,0:0|0:0,0:0:0:0:
209,7,32009,6,0,L|198:76,1,60.8999981414796,6|0,1:2|0:0,0:0:0:0:
291,155,32360,2,0,L|302:224,1,60.8999981414796,2|0,1:2|0:0,0:0:0:0:
220,303,32710,2,0,L|210:363,1,60.8999981414796,2|0,1:2|0:0,0:0:0:0:
88,184,33061,5,2,1:2:0:0:
161,238,33237,1,10,0:0:0:0:
0,311,33412,1,2,1:2:0:0:
10,220,33588,1,10,0:0:0:0:
141,329,33763,2,0,P|112:358|80:360,1,60.8999981414796,2|0,1:2|0:0,0:0:0:0:
19,330,34114,5,2,1:2:0:0:
159,209,34289,1,12,0:0:0:0:
82,277,34465,1,0,1:2:0:0:
222,155,34640,1,12,0:0:0:0:
153,73,34816,6,0,P|143:104|150:137,1,60.8999981414796,2|2,1:2|0:0,0:0:0:0:
311,207,35167,2,0,P|321:176|314:143,1,60.8999981414796,14|0,1:2|0:0,0:0:0:0:
375,31,35517,1,2,1:2:0:0:
447,101,35693,1,10,0:3:0:0:
417,107,35781,1,8,0:0:0:0:
387,114,35868,1,2,1:2:0:0:
298,23,36044,1,2,0:0:0:0:
487,165,36219,6,0,P|500:198|493:230,1,60.8999981414796,2|0,1:2|0:0,0:0:0:0:
368,322,36570,2,0,P|338:305|308:307,1,60.8999981414796,10|8,0:0|0:3,0:0:0:0:
297,318,36833,1,4,0:3:0:0:
289,332,36921,1,2,1:2:0:0:
163,226,37096,1,8,0:0:0:0:
261,99,37272,1,0,1:2:0:0:
212,30,37447,5,10,1:3:0:0:
212,30,37535,1,4,1:3:0:0:
212,30,37623,2,0,L|151:43,1,60.8999981414796,2|0,1:2|0:0,0:0:0:0:
49,159,37974,2,0,P|88:118|126:121,1,91.3499972122193,14|0,1:2|0:0,0:0:0:0:
144,148,38324,2,0,P|171:152|212:159,1,60.8999981414796,2|0,1:2|0:0,0:0:0:0:
284,211,38675,1,2,1:2:0:0:
289,215,38763,2,0,L|305:168,2,30.4499990707398,0|4|4,0:0|0:3|0:3,0:0:0:0:
216,266,39026,5,2,1:2:0:0:
216,266,39202,1,8,0:0:0:0:
144,148,39377,1,2,1:2:0:0:
263,54,39553,2,0,L|269:83,1,30.4499990707398,2|0,3:2|3:2,0:0:0:0:
332,142,39728,6,0,P|376:140|406:104,1,91.3499972122193,10|0,1:2|1:2,0:0:0:0:
402,77,40079,1,2,1:2:0:0:
274,233,40254,1,8,1:2:0:0:
115,71,40430,6,0,L|128:4,1,65.2500024890901,6|0,1:2|1:2,0:0:0:0:
257,159,40781,1,8,0:0:0:0:
329,68,40956,1,2,1:2:0:0:
152,169,41131,2,0,L|87:156,1,60.8999981414796,10|0,0:0|1:2,0:0:0:0:
8,204,41482,1,0,1:2:0:0:
192,343,41658,5,14,0:0:0:0:
111,369,41833,2,0,P|105:339|116:303,1,60.8999981414796,2|8,0:0|0:0,0:0:0:0:
171,250,42184,1,0,1:2:0:0:
326,372,42360,1,10,0:0:0:0:
413,307,42535,2,0,L|380:313,1,26.0999992034912,2|0,1:2|0:0,0:0:0:0:
298,213,42710,6,0,P|265:155|310:73,1,156.599995220947,12|8,0:0|0:0,0:0:0:0:
322,69,43149,5,8,0:0:0:0:
343,62,43237,2,0,L|419:81,1,69.6,6|8,1:2|0:0,0:0:0:0:
419,99,43500,1,8,0:0:0:0:
430,118,43588,2,0,L|362:134,1,69.6,10|0,0:0|1:2,0:0:0:0:
190,179,43938,5,10,0:0:0:0:
162,158,44025,1,8,0:0:0:0:
150,126,44113,1,8,0:0:0:0:
157,93,44201,1,8,0:0:0:0:
182,69,44288,1,2,1:2:0:0:
192,55,44377,1,8,0:0:0:0:
198,39,44464,1,8,0:0:0:0:
197,22,44552,1,8,0:0:0:0:
191,5,44640,6,0,L|105:26,1,73.9500014104843,2|8,1:2|0:0,0:0:0:0:
104,41,44903,1,8,0:0:0:0:
91,55,44991,2,0,L|19:37,1,69.6,10|0,0:0|1:2,0:0:0:0:
104,208,45342,5,10,0:0:0:0:
129,228,45429,1,8,0:0:0:0:
160,236,45517,1,8,0:0:0:0:
192,231,45605,1,8,0:0:0:0:
219,213,45692,1,2,1:2:0:0:
235,198,45780,1,8,0:0:0:0:
256,190,45868,1,8,0:0:0:0:
279,193,45956,1,8,0:0:0:0:
298,204,46044,6,0,L|279:294,1,78.2999976104737,10|0,0:0|1:2,0:0:0:0:
331,335,46307,1,8,0:0:0:0:
341,345,46395,2,0,P|348:353|349:339,1,30.4499990707398,0|0,1:2|0:0,0:0:0:0:
163,156,46570,6,0,L|182:246,1,78.2999976104737,12|0,0:0|1:2,0:0:0:0:
130,287,46833,1,8,0:0:0:0:
125,300,46921,2,0,P|114:306|120:296,1,30.4499990707398,0|0,1:2|0:0,0:0:0:0:
350,114,47096,6,0,P|329:124|308:127,1,39.1499988052369,14|0,0:0|0:0,0:0:0:0:
118,8,47272,6,0,P|153:51|249:51,1,143.550004380798,14|0,0:0|0:0,0:0:0:0:
286,6,47623,6,0,P|304:31|307:65,1,52.1999984069825,12|0,0:0|0:0,0:0:0:0:
179,232,47798,2,0,P|191:203|219:184,1,56.5499974113466,12|0,0:0|0:0,0:0:0:0:
434,227,47974,2,0,P|403:230|372:215,1,60.8999981414796,12|0,1:2|0:0,0:0:0:0:
313,179,48149,6,0,P|298:177|283:184,1,26.0999992034912,2|0,1:2|0:0,0:0:0:0:
105,284,48324,6,0,B|93:261|77:247|77:247|93:225|101:186,1,104.4,14|0,1:2|0:0,0:0:0:0:
109,168,48675,1,2,1:2:0:0:
224,372,48851,6,0,B|273:382|298:342|275:334|301:300|345:306,1,143.550004380798,6|0,1:2|0:0,0:0:0:0:
396,358,49202,2,0,L|368:263,1,95.7000029205323,10|0,0:0|1:2,0:0:0:0:
342,184,49553,1,2,1:2:0:0:
465,312,49728,1,2,1:2:0:0:
238,205,49903,1,10,0:0:0:0:
398,59,50079,1,2,1:2:0:0:
296,2,50254,6,0,L|309:47,1,47.8500014602662,2|0,1:2|0:0,0:0:0:0:
281,17,50430,2,0,L|294:62,1,47.8500014602662,2|0,1:2|0:0,0:0:0:0:
494,139,50605,2,0,P|431:134|388:201,1,143.550004380798,10|0,0:0|0:0,0:0:0:0:
368,266,50956,2,0,P|324:294|267:284,1,95.7000029205323,2|0,0:0|1:2,0:0:0:0:
96,140,51307,1,8,0:0:0:0:
216,70,51482,2,0,L|202:115,1,47.8500014602662,2|0,1:2|1:2,0:0:0:0:
6,239,51658,6,0,B|83:277|83:277|98:318|98:318|175:354,1,208.79999362793,6|8,1:2|0:0,0:0:0:0:
309,209,52184,1,2,1:2:0:0:
219,159,52360,2,0,P|199:206|214:252,1,95.7000029205323,2|0,0:0|1:2,0:0:0:0:
358,334,52710,2,0,L|449:310,1,87,10|0,0:0|1:2,0:0:0:0:
499,358,52974,5,0,1:2:0:0:
476,355,53061,2,0,P|465:340|462:313,1,39.1499988052369,2|8,1:2|0:0,0:0:0:0:
481,148,53237,1,0,1:2:0:0:
502,155,53324,1,0,3:2:0:0:
506,180,53412,2,0,P|493:210|449:230,1,78.2999976104737,8|2,0:0|1:2,0:0:0:0:
339,103,53763,5,10,0:0:0:0:
344,81,53850,1,8,0:0:0:0:
350,60,53938,1,8,0:0:0:0:
192,179,54114,1,8,0:0:0:0:
338,362,54289,5,4,1:3:0:0:
338,362,54377,1,4,1:3:0:0:
338,362,54465,2,0,P|362:319|320:232,1,143.550004380798,6|0,1:2|1:2,0:0:0:0:
262,202,54816,1,10,0:0:0:0:
182,276,54991,1,2,1:2:0:0:
26,186,55167,6,0,P|2:143|44:56,1,143.550004380798,2|0,0:0|0:0,0:0:0:0:
102,26,55518,1,10,0:0:0:0:
190,111,55693,1,2,1:2:0:0:
364,8,55868,6,0,B|336:59|336:59|381:147,1,143.550004380798,2|0,1:2|1:2,0:0:0:0:
412,202,56219,1,10,0:0:0:0:
275,322,56395,1,2,1:2:0:0:
191,260,56570,2,0,P|222:227|273:217,1,95.7000029205323,2|0,0:0|1:2,0:0:0:0:
483,371,56921,1,8,0:0:0:0:
426,305,57096,5,2,3:2:0:0:
426,305,57184,1,8,0:0:0:0:
426,305,57272,2,0,L|449:201,1,95.7000029205323,6|0,1:2|3:2,0:0:0:0:
499,156,57535,1,0,1:2:0:0:
509,140,57623,2,0,L|486:36,1,95.7000029205323,10|0,0:0|1:2,0:0:0:0:
417,18,57886,1,0,3:2:0:0:
396,10,57974,2,0,P|356:10|320:54,1,95.7000029205323,2|0,3:2|1:2,0:0:0:0:
289,121,58237,1,0,3:2:0:0:
268,129,58324,2,0,P|228:129|192:85,1,95.7000029205323,10|0,0:0|3:2,0:0:0:0:
181,17,58588,5,8,0:0:0:0:
198,10,58675,2,0,L|309:43,1,113.099994822693,6|0,1:2|3:2,0:0:0:0:
358,93,58938,1,8,0:0:0:0:
364,111,59026,1,0,1:2:0:0:
113,268,59202,1,8,0:0:0:0:
28,227,59377,6,0,P|47:198|77:190,1,56.5499974113466,2|0,1:2|0:0,0:0:0:0:
142,181,59553,2,0,P|167:188|180:208,1,47.8500014602662,14|0,0:0|0:0,0:0:0:0:
48,352,59728,1,2,0:0:0:0:
265,214,59903,5,10,0:0:0:0:
265,214,59991,1,8,0:0:0:0:
265,214,60079,1,6,1:2:0:0:
98,76,60254,1,2,0:0:0:0:
317,11,60430,2,0,L|293:111,1,95.7000029205323,10|0,0:0|1:2,0:0:0:0:
340,272,60781,5,2,0:0:0:0:
197,166,60956,1,2,1:2:0:0:
400,90,61131,1,10,0:0:0:0:
317,11,61307,1,2,1:2:0:0:
461,148,61482,6,0,P|483:204|468:242,1,95.7000029205323,2|0,1:2|1:2,0:0:0:0:
299,342,61833,2,0,L|325:201,1,143.550004380798,10|0,0:0|0:0,0:0:0:0:
269,152,62184,2,0,P|233:175|222:226,1,95.7000029205323,2|0,0:0|1:2,0:0:0:0:
475,69,62535,1,8,0:0:0:0:
304,10,62710,2,0,L|312:57,1,47.8500014602662,2|8,1:2|0:0,0:0:0:0:
467,170,62886,6,0,B|390:208|390:208|375:249|375:249|298:285,1,208.79999362793,6|8,1:2|0:0,0:0:0:0:
58,132,63412,1,2,1:2:0:0:
118,50,63588,2,0,P|152:78|152:143,1,95.7000029205323,2|0,0:0|1:2,0:0:0:0:
13,335,63938,2,0,P|31:297|119:271,1,130.5,10|0,0:0|0:0,0:0:0:0:
168,316,64289,2,0,P|206:335|248:324,1,78.2999976104737,2|0,1:2|1:2,0:0:0:0:
382,151,64640,1,8,0:0:0:0:
241,91,64816,5,2,1:2:0:0:
245,110,64903,1,0,1:2:0:0:
250,129,64991,2,0,L|238:175,1,43.5,2|8,1:2|0:0,0:0:0:0:
366,273,65167,2,0,L|355:230,1,43.5,8|8,0:0|0:0,0:0:0:0:
438,82,65342,5,8,0:0:0:0:
466,105,65429,1,8,0:3:0:0:
480,140,65517,1,4,0:3:0:0:
474,178,65605,1,4,0:3:0:0:
452,208,65693,6,0,L|306:170,1,143.550004380798,6|0,1:2|1:2,0:0:0:0:
247,203,66044,1,10,0:0:0:0:
161,105,66219,1,2,1:2:0:0:
21,274,66395,6,0,L|166:236,1,143.550004380798,2|0,0:0|0:0,0:0:0:0:
225,271,66746,1,10,0:0:0:0:
312,172,66921,1,2,1:2:0:0:
495,279,67096,6,0,P|473:342|392:363,1,143.550004380798,2|0,1:2|1:2,0:0:0:0:
342,330,67447,1,10,0:0:0:0:
432,219,67623,1,2,1:2:0:0:
297,88,67798,2,0,B|235:78|211:130|238:136|211:187|151:186,1,191.400005841065,2|8,0:0|0:0,0:0:0:0:
34,22,68324,5,0,1:2:0:0:
62,26,68412,1,0,1:2:0:0:
74,51,68500,2,0,L|49:196,1,143.550004380798,2|0,1:2|1:2,0:0:0:0:
37,264,68851,1,10,0:0:0:0:
156,351,69026,1,2,1:2:0:0:
317,309,69202,6,0,L|292:164,1,143.550004380798,2|0,0:0|0:0,0:0:0:0:
280,94,69553,1,10,0:0:0:0:
471,54,69728,5,2,1:2:0:0:
463,76,69816,1,0,1:2:0:0:
454,100,69903,2,0,B|423:77|397:90|397:90|383:114|355:115,1,104.399996813965,14|0,1:2|1:2,0:0:0:0:
308,162,70167,5,8,0:0:0:0:
307,185,70254,2,0,B|291:196|278:189|278:189|271:177|257:177,1,56.5499974113466,2|0,1:2|0:0,0:0:0:0:
79,78,70430,2,0,B|95:90|109:82|109:82|117:69|132:69,1,60.8999981414796,10|0,0:0|1:2,0:0:0:0:
190,19,70605,1,2,1:2:0:0:
198,222,70781,6,0,B|166:170|205:122|205:122|193:117|193:117|227:68|189:17,1,226.199989645386,8|0,0:0|0:0,0:0:0:0:
38,216,71307,6,0,P|70:253|122:256,1,95.7000029205323,14|0,1:2|1:2,0:0:0:0:
307,185,71658,1,2,1:2:0:0:
134,70,71833,1,8,0:0:0:0:
307,0,72009,2,0,L|281:112,1,113.099994822693,2|0,1:2|1:2,0:0:0:0:
390,296,72360,1,10,0:0:0:0:
203,155,72535,1,0,1:2:0:0:
442,17,72710,6,0,L|457:85,1,69.6,14|0,1:2|0:0,0:0:0:0:
456,84,73412,6,0,P|432:97|404:92,1,52.2,2|0,0:0|0:0,0:0:0:0:
404,115,73763,2,0,P|380:100|371:73,1,52.2,2|0,0:0|0:0,0:0:0:0:
307,21,74114,6,0,B|257:13|234:49|260:53|232:94|187:89,1,143.550004380798,6|0,1:2|1:2,0:0:0:0:
119,61,74465,2,0,P|112:55|121:61,1,47.8500014602662,8|0,0:0|0:0,0:0:0:0:
190,187,74640,2,0,B|247:206|247:206|261:233|261:233|317:253,1,143.550004380798,2|0,1:2|0:0,0:0:0:0:
375,312,74991,2,0,P|398:276|386:221,1,95.7000029205323,2|8,1:2|0:0,0:0:0:0:
300,27,75342,6,0,L|330:180,1,143.550004380798,2|0,1:2|0:0,0:0:0:0:
310,250,75693,2,0,P|272:275|222:261,1,95.7000029205323,2|8,0:0|0:0,0:0:0:0:
80,69,76044,2,0,P|118:119|88:204,1,143.550004380798,2|0,1:2|0:0,0:0:0:0:
10,207,76395,2,0,P|-2:194|14:201,1,47.8500014602662,2|0,1:2|0:0,0:0:0:0:
69,334,76570,2,0,B|94:342|117:332|117:332|123:357|143:371,1,95.7000029205323,8|0,0:0|1:2,0:0:0:0:
220,366,76833,5,8,0:0:0:0:
240,366,76921,2,0,P|250:339|237:316,1,47.8500014602662,6|0,1:2|3:2,0:0:0:0:
185,241,77096,2,0,L|138:250,2,47.8500014602662,2|0|8,0:0|1:2|0:0,0:0:0:0:
257,118,77447,2,0,P|295:95|382:134,1,143.550004380798,2|0,1:2|0:0,0:0:0:0:
396,204,77798,2,0,L|377:297,1,95.7000029205323,2|8,1:2|0:0,0:0:0:0:
185,241,78149,5,0,1:2:0:0:
180,217,78236,1,8,0:0:0:0:
175,194,78324,2,0,L|128:184,2,47.8500014602662,2|8|2,1:2|0:0|1:2,0:0:0:0:
328,85,78675,1,8,0:0:0:0:
282,8,78851,1,2,1:2:0:0:
121,100,79026,5,8,1:3:0:0:
97,95,79113,1,8,1:2:0:0:
74,90,79202,2,0,B|38:87|27:127|27:127|49:187,1,121.799996282959,14|8,1:2|0:0,0:0:0:0:
109,360,79729,6,0,B|168:396|215:340|191:328|230:287|291:309,1,208.79999362793,6|8,1:2|0:0,0:0:0:0:
474,204,80255,1,2,1:2:0:0:
338,82,80431,1,8,0:0:0:0:
512,0,80606,2,0,L|487:111,1,104.399996813965,2|8,1:2|0:0,0:0:0:0:
293,223,80957,6,0,L|270:121,1,104.399996813965,2|8,1:2|0:0,0:0:0:0:
161,27,81308,1,2,1:2:0:0:
400,176,81483,1,8,0:0:0:0:
138,302,81659,2,0,L|160:200,1,104.399996813965,2|8,1:2|0:0,0:0:0:0:
16,53,82010,2,0,L|38:154,1,104.399996813965,2|8,1:2|0:0,0:0:0:0:
236,253,82361,5,0,1:2:0:0:
236,253,82447,1,0,1:2:0:0:
236,253,82536,1,10,0:0:0:0:
103,368,82711,1,2,1:2:0:0:
256,177,82887,1,8,0:0:0:0:
381,351,83062,2,0,L|280:329,1,104.399996813965,2|8,1:2|0:0,0:0:0:0:
131,211,83413,1,2,1:2:0:0:
156,205,83500,1,0,1:2:0:0:
182,199,83588,1,8,0:0:0:0:
337,128,83763,5,2,1:2:0:0:
278,328,83938,1,8,0:0:0:0:
195,111,84115,1,10,0:0:0:0:
360,235,84290,1,10,0:0:0:0:
132,320,84466,1,10,0:0:0:0:
274,93,84641,1,8,0:0:0:0:
511,349,84816,5,10,1:2:0:0:
473,340,84904,1,8,1:3:0:0:
435,331,84992,1,4,1:3:0:0:
397,322,85080,1,4,1:3:0:0:
359,314,85167,1,14,1:2:0:0:
