osu file format v14

[General]
AudioFilename: audio.mp3
AudioLeadIn: 0
PreviewTime: 47974
Countdown: 0
SampleSet: Soft
StackLeniency: 0.4
Mode: 0
LetterboxInBreaks: 0
WidescreenStoryboard: 1

[Editor]
DistanceSpacing: 1.4
BeatDivisor: 4
GridSize: 32
TimelineZoom: 1.7

[Metadata]
Title:Zankyo Sanka (TV Size)
TitleUnicode:残響散歌 (TV Size)
Artist:Aimer
ArtistUnicode:Aimer
Creator:AsuKow
Version:Shunao's Hard
Source:「鬼滅の刃」遊郭編
Tags:Kirishima- Shunao ShogunMoon Yereoz Soue GrazuKo エメ demon slayer kny kimetsu no yaiba yuukaku hen op opening anime pop jpop j-pop japanese female vocals vocalist season 2 two second entertainment district asa ga kuru 鬼滅の刃遊郭編 zankyousanka zankyosanka zankyou 胡蝶しのぶ Shinobu Kocho 胡蝶カナエ Kanae Kocho 栗花落カナヲ Kanao Tsuyuri Kochō Kochou
BeatmapID:3427816
BeatmapSetID:1677788

[Difficulty]
HPDrainRate:4.5
CircleSize:3.5
OverallDifficulty:6.5
ApproachRate:8
SliderMultiplier:1.4
SliderTickRate:1

[Events]
//Background and Video events
0,0,"77870356_p1.jpg",0,0
Video,-10,"video.mp4"
//Break Periods
//Storyboard Layer 0 (Background)
//Storyboard Layer 1 (Fail)
//Storyboard Layer 2 (Pass)
//Storyboard Layer 3 (Foreground)
//Storyboard Layer 4 (Overlay)
//Storyboard Sound Samples

[TimingPoints]
82,350.877192982456,4,2,2,40,1,0
82,-111.111111111111,4,2,2,40,0,0
783,350.877192982456,3,2,2,50,1,0
783,-111.111111111111,4,2,2,50,0,0
2538,-100,4,2,2,50,0,0
2625,-100,4,2,2,50,0,0
2889,-166.666666666666,4,2,2,50,0,0
3939,350.877192982456,4,2,2,60,1,0
3939,-111.111111111111,4,2,2,60,0,0
9465,-111.111111111111,4,2,2,60,0,0
9553,-100,4,2,2,75,0,0
9816,-100,4,2,2,75,0,0
9903,-100,4,2,2,75,0,0
20693,-100,4,2,2,75,0,0
20781,-111.111111111111,4,2,2,60,0,0
21044,-111.111111111111,4,2,2,60,0,0
21131,-111.111111111111,4,2,2,60,0,0
23938,-111.111111111111,4,2,2,60,0,0
32009,-125,4,2,2,50,0,0
37886,-125,4,2,2,5,0,0
37974,-125,4,2,2,50,0,0
40781,-125,4,2,2,50,0,0
43237,-111.111111111111,4,2,2,60,0,0
48851,-83.3333333333333,4,2,2,85,0,1
66658,-83.3333333333333,4,2,2,5,0,1
66746,-83.3333333333333,4,2,2,85,0,1
69465,-83.3333333333333,4,2,2,5,0,1
69553,-83.3333333333333,4,2,2,85,0,1
72710,-100,4,2,2,75,0,0
74114,-100,4,2,2,75,0,0
74377,-100,4,2,2,75,0,0
74465,-100,4,2,2,75,0,0
79728,-100,4,2,2,80,0,0

[Colours]
Combo1 : 136,155,200
Combo2 : 89,172,255
Combo3 : 183,255,255

[HitObjects]
17,206,82,5,8,0:0:0:0:
123,65,432,1,8,0:0:0:0:
222,206,783,6,0,P|268:222|324:206,1,94.499997116089,2|0,1:2|0:0,0:0:0:0:
358,194,1134,1,8,0:0:0:0:
450,235,1309,6,0,P|440:288|431:347,1,94.499997116089,2|0,1:2|0:0,0:0:0:0:
426,377,1660,1,8,0:0:0:0:
324,374,1835,6,0,P|273:356|206:357,1,94.499997116089,2|2,1:2|0:0,0:0:0:0:
185,370,2187,1,8,0:0:0:0:
88,340,2362,6,0,P|66:290|74:226,1,94.499997116089,2|0,1:2|0:0,0:0:0:0:
76,201,2713,1,8,1:3:0:0:
134,118,2889,6,0,B|262:78|229:179|365:137,1,230.99999295044,12|0,0:0|0:0,0:0:0:0:
406,121,3939,6,0,P|389:177|437:251,1,125.999996154785,4|8,1:2|0:0,0:0:0:0:
503,305,4465,1,2,1:2:0:0:
431,360,4640,1,8,0:0:0:0:
431,360,4728,1,8,0:0:0:0:
431,360,4816,2,0,P|397:365|348:377,1,62.9999980773926,2|0,1:2|1:2,0:0:0:0:
292,316,5167,6,0,P|253:309|213:300,1,62.9999980773926,2|8,1:2|0:0,0:0:0:0:
128,321,5517,2,0,P|152:350|167:382,1,62.9999980773926,2|8,1:2|0:0,0:0:0:0:
230,304,5868,2,0,P|236:277|254:226,1,62.9999980773926,2|0,1:2|1:2,0:0:0:0:
296,172,6219,2,0,P|286:144|284:125,2,31.4999990386963,8|8|8,0:1|0:0|1:3,0:0:0:0:
387,203,6570,1,4,1:3:0:0:
463,154,6746,6,0,P|473:111|475:78,1,62.9999980773926,2|8,1:2|0:0,0:0:0:0:
478,49,7009,1,10,0:2:0:0:
363,19,7272,2,0,P|305:12|231:8,1,125.999996154785,2|2,1:2|1:2,0:0:0:0:
137,2,7798,1,0,1:0:0:0:
68,67,7974,6,0,P|135:57|187:115,1,125.999996154785,2|2,1:2|1:2,0:0:0:0:
231,167,8500,1,2,1:2:0:0:
182,253,8675,1,2,1:2:0:0:
249,181,8851,2,0,P|284:175|326:173,1,62.9999980773926,12|0,1:2|1:2,0:0:0:0:
351,278,9202,2,0,P|319:272|288:270,1,62.9999980773926,12|0,1:2|1:2,0:0:0:0:
207,346,9553,6,0,P|211:295|174:248,1,105,6|0,1:2|1:2,0:0:0:0:
150,223,9903,1,8,0:0:0:0:
77,154,10079,2,0,P|70:115|69:81,1,70,2|0,1:2|0:0,0:0:0:0:
153,35,10430,2,0,P|159:69|161:104,1,70,2|8,1:2|0:0,0:0:0:0:
244,160,10781,6,0,P|296:174|376:135,1,140,2|2,1:2|0:0,0:0:0:0:
447,77,11307,1,8,0:0:0:0:
493,162,11482,2,0,L|483:241,1,70,2|0,1:2|0:0,0:0:0:0:
394,264,11833,2,0,L|403:346,1,70,2|8,1:2|0:0,0:0:0:0:
319,375,12184,1,0,1:2:0:0:
234,372,12360,5,2,1:2:0:0:
234,372,12535,2,0,P|190:362|150:356,1,70,2|8,0:0|0:0,0:0:0:0:
72,330,12886,2,0,P|29:345|2:349,1,70,2|0,1:2|0:0,0:0:0:0:
0,257,13237,2,0,P|26:201|55:117,1,140,2|0,1:2|1:2,0:0:0:0:
70,38,13763,5,2,1:2:0:0:
70,38,13938,2,0,P|119:27|154:27,1,70,2|8,1:2|0:0,0:0:0:0:
224,59,14289,2,0,L|232:147,1,70,10|4,1:3|1:3,0:0:0:0:
260,166,14553,1,8,0:0:0:0:
260,166,14640,2,0,L|249:256,1,70,14|0,0:0|1:2,0:0:0:0:
326,308,14991,1,8,0:0:0:0:
439,260,15167,6,0,P|387:248|364:197,1,105,6|0,1:2|1:2,0:0:0:0:
361,163,15517,1,8,0:0:0:0:
418,86,15693,2,0,L|495:79,1,70,2|0,1:2|0:0,0:0:0:0:
433,0,16044,2,0,L|363:6,1,70,2|8,1:2|0:0,0:0:0:0:
266,55,16395,6,0,P|250:112|233:209,1,140,2|2,1:2|0:0,0:0:0:0:
205,283,16921,1,8,0:0:0:0:
267,355,17096,2,0,P|307:344|351:344,1,70,2|0,1:2|0:0,0:0:0:0:
432,354,17447,1,2,1:2:0:0:
432,354,17623,2,0,P|418:317|414:271,1,70,8|0,0:0|1:2,0:0:0:0:
414,244,17886,1,8,0:0:0:0:
414,244,17974,5,2,1:2:0:0:
464,167,18149,2,0,L|504:158,2,35,2|0|8,0:0|1:2|0:0,0:0:0:0:
380,127,18500,2,0,P|339:116|290:112,1,70,2|0,1:2|0:0,0:0:0:0:
238,58,18851,2,0,P|191:77|157:80,1,70,2|8,1:2|0:0,0:0:0:0:
87,36,19202,6,0,P|33:65|24:143,1,140,2|2,1:2|1:2,0:0:0:0:
47,177,19640,1,8,0:0:0:0:
47,177,19728,1,2,1:2:0:0:
122,237,19903,2,0,L|112:328,1,70,10|0,1:2|1:2,0:0:0:0:
181,369,20254,2,0,P|252:359|325:358,1,140,14|0,0:0|0:0,0:0:0:0:
440,367,20781,5,6,1:2:0:0:
480,196,21131,2,0,P|436:183|349:170,1,125.999996154785,10|2,0:0|0:0,0:0:0:0:
275,218,21658,1,2,1:2:0:0:
275,218,21833,2,0,P|229:229|191:232,1,62.9999980773926,10|2,0:0|1:2,0:0:0:0:
131,251,22184,5,2,0:0:0:0:
189,331,22360,2,0,L|229:326,2,31.4999990386963,2|2|10,1:2|0:2|0:0,0:0:0:0:
104,370,22710,2,0,P|41:346|22:276,1,125.999996154785,2|2,1:2|1:2,0:0:0:0:
4,209,23237,2,0,L|24:134,1,62.9999980773926,10|2,0:2|1:2,0:0:0:0:
2,54,23588,5,4,1:2:0:0:
101,31,23763,1,0,1:2:0:0:
101,31,23851,1,0,1:2:0:0:
101,31,23938,2,0,P|159:22|215:68,1,125.999996154785,10|2,0:2|3:2,0:0:0:0:
234,152,24465,1,2,1:2:0:0:
234,152,24640,2,0,L|226:218,1,62.9999980773926,10|2,0:0|1:2,0:0:0:0:
159,275,24991,6,0,L|167:343,1,62.9999980773926,2|2,0:0|1:2,0:0:0:0:
259,373,25342,2,0,P|324:362|395:349,1,125.999996154785,10|2,0:0|1:2,0:0:0:0:
423,273,25868,1,0,1:2:0:0:
423,273,26044,2,0,P|390:264|347:255,1,62.9999980773926,10|0,0:0|1:2,0:0:0:0:
333,171,26395,6,0,P|351:145|362:114,1,62.9999980773926,4|2,1:2|0:0,0:0:0:0:
271,63,26746,2,0,P|246:89|234:130,1,62.9999980773926,10|2,0:0|1:2,0:0:0:0:
158,164,27096,1,2,0:0:0:0:
158,164,27272,2,0,P|87:153|14:139,1,125.999996154785,2|2,1:2|1:2,0:0:0:0:
8,241,27798,6,0,P|8:262|37:311,1,62.9999980773926,2|0,0:0|1:2,0:0:0:0:
82,370,28149,2,0,P|117:358|158:353,1,62.9999980773926,10|0,0:0|1:2,0:0:0:0:
216,305,28500,2,0,P|206:275|201:257,2,31.4999990386963,2|0|0,3:2|3:2|1:2,0:0:0:0:
291,357,28851,2,0,P|307:310|316:283,1,62.9999980773926,10|0,0:0|1:2,0:0:0:0:
339,212,29202,5,6,1:2:0:0:
416,150,29377,1,0,1:2:0:0:
416,150,29465,1,2,1:2:0:0:
416,150,29553,2,0,P|448:139|489:134,1,62.9999980773926,10|0,0:0|1:2,0:0:0:0:
472,35,29903,2,0,P|420:5|345:25,1,125.999996154785,2|10,1:2|0:0,0:0:0:0:
259,63,30430,1,2,0:0:0:0:
259,63,30517,1,8,0:0:0:0:
259,63,30605,6,0,L|249:144,1,62.9999980773926,14|0,1:2|1:2,0:0:0:0:
268,167,30868,1,8,0:0:0:0:
373,247,31131,2,0,L|356:347,1,94.499997116089,14|8,1:2|1:2,0:0:0:0:
329,375,31482,1,4,1:2:0:0:
233,364,31658,2,0,L|224:301,1,62.9999980773926,8|0,0:0|0:0,0:0:0:0:
112,289,32009,6,0,P|52:291|13:243,1,112,6|2,1:2|1:2,0:0:0:0:
0,172,32535,1,0,0:0:0:0:
0,172,32710,2,0,P|50:162|124:148,1,112,2|2,1:2|1:2,0:0:0:0:
111,64,33237,1,10,0:0:0:0:
111,64,33412,6,0,L|185:72,1,56,2|10,1:2|0:0,0:0:0:0:
250,32,33763,1,2,1:2:0:0:
418,147,34114,1,2,1:2:0:0:
418,147,34289,2,0,P|413:179|410:218,1,56,12|0,0:0|1:2,0:0:0:0:
465,291,34640,1,12,0:0:0:0:
465,291,34816,6,0,P|416:294|360:322,1,112,2|14,1:2|1:2,0:0:0:0:
187,262,35517,1,2,1:2:0:0:
187,262,35693,2,0,L|265:250,1,56,10|2,0:3|1:2,0:0:0:0:
313,176,36044,1,2,0:0:0:0:
313,176,36219,6,0,P|294:135|218:112,1,112,2|10,1:2|0:0,0:0:0:0:
145,75,36746,1,8,0:3:0:0:
145,75,36833,1,4,0:3:0:0:
145,75,36921,2,0,L|152:148,1,56,2|8,1:2|0:0,0:0:0:0:
235,109,37272,2,0,L|244:40,1,56,0|10,1:2|1:3,0:0:0:0:
336,18,37623,6,0,P|378:18|431:46,1,84,2|0,1:2|0:0,0:0:0:0:
454,50,37974,2,0,L|439:127,1,56,14|2,1:2|0:0,0:0:0:0:
408,190,38324,2,0,P|366:192|320:171,1,84,2|8,1:2|0:3,0:0:0:0:
296,150,38675,2,0,P|289:120|276:88,1,56,2|6,1:2|0:3,0:0:0:0:
199,50,39026,5,2,1:2:0:0:
111,73,39202,1,8,0:0:0:0:
111,73,39377,2,0,P|86:88|62:127,1,56,2|2,1:2|0:0,0:0:0:0:
45,203,39728,2,0,P|96:196|137:192,1,84,10|0,1:2|1:2,0:0:0:0:
158,164,40079,2,0,P|192:171|223:178,1,56,2|8,1:2|1:2,0:0:0:0:
296,248,40430,6,0,P|281:304|270:381,1,112,6|8,1:2|0:0,0:0:0:0:
372,382,40956,1,2,1:2:0:0:
372,382,41131,2,0,P|428:372|508:359,1,112,10|0,0:0|1:2,0:0:0:0:
512,262,41658,5,14,0:0:0:0:
380,134,42009,1,8,0:0:0:0:
502,14,42360,1,10,0:0:0:0:
380,134,42710,2,0,P|325:124|258:116,1,112,12|8,0:0|0:0,0:0:0:0:
184,58,43237,6,0,P|146:68|96:77,1,62.9999980773926,6|8,1:2|0:0,0:0:0:0:
47,151,43588,2,0,P|77:157|108:165,1,62.9999980773926,10|0,0:0|1:2,0:0:0:0:
194,211,43938,2,0,P|217:208|239:198,3,31.4999990386963,10|8|8|8,0:0|0:0|0:0|0:0,0:0:0:0:
270,191,44289,2,0,P|293:194|315:204,3,31.4999990386963,2|8|8|8,1:2|0:0|0:0|0:0,0:0:0:0:
346,210,44640,5,2,1:2:0:0:
447,199,44816,1,8,0:0:0:0:
447,199,44903,1,8,0:0:0:0:
447,199,44991,2,0,P|438:244|432:282,1,62.9999980773926,10|0,0:0|1:2,0:0:0:0:
341,359,45342,2,0,P|317:353|291:350,3,31.4999990386963,10|8|8|8,0:0|0:0|0:0|0:0,0:0:0:0:
263,360,45693,2,0,P|239:366|213:369,3,31.4999990386963,2|8|8|8,1:2|0:0|0:0|0:0,0:0:0:0:
184,367,46044,6,0,L|196:257,2,94.499997116089,10|8|12,0:0|0:0|0:0,0:0:0:0:
45,338,46833,2,0,L|36:274,1,62.9999980773926,8|0,0:0|0:0,0:0:0:0:
25,230,47096,1,14,0:0:0:0:
75,149,47272,1,14,0:0:0:0:
248,224,47623,5,12,0:0:0:0:
160,190,47798,1,12,0:0:0:0:
75,149,47974,1,12,1:2:0:0:
213,20,48324,2,0,P|272:45|296:116,1,125.999996154785,14|2,1:2|1:2,0:0:0:0:
401,101,48851,6,0,P|388:146|381:193,1,83.9999974365235,6|0,1:2|0:0,0:0:0:0:
285,205,49202,2,0,P|304:276|319:377,1,167.999994873047,10|2,0:0|1:2,0:0:0:0:
415,344,49728,1,2,1:2:0:0:
415,344,49903,2,0,P|422:298|434:253,1,83.9999974365235,10|2,0:0|1:2,0:0:0:0:
382,182,50254,5,2,1:2:0:0:
288,210,50430,1,2,1:2:0:0:
288,210,50605,2,0,L|188:197,1,83.9999974365235,10|0,0:0|1:2,0:0:0:0:
145,117,50956,2,0,L|323:101,1,167.999994873047,2|8,0:0|0:0,0:0:0:0:
291,9,51482,1,2,1:2:0:0:
155,23,51658,6,0,P|73:51|46:132,1,167.999994873047,6|8,1:2|0:0,0:0:0:0:
70,224,52184,1,2,1:2:0:0:
70,224,52360,2,0,P|81:276|86:323,1,83.9999974365235,2|0,0:0|1:2,0:0:0:0:
175,349,52710,2,0,P|180:307|189:266,1,83.9999974365235,10|0,0:0|1:2,0:0:0:0:
198,219,52974,1,0,1:2:0:0:
198,219,53061,6,0,P|275:221|338:148,1,167.999994873047,2|8,1:2|0:0,0:0:0:0:
359,63,53588,1,2,1:2:0:0:
359,63,53763,1,10,0:0:0:0:
271,14,53938,1,8,0:0:0:0:
271,14,54114,2,0,P|264:56|258:104,1,83.9999974365235,8|4,0:0|1:3,0:0:0:0:
162,121,54465,6,0,P|102:110|41:134,1,125.999996154785,6|0,1:2|1:2,0:0:0:0:
28,181,54816,2,0,P|36:225|42:273,1,83.9999974365235,10|2,0:0|1:2,0:0:0:0:
69,361,55167,2,0,P|129:342|191:335,1,125.999996154785,2|0,0:0|0:0,0:0:0:0:
236,312,55517,2,0,P|292:326|339:334,1,83.9999974365235,10|2,0:0|1:2,0:0:0:0:
413,297,55868,6,0,P|400:230|337:204,1,125.999996154785,2|0,1:2|1:2,0:0:0:0:
325,161,56219,2,0,P|308:120|300:72,1,83.9999974365235,10|2,0:0|1:2,0:0:0:0:
399,49,56570,1,2,0:0:0:0:
399,49,56746,2,0,P|415:87|423:128,1,83.9999974365235,0|8,1:2|0:0,0:0:0:0:
482,222,57096,1,2,3:2:0:0:
482,222,57184,1,8,0:0:0:0:
482,222,57272,6,0,P|440:230|400:238,1,83.9999974365235,6|0,1:2|0:0,0:0:0:0:
316,295,57623,2,0,P|298:347|292:399,1,83.9999974365235,10|0,0:0|1:2,0:0:0:0:
192,373,57974,2,0,P|174:321|168:269,1,83.9999974365235,2|0,0:0|1:2,0:0:0:0:
216,203,58324,1,10,0:0:0:0:
285,130,58500,1,0,0:0:0:0:
285,130,58588,1,8,0:0:0:0:
285,130,58675,6,0,P|238:116|187:110,1,83.9999974365235,6|0,1:2|3:2,0:0:0:0:
155,95,58938,1,8,0:0:0:0:
82,227,59202,1,8,0:0:0:0:
209,384,59553,2,0,P|166:377|123:374,1,83.9999974365235,14|2,0:0|0:0,0:0:0:0:
18,364,59903,1,10,0:0:0:0:
18,364,59991,1,8,0:0:0:0:
18,364,60079,6,0,P|0:306|1:255,1,83.9999974365235,6|2,1:2|0:0,0:0:0:0:
3,172,60430,2,0,P|81:185|147:118,1,167.999994873047,10|2,0:0|0:0,0:0:0:0:
225,64,60956,1,2,1:2:0:0:
225,64,61131,2,0,P|240:105|248:148,1,83.9999974365235,10|2,0:0|1:2,0:0:0:0:
276,243,61482,5,2,1:2:0:0:
372,195,61658,1,0,1:2:0:0:
372,195,61833,2,0,P|409:182|461:193,1,83.9999974365235,10|0,0:0|1:2,0:0:0:0:
511,293,62184,2,0,P|441:302|340:320,1,167.999994873047,2|8,0:0|0:0,0:0:0:0:
246,350,62710,1,2,1:2:0:0:
132,320,62886,6,0,P|105:247|158:178,1,167.999994873047,6|8,1:2|0:0,0:0:0:0:
242,151,63412,1,2,1:2:0:0:
242,151,63588,2,0,P|237:107|227:68,1,83.9999974365235,2|0,0:0|1:2,0:0:0:0:
139,9,63938,2,0,P|128:47|121:92,1,83.9999974365235,10|0,0:0|1:2,0:0:0:0:
26,166,64289,6,0,P|106:173|152:240,1,167.999994873047,2|8,1:2|0:0,0:0:0:0:
154,346,64816,1,2,1:2:0:0:
154,346,64991,1,2,1:2:0:0:
257,370,65166,1,8,0:0:0:0:
257,370,65342,2,0,L|355:363,1,83.9999974365235,8|4,0:0|0:3,0:0:0:0:
426,308,65693,6,0,P|435:248|401:184,1,125.999996154785,6|0,1:2|1:2,0:0:0:0:
380,148,66044,2,0,P|433:132|459:104,1,83.9999974365235,10|2,0:0|1:2,0:0:0:0:
422,8,66395,2,0,P|351:3|296:42,1,125.999996154785,2|0,0:0|0:0,0:0:0:0:
269,65,66746,2,0,L|278:157,1,83.9999974365235,10|2,0:0|1:2,0:0:0:0:
288,264,67096,6,0,P|230:299|158:287,1,125.999996154785,2|0,1:2|1:2,0:0:0:0:
136,328,67447,2,0,P|100:314|52:303,1,83.9999974365235,10|2,0:0|1:2,0:0:0:0:
110,222,67798,2,0,P|100:181|93:121,1,83.9999974365235,2|0,0:0|1:2,0:0:0:0:
16,69,68149,2,0,P|10:110|0:151,1,83.9999974365235,8|0,0:0|1:2,0:0:0:0:
109,147,68500,6,0,P|159:115|236:124,1,125.999996154785,2|0,1:2|1:2,0:0:0:0:
263,149,68851,2,0,L|365:134,1,83.9999974365235,10|2,0:0|1:2,0:0:0:0:
364,37,69202,2,0,P|307:4|234:19,1,125.999996154785,2|0,0:0|0:0,0:0:0:0:
206,35,69553,2,0,P|218:88|225:138,1,83.9999974365235,10|2,0:0|1:2,0:0:0:0:
119,170,69903,6,0,P|108:213|99:272,1,83.9999974365235,14|0,1:2|1:2,0:0:0:0:
121,304,70167,1,8,0:0:0:0:
121,304,70254,1,2,1:2:0:0:
192,375,70430,1,10,0:0:0:0:
192,375,70605,2,0,P|230:353|276:346,1,83.9999974365235,2|8,1:2|0:0,0:0:0:0:
339,272,70956,2,0,P|385:269|433:246,1,83.9999974365235,8|0,0:3|0:0,0:0:0:0:
494,186,71307,6,0,P|471:257|447:374,1,167.999994873047,14|2,1:2|1:2,0:0:0:0:
352,359,71833,1,8,0:0:0:0:
352,359,72009,2,0,P|310:350|269:344,1,83.9999974365235,2|0,1:2|1:2,0:0:0:0:
168,352,72360,1,10,0:0:0:0:
74,312,72535,1,0,1:2:0:0:
144,221,72710,5,14,1:2:0:0:
144,221,74114,6,0,P|189:196|241:206,1,105,6|0,1:2|1:2,0:0:0:0:
273,228,74464,1,8,0:0:0:0:
367,274,74640,2,0,L|449:266,1,70,2|0,1:2|0:0,0:0:0:0:
479,177,74991,2,0,L|388:167,1,70,2|8,1:2|0:0,0:0:0:0:
313,128,75342,6,0,P|385:136|436:71,1,140,2|2,1:2|0:0,0:0:0:0:
376,10,75868,1,8,0:0:0:0:
278,25,76043,2,0,P|243:16|183:16,1,70,2|0,1:2|0:0,0:0:0:0:
119,71,76394,2,0,P|84:86|35:83,1,70,2|8,1:2|0:0,0:0:0:0:
3,183,76745,1,0,1:2:0:0:
64,271,76921,5,6,1:2:0:0:
64,271,77096,2,0,P|70:307|75:361,1,70,2|8,0:0|0:0,0:0:0:0:
164,374,77447,2,0,P|167:339|173:304,1,70,2|0,1:2|0:0,0:0:0:0:
194,206,77798,2,0,P|256:193|319:258,1,140,2|0,1:2|1:2,0:0:0:0:
358,329,78324,5,2,1:2:0:0:
358,329,78499,2,0,L|442:321,1,70,2|8,1:2|0:0,0:0:0:0:
482,243,78850,2,0,P|470:206|464:160,1,70,2|8,1:2|1:3,0:0:0:0:
485,139,79114,1,8,1:2:0:0:
485,139,79202,2,0,P|497:102|503:56,1,70,14|0,1:2|1:2,0:0:0:0:
425,13,79552,1,8,0:0:0:0:
310,90,79728,6,0,P|243:76|174:115,1,140,6|8,1:2|0:0,0:0:0:0:
120,189,80254,1,2,1:2:0:0:
120,189,80430,2,0,L|128:268,1,70,8|2,0:0|1:2,0:0:0:0:
69,342,80781,1,8,0:0:0:0:
69,342,80956,6,0,P|131:312|220:342,1,140,2|2,1:2|1:2,0:0:0:0:
303,368,81482,1,8,0:0:0:0:
303,368,81658,2,0,P|316:332|323:284,1,70,2|8,1:2|0:0,0:0:0:0:
254,224,82009,2,0,P|241:188|234:140,1,70,2|8,1:2|0:0,0:0:0:0:
298,72,82360,1,0,1:2:0:0:
403,89,82535,5,10,0:0:0:0:
403,89,82710,2,0,L|482:83,1,70,2|8,1:2|0:0,0:0:0:0:
512,177,83061,2,0,L|442:182,1,70,2|8,1:2|0:0,0:0:0:0:
409,278,83412,2,0,L|488:272,1,70,2|8,1:2|0:0,0:0:0:0:
419,372,83763,6,0,P|373:304|295:308,1,140,2|10,1:2|0:0,0:0:0:0:
226,329,84289,1,10,0:0:0:0:
226,329,84465,2,0,P|216:284|212:241,1,70,10|8,0:0|0:0,0:0:0:0:
215,172,84816,1,10,1:2:0:0:
215,172,84903,1,8,1:3:0:0:
215,172,84991,1,4,1:3:0:0:
300,86,85167,5,14,1:2:0:0:
