osu file format v14

[General]
AudioFilename: audio.mp3
AudioLeadIn: 0
PreviewTime: 47974
Countdown: 0
SampleSet: Soft
StackLeniency: 0.4
Mode: 0
LetterboxInBreaks: 0
WidescreenStoryboard: 1

[Editor]
Bookmarks: 3939,9553,20781,32009,40430,48851,74114,85167
DistanceSpacing: 6
BeatDivisor: 4
GridSize: 32
TimelineZoom: 1.7

[Metadata]
Title:Zankyo Sanka (TV Size)
TitleUnicode:残響散歌 (TV Size)
Artist:Aimer
ArtistUnicode:Aimer
Creator:AsuKow
Version:Kirishima-'s Normal
Source:「鬼滅の刃」遊郭編
Tags:Kirishima- Shunao ShogunMoon Yereoz Soue GrazuKo エメ demon slayer kny kimetsu no yaiba yuukaku hen op opening anime pop jpop j-pop japanese female vocals vocalist season 2 two second entertainment district asa ga kuru 鬼滅の刃遊郭編 zankyousanka zankyosanka zankyou 胡蝶しのぶ Shinobu Kocho 胡蝶カナエ Kanae Kocho 栗花落カナヲ Kanao Tsuyuri Kochō Kochou
BeatmapID:3427815
BeatmapSetID:1677788

[Difficulty]
HPDrainRate:3
CircleSize:3
OverallDifficulty:4
ApproachRate:5.5
SliderMultiplier:0.999999999999999
SliderTickRate:1

[Events]
//Background and Video events
0,0,"77870356_p1.jpg",0,0
Video,-10,"video.mp4"
//Break Periods
//Storyboard Layer 0 (Background)
//Storyboard Layer 1 (Fail)
//Storyboard Layer 2 (Pass)
//Storyboard Layer 3 (Foreground)
//Storyboard Layer 4 (Overlay)
//Storyboard Sound Samples

[TimingPoints]
82,350.877192982456,4,2,2,40,1,0
82,-100,4,2,2,40,0,0
783,350.877192982456,3,2,2,50,1,0
783,-100,4,2,2,50,0,0
3939,350.877192982456,4,2,2,60,1,0
3941,-100,4,2,2,60,0,0
9553,-100,4,2,2,75,0,0
20781,-100,4,2,2,60,0,0
32009,-100,4,2,2,50,0,0
40430,-100,4,2,2,50,0,0
43237,-100,4,2,2,60,0,0
48851,-100,4,2,2,85,0,1
72710,-100,4,2,2,75,0,0
74114,-100,4,2,2,75,0,0
79728,-100,4,2,2,80,0,0
85167,-100,4,2,2,80,0,0

[Colours]
Combo1 : 136,155,200
Combo2 : 89,172,255
Combo3 : 183,255,255

[HitObjects]
2,40,3939,6,0,P|45:17|94:24,1,99.9999999999999,4|8,1:2|0:0,0:0:0:0:
141,41,4465,1,2,1:2:0:0:
212,110,4816,1,2,1:2:0:0:
151,189,5167,2,0,P|102:196|58:173,2,99.9999999999999,2|2|2,1:2|1:2|1:2,0:0:0:0:
219,261,6219,1,8,0:1:0:0:
309,380,6746,6,0,L|407:363,1,99.9999999999999,2|8,1:2|0:0,0:0:0:0:
456,353,7272,1,2,1:2:0:0:
511,269,7623,1,2,1:1:0:0:
443,195,7974,2,0,L|345:178,1,99.9999999999999,2|2,1:2|1:2,0:0:0:0:
323,132,8500,2,0,L|274:141,1,50,2|2,1:2|1:2,0:0:0:0:
225,153,8851,1,12,1:2:0:0:
182,243,9202,1,12,1:2:0:0:
84,221,9553,6,0,P|61:178|68:129,1,99.9999999999999,6|8,1:2|0:0,0:0:0:0:
88,82,10079,1,2,1:2:0:0:
163,16,10430,2,0,L|212:25,1,50,2|8,1:2|0:0,0:0:0:0:
260,39,10781,2,0,P|267:87|244:131,1,99.9999999999999,2|2,1:2|0:0,0:0:0:0:
206,163,11307,1,8,0:0:0:0:
206,163,11482,1,2,1:2:0:0:
182,260,11833,2,0,L|133:251,2,50,2|8|0,1:2|0:0|1:2,0:0:0:0:
205,307,12360,5,2,1:2:0:0:
205,307,12535,2,0,L|303:290,1,99.9999999999999,2|2,0:0|1:2,0:0:0:0:
407,281,13237,1,2,1:2:0:0:
407,281,13412,2,0,L|416:232,1,50,8|0,0:0|1:2,0:0:0:0:
464,211,13763,1,2,1:2:0:0:
464,211,13938,2,0,L|447:113,1,99.9999999999999,2|10,1:2|1:3,0:0:0:0:
371,45,14640,2,0,L|322:36,1,50,14|0,0:0|1:2,0:0:0:0:
276,30,14991,1,8,0:0:0:0:
276,30,15167,6,0,P|253:73|260:122,1,99.9999999999999,6|8,1:2|0:0,0:0:0:0:
285,165,15693,1,2,1:2:0:0:
379,197,16044,2,0,L|388:246,1,50,2|8,1:2|0:0,0:0:0:0:
395,295,16395,2,0,P|351:318|302:310,1,99.9999999999999,2|2,1:2|0:0,0:0:0:0:
260,295,16921,1,8,0:0:0:0:
260,295,17096,1,2,1:2:0:0:
167,334,17447,2,0,L|176:383,2,50,2|8|0,1:2|0:0|1:2,0:0:0:0:
127,313,17974,5,2,1:2:0:0:
127,313,18149,2,0,L|144:215,1,99.9999999999999,2|2,0:0|1:2,0:0:0:0:
70,146,18851,1,2,1:2:0:0:
123,61,19202,2,0,L|221:44,1,99.9999999999999,2|2,1:2|1:2,0:0:0:0:
275,41,19727,1,2,1:2:0:0:
275,41,19903,1,10,1:2:0:0:
342,115,20254,2,0,L|440:132,1,99.9999999999999,14|0,0:0|0:0,0:0:0:0:
489,143,20781,6,0,P|496:191|473:235,1,99.9999999999999,6|10,1:2|0:0,0:0:0:0:
403,306,21482,1,2,0:0:0:0:
306,279,21833,2,0,L|257:288,2,50,10|2|2,0:0|1:2|0:0,0:0:0:0:
272,185,22535,1,10,0:0:0:0:
342,115,22886,2,0,P|365:72|358:23,1,99.9999999999999,2|10,0:0|0:2,0:0:0:0:
262,54,23588,6,0,L|164:37,1,99.9999999999999,4|2,1:2|1:2,0:0:0:0:
65,15,24289,1,2,3:2:0:0:
4,94,24640,2,0,L|21:192,1,99.9999999999999,10|2,0:2|0:0,0:0:0:0:
115,225,25342,2,0,L|106:274,1,50,10|0,0:0|1:2,0:0:0:0:
97,323,25693,1,2,1:2:0:0:
185,369,26044,1,10,0:0:0:0:
248,291,26395,6,0,P|291:268|340:275,1,99.9999999999999,4|10,1:2|0:0,0:0:0:0:
432,313,27096,1,2,0:0:0:0:
494,234,27447,2,0,L|485:185,1,50,8|2,0:0|1:2,0:0:0:0:
476,135,27798,2,0,P|427:127|383:150,1,99.9999999999999,2|10,0:0|0:0,0:0:0:0:
310,82,28500,1,2,3:2:0:0:
224,134,28851,2,0,L|215:183,1,50,10|0,0:0|1:2,0:0:0:0:
170,205,29202,6,0,L|187:303,1,99.9999999999999,2|10,1:2|0:0,0:0:0:0:
261,371,29903,1,2,1:2:0:0:
350,327,30254,2,0,L|359:278,1,50,10|2,0:2|0:2,0:0:0:0:
403,255,30605,2,0,L|390:181,2,74.9999999999999,14|8|14,1:2|0:0|1:2,0:0:0:0:
448,275,31307,1,2,1:2:0:0:
487,183,31658,2,0,L|478:134,1,50,8|0,0:0|0:0,0:0:0:0:
470,84,32009,6,0,P|421:76|377:99,1,99.9999999999999,6|2,1:2|1:2,0:0:0:0:
312,24,32710,2,0,P|269:47|220:40,1,99.9999999999999,2|2,1:2|1:2,0:0:0:0:
178,21,33237,1,10,0:0:0:0:
178,21,33412,1,2,1:2:0:0:
87,63,33763,1,2,1:2:0:0:
142,146,34114,2,0,L|133:195,1,50,2|12,1:2|0:0,0:0:0:0:
122,244,34465,1,0,1:2:0:0:
198,309,34816,6,0,L|296:292,1,99.9999999999999,2|14,1:2|1:2,0:0:0:0:
318,194,35517,2,0,L|335:96,1,99.9999999999999,2|2,1:2|1:2,0:0:0:0:
407,26,36219,1,2,1:2:0:0:
498,67,36570,1,10,0:0:0:0:
487,166,36921,2,0,L|496:215,1,50,2|8,1:2|0:0,0:0:0:0:
508,263,37272,1,0,1:2:0:0:
461,351,37623,6,0,P|418:374|369:367,1,99.9999999999999,2|14,1:2|1:2,0:0:0:0:
278,323,38324,1,2,1:2:0:0:
317,231,38675,1,2,1:2:0:0:
231,178,39026,2,0,P|182:170|138:193,1,99.9999999999999,2|2,1:2|1:2,0:0:0:0:
112,238,39553,1,2,0:0:0:0:
112,238,39728,1,10,1:2:0:0:
23,190,40079,2,0,L|14:141,1,50,2|8,1:2|1:2,0:0:0:0:
52,108,40430,6,0,L|69:10,1,99.9999999999999,6|8,1:2|0:0,0:0:0:0:
161,48,41131,2,0,L|259:31,1,99.9999999999999,10|0,0:0|1:2,0:0:0:0:
309,24,41658,1,14,0:0:0:0:
407,41,42009,1,8,0:0:0:0:
434,137,42360,2,0,L|425:186,1,50,10|2,0:0|1:2,0:0:0:0:
380,209,42710,2,0,L|397:307,1,99.9999999999999,12|8,0:0|0:0,0:0:0:0:
405,357,43237,6,0,P|361:380|312:372,1,99.9999999999999,6|10,1:2|0:0,0:0:0:0:
271,356,43763,1,0,1:2:0:0:
271,356,43938,1,10,0:0:0:0:
205,279,44289,2,0,L|156:288,1,50,2|8,1:2|0:0,0:0:0:0:
106,297,44640,2,0,P|82:253|90:204,1,99.9999999999999,2|10,1:2|0:0,0:0:0:0:
186,177,45342,2,0,L|195:128,1,50,10|8,0:0|0:0,0:0:0:0:
241,110,45693,2,0,L|232:61,1,50,2|8,1:2|0:0,0:0:0:0:
219,12,46044,6,0,L|145:-1,2,74.9999999999999,10|8|12,0:0|0:0|0:0,0:0:0:0:
103,106,47096,1,14,0:0:0:0:
103,106,47272,2,0,L|120:204,1,99.9999999999999,14|12,0:0|0:0,0:0:0:0:
135,257,47798,1,12,0:0:0:0:
135,257,47974,1,12,1:2:0:0:
88,345,48324,1,14,1:2:0:0:
234,378,48851,6,0,P|277:354|326:361,1,99.9999999999999,6|10,1:2|0:0,0:0:0:0:
421,329,49553,2,0,L|430:280,1,50,2|2,1:2|1:2,0:0:0:0:
477,263,49903,2,0,L|468:214,1,50,10|2,0:0|1:2,0:0:0:0:
457,164,50254,1,2,1:2:0:0:
370,113,50605,2,0,P|326:136|277:128,1,99.9999999999999,10|2,0:0|0:0,0:0:0:0:
232,123,51131,1,0,1:2:0:0:
232,123,51307,2,0,L|223:74,1,50,8|2,0:0|1:2,0:0:0:0:
216,24,51658,6,0,L|118:7,1,99.9999999999999,6|8,1:2|0:0,0:0:0:0:
71,4,52184,1,2,1:2:0:0:
71,4,52360,1,2,0:0:0:0:
2,76,52710,2,0,L|11:125,1,50,10|0,0:0|1:2,0:0:0:0:
55,148,53061,2,0,L|38:246,1,99.9999999999999,2|8,1:2|0:0,0:0:0:0:
78,284,53588,1,2,1:2:0:0:
78,284,53763,2,0,L|87:333,1,50,10|8,0:0|0:0,0:0:0:0:
99,381,54114,1,8,0:0:0:0:
190,340,54465,6,0,P|238:347|282:324,1,99.9999999999999,6|10,1:2|0:0,0:0:0:0:
325,297,54991,1,2,1:2:0:0:
325,297,55167,1,2,0:0:0:0:
375,211,55517,1,10,0:0:0:0:
283,169,55868,2,0,P|259:125|267:76,1,99.9999999999999,2|10,1:2|0:0,0:0:0:0:
296,37,56395,1,2,1:2:0:0:
296,37,56570,2,0,L|345:28,1,50,2|0,0:0|1:2,0:0:0:0:
394,20,56921,1,8,0:0:0:0:
476,76,57272,6,0,L|459:174,1,99.9999999999999,6|10,1:2|0:0,0:0:0:0:
438,272,57974,2,0,L|389:281,1,50,2|0,0:0|1:2,0:0:0:0:
367,325,58324,2,0,L|318:316,1,50,10|0,0:0|0:0,0:0:0:0:
268,307,58675,2,0,L|255:233,2,74.9999999999999,6|8|8,1:2|0:0|0:0,0:0:0:0:
199,379,59553,1,14,0:0:0:0:
129,315,59903,1,10,0:0:0:0:
129,315,60079,6,0,P|85:291|36:299,1,99.9999999999999,6|10,1:2|0:0,0:0:0:0:
0,205,60781,2,0,L|9:156,1,50,2|2,0:0|1:2,0:0:0:0:
56,139,61131,2,0,L|47:90,1,50,10|2,0:0|1:2,0:0:0:0:
36,40,61482,1,2,1:2:0:0:
129,3,61833,2,0,P|177:-4|221:18,1,99.9999999999999,10|2,0:0|0:0,0:0:0:0:
256,62,62359,1,0,1:2:0:0:
256,62,62535,2,0,L|247:111,1,50,8|2,0:0|1:2,0:0:0:0:
203,135,62886,6,0,L|220:233,1,99.9999999999999,6|8,1:2|0:0,0:0:0:0:
236,286,63412,1,2,1:2:0:0:
236,286,63588,1,2,0:0:0:0:
326,328,63938,2,0,L|375:319,1,50,10|0,0:0|1:2,0:0:0:0:
424,312,64289,2,0,L|441:214,1,99.9999999999999,2|8,1:2|0:0,0:0:0:0:
490,194,64816,1,2,1:2:0:0:
490,194,64991,2,0,L|481:145,1,50,2|8,1:2|0:0,0:0:0:0:
471,95,65342,1,8,0:0:0:0:
387,39,65693,6,0,P|338:31|294:54,1,99.9999999999999,6|10,1:2|0:0,0:0:0:0:
268,99,66219,1,2,1:2:0:0:
268,99,66395,1,2,0:0:0:0:
178,55,66746,1,10,0:0:0:0:
110,128,67096,2,0,P|87:171|94:220,1,99.9999999999999,2|10,1:2|0:0,0:0:0:0:
118,270,67623,1,2,1:2:0:0:
118,270,67798,2,0,L|167:279,1,50,2|0,0:0|1:2,0:0:0:0:
216,287,68149,1,8,0:0:0:0:
262,375,68500,6,0,L|360:358,1,99.9999999999999,2|10,1:2|0:0,0:0:0:0:
459,339,69202,2,0,L|468:290,1,50,2|0,0:0|1:2,0:0:0:0:
511,266,69552,2,0,L|502:217,1,50,10|2,0:0|1:2,0:0:0:0:
493,167,69903,2,0,L|419:154,2,74.9999999999999,14|8|10,1:2|0:0|0:0,0:0:0:0:
476,68,70781,2,0,L|378:51,1,99.9999999999999,8|0,0:0|0:0,0:0:0:0:
328,40,71307,5,14,1:2:0:0:
231,67,71658,1,2,1:2:0:0:
213,165,72009,1,2,1:2:0:0:
289,230,72360,1,10,0:0:0:0:
382,194,72710,2,0,P|430:186|474:209,1,99.9999999999999,14|0,1:2|0:0,0:0:0:0:
474,210,74114,6,0,L|457:308,1,99.9999999999999,6|8,1:2|0:0,0:0:0:0:
447,357,74640,1,2,1:2:0:0:
355,315,74991,2,0,L|306:324,1,50,2|8,1:2|0:0,0:0:0:0:
284,369,75342,2,0,L|186:352,1,99.9999999999999,2|2,1:2|0:0,0:0:0:0:
140,345,75868,1,8,0:0:0:0:
140,345,76043,1,2,1:2:0:0:
79,265,76395,2,0,L|30:274,2,50,2|8|0,1:2|0:0|1:2,0:0:0:0:
112,228,76921,5,6,1:2:0:0:
112,228,77096,2,0,P|119:179|96:135,1,99.9999999999999,2|2,0:0|1:2,0:0:0:0:
177,76,77798,1,2,1:2:0:0:
177,76,77974,2,0,L|226:85,1,50,8|0,0:0|1:2,0:0:0:0:
279,98,78324,1,2,1:2:0:0:
279,98,78500,2,0,P|302:54|294:5,1,99.9999999999999,2|2,1:2|1:2,0:0:0:0:
393,25,79202,2,0,L|442:16,1,50,14|0,1:2|1:2,0:0:0:0:
495,12,79552,1,8,0:0:0:0:
495,12,79728,6,0,L|478:110,1,99.9999999999999,6|8,1:2|0:0,0:0:0:0:
467,159,80254,1,2,1:2:0:0:
368,178,80605,2,0,L|319:187,1,50,2|8,1:2|0:0,0:0:0:0:
284,150,80956,2,0,L|186:133,1,99.9999999999999,2|2,1:2|0:0,0:0:0:0:
140,127,81482,1,8,0:0:0:0:
140,127,81657,1,2,1:2:0:0:
61,187,82009,1,2,1:2:0:0:
61,187,82184,2,0,L|70:236,1,50,10|0,0:2|1:2,0:0:0:0:
86,288,82535,5,6,1:2:0:0:
86,288,82710,2,0,P|129:310|178:303,1,99.9999999999999,2|2,0:0|1:2,0:0:0:0:
230,289,83237,1,8,0:2:0:0:
230,289,83412,1,2,1:2:0:0:
264,195,83763,2,0,P|307:171|356:178,1,99.9999999999999,2|10,1:2|0:0,0:0:0:0:
408,198,84289,1,10,0:0:0:0:
408,198,84465,2,0,L|417:247,1,50,10|8,0:0|0:0,0:0:0:0:
461,271,84816,2,0,L|452:320,1,50,10|4,1:2|1:3,0:0:0:0:
440,368,85167,1,14,1:2:0:0:
