osu file format v14

[General]
AudioFilename: audio.mp3
AudioLeadIn: 0
PreviewTime: 48143
Countdown: 0
SampleSet: Soft
StackLeniency: 0.3
Mode: 0
LetterboxInBreaks: 0
WidescreenStoryboard: 1

[Editor]
Bookmarks: 9634,20862,32090,74195,85423,96651,113493,130335,137265,137441,137616,137791,137879,138055,138142,138318,138493,138669,138756,138932,139107,139283,139458,139546,139721,139897,140072,140248,140423,140511,140686,140862,141037,141212,141300,141476,141651,168230
DistanceSpacing: 1
BeatDivisor: 4
GridSize: 8
TimelineZoom: 1.6

[Metadata]
Title:Zankyo Sanka
TitleUnicode:残響散歌
Artist:Aimer
ArtistUnicode:Aimer
Creator:Flask
Version:alevi's Insane
Source:「鬼滅の刃」遊郭編
Tags:anime japanese jpop jrock j-pop j-rock pop rock opening op full version Kimetsu no Yaiba Yuukaku hen Yuukaku-hen season 2 two Demon Slayer: Entertainment District Arc alevi エメ 鬼滅の刃遊郭編 uzui tengen 宇髄天元
BeatmapID:3450706
BeatmapSetID:1684121

[Difficulty]
HPDrainRate:5
CircleSize:3.8
OverallDifficulty:7.8
ApproachRate:8.8
SliderMultiplier:1.7
SliderTickRate:1

[Events]
//Background and Video events
0,0,"uhdpaper.com-9051e-pc-hd.jpg",0,0
//Break Periods
//Storyboard Layer 0 (Background)
//Storyboard Layer 1 (Fail)
//Storyboard Layer 2 (Pass)
//Storyboard Layer 3 (Foreground)
//Storyboard Layer 4 (Overlay)
//Storyboard Sound Samples

[TimingPoints]
162,350.877192982456,4,2,1,45,1,0
863,350.877192982456,3,2,1,60,1,0
863,-125,3,2,1,60,0,0
1389,-166.666666666667,3,2,1,60,0,0
1915,-250,3,2,1,60,0,0
2441,-500,3,2,1,60,0,0
2968,-166.666666666667,3,2,1,60,0,0
4020,350.877192982456,4,2,1,60,1,0
4020,-111.111111111111,4,2,1,60,0,0
4370,-111.111111111111,4,2,1,45,0,0
6827,-111.111111111111,4,2,1,50,0,0
8932,-111.111111111111,4,2,1,60,0,0
9458,-111.111111111111,4,2,1,60,0,0
9634,-99.9999999999999,4,2,1,75,0,0
14721,-99.9999999999999,4,2,1,75,0,0
15248,-99.9999999999999,4,2,1,75,0,0
19458,-99.9999999999999,4,2,1,75,0,0
20335,-125,4,2,1,75,0,0
20686,-125,4,2,1,5,0,0
20774,-125,4,2,1,75,0,0
20862,-111.111111111111,4,2,1,75,0,0
21212,-111.111111111111,4,2,1,60,0,0
30686,-111.111111111111,4,2,1,60,0,0
31739,-111.111111111111,4,2,1,60,0,0
32090,-111.111111111111,4,2,1,50,0,0
35248,-111.111111111111,4,2,1,50,0,0
35774,-111.111111111111,4,2,1,50,0,0
39283,-111.111111111111,4,2,1,50,0,0
40511,-111.111111111111,4,2,1,50,0,0
41739,-111.111111111111,4,2,1,60,0,0
42791,-111.111111111111,4,2,1,60,0,0
43318,-111.111111111111,4,2,1,60,0,0
44721,-111.111111111111,4,2,1,60,0,0
45072,-111.111111111111,4,2,1,60,0,0
45598,-111.111111111111,4,2,1,60,0,0
46125,-99.9999999999999,4,2,1,70,0,0
47353,-99.9999999999999,4,2,1,70,0,0
47704,-99.9999999999999,4,2,1,70,0,0
47879,-99.9999999999999,4,2,1,70,0,0
48055,-99.9999999999999,4,2,1,70,0,0
48405,-99.9999999999999,4,2,1,70,0,0
48932,-90.9090909090909,4,2,1,80,0,1
50686,-90.9090909090909,4,2,1,80,0,1
51037,-90.9090909090909,4,2,1,80,0,1
51739,-90.9090909090909,4,2,1,80,0,1
52265,-90.9090909090909,4,2,1,80,0,1
52791,-90.9090909090909,4,2,1,80,0,1
53493,-90.9090909090909,4,2,1,80,0,1
53844,-90.9090909090909,4,2,1,80,0,1
54546,-90.9090909090909,4,2,1,80,0,1
55423,-90.9090909090909,4,2,1,80,0,1
55774,-90.9090909090909,4,2,1,80,0,1
56827,-90.9090909090909,4,2,1,80,0,1
57353,-90.9090909090909,4,2,1,80,0,1
57704,-90.9090909090909,4,2,1,80,0,1
58756,-83.3333333333333,4,2,1,80,0,1
59634,-90.9090909090909,4,2,1,80,0,1
60160,-90.9090909090909,4,2,1,80,0,1
60511,-90.9090909090909,4,2,1,80,0,1
61212,-90.9090909090909,4,2,1,80,0,1
62265,-90.9090909090909,4,2,1,80,0,1
62967,-90.9090909090909,4,2,1,80,0,1
64370,-90.9090909090909,4,2,1,80,0,1
65248,-90.9090909090909,4,2,1,80,0,1
65774,-90.9090909090909,4,2,1,80,0,1
67177,-90.9090909090909,4,2,1,80,0,1
67528,-90.9090909090909,4,2,1,80,0,1
69984,-83.3333333333333,4,2,1,80,0,1
71563,-90.9090909090909,4,2,1,80,0,1
72090,-90.9090909090909,4,2,1,80,0,1
72791,-90.9090909090909,4,2,1,80,0,0
73493,-90.9090909090909,4,2,1,40,0,0
74195,-100,4,2,1,75,0,0
79283,-100,4,2,1,75,0,0
79809,-100,4,2,1,75,0,0
84019,-100,4,2,1,75,0,0
84897,-100,4,2,1,75,0,0
85423,-111.111111111111,4,2,1,75,0,0
85774,-111.111111111111,4,2,1,60,0,0
90160,-111.111111111111,4,2,1,60,0,0
90511,-111.111111111111,4,2,1,60,0,0
95248,-90.9090909090908,4,2,1,60,0,0
96300,-99.9999999999999,4,2,1,60,0,0
96651,-111.111111111111,4,2,1,50,0,0
99809,-111.111111111111,4,2,1,50,0,0
100862,-111.111111111111,4,2,1,50,0,0
103844,-111.111111111111,4,2,1,50,0,0
105072,-111.111111111111,4,2,1,50,0,0
106300,-111.111111111111,4,2,1,60,0,0
107353,-111.111111111111,4,2,1,60,0,0
107879,-111.111111111111,4,2,1,60,0,0
108756,-111.111111111111,4,2,1,60,0,0
109634,-111.111111111111,4,2,1,60,0,0
110686,-100,4,2,1,70,0,0
111914,-99.9999999999999,4,2,1,70,0,0
112265,-99.9999999999999,4,2,1,70,0,0
112441,-99.9999999999999,4,2,1,70,0,0
112616,-99.9999999999999,4,2,1,70,0,0
112967,-99.9999999999999,4,2,1,70,0,0
113493,-90.9090909090908,4,2,1,70,0,0
117791,-90.9090909090908,4,2,1,70,0,0
118932,-90.9090909090908,4,2,1,70,0,0
122441,-90.9090909090908,4,2,1,70,0,0
123405,-90.9090909090908,4,2,1,70,0,0
123669,-90.9090909090908,4,2,1,70,0,0
124195,-90.9090909090908,4,2,1,70,0,0
124721,-100,4,2,1,70,0,0
128932,-100,4,2,1,70,0,0
129458,-100,4,2,1,70,0,0
129634,-100,4,2,1,70,0,0
130335,-100,4,2,1,70,0,0
132090,-100,4,2,1,70,0,0
133142,-90.9090909090909,4,2,1,70,0,0
134546,-90.9090909090909,4,2,1,75,0,0
135949,-83.3333333333333,4,2,1,80,0,0
137177,-100,4,2,1,70,0,0
137265,-100,4,2,1,20,0,0
141914,-111.111111111111,4,2,1,5,0,0
142265,-111.111111111111,4,2,1,40,0,0
142967,-90.9090909090909,4,2,1,80,0,1
144721,-90.9090909090909,4,2,1,80,0,1
145072,-90.9090909090909,4,2,1,80,0,1
145774,-90.9090909090909,4,2,1,80,0,1
146300,-90.9090909090909,4,2,1,80,0,1
146826,-90.9090909090909,4,2,1,80,0,1
147528,-90.9090909090909,4,2,1,80,0,1
147879,-90.9090909090909,4,2,1,80,0,1
148581,-90.9090909090909,4,2,1,80,0,1
149458,-90.9090909090909,4,2,1,80,0,1
149809,-90.9090909090909,4,2,1,80,0,1
150862,-90.9090909090909,4,2,1,80,0,1
151388,-90.9090909090909,4,2,1,80,0,1
151739,-90.9090909090909,4,2,1,80,0,1
152791,-90.9090909090909,4,2,1,80,0,1
153318,-83.3333333333333,4,2,1,80,0,1
153669,-90.9090909090909,4,2,1,80,0,1
154195,-90.9090909090909,4,2,1,80,0,1
154546,-90.9090909090909,4,2,1,80,0,1
155247,-90.9090909090909,4,2,1,80,0,1
156300,-90.9090909090909,4,2,1,80,0,1
157002,-90.9090909090909,4,2,1,80,0,1
158405,-90.9090909090909,4,2,1,80,0,1
159283,-90.9090909090909,4,2,1,80,0,1
159809,-90.9090909090909,4,2,1,80,0,1
161212,-90.9090909090909,4,2,1,80,0,1
161563,-90.9090909090909,4,2,1,80,0,1
164019,-90.9090909090909,4,2,1,80,0,1
165598,-90.9090909090909,4,2,1,80,0,1
166125,-90.9090909090909,4,2,1,80,0,1
166827,-90.9090909090909,4,2,1,80,0,0
167528,-90.9090909090909,4,2,1,45,0,0
168230,-100,4,2,1,75,0,0
173318,-100,4,2,1,75,0,0
173844,-90.9090909090909,4,2,1,80,0,0
179019,-90.9090909090909,4,2,1,80,0,0
179283,-90.9090909090909,4,2,1,90,0,0

[Colours]
Combo1 : 117,255,117
Combo2 : 255,255,0
Combo3 : 255,141,87
Combo4 : 47,187,255
Combo5 : 186,117,255

[HitObjects]
405,29,162,5,8,0:0:0:0:
416,38,512,1,8,0:0:0:0:
309,153,863,6,0,P|297:107|282:39,1,102,4|0,0:0|1:0,0:0:0:0:
285,53,1213,1,8,0:0:0:0:
166,201,1389,2,0,P|174:168|185:119,1,76.4999976654053,2|0,1:2|1:0,0:0:0:0:
183,126,1740,1,8,0:0:0:0:
270,277,1915,6,0,P|264:254|257:221,1,51,2|0,1:2|1:0,0:0:0:0:
258,227,2266,1,8,0:0:0:0:
134,331,2441,5,2,1:2:0:0:
296,384,2705,5,0,1:0:0:0:
179,253,2968,6,0,B|58:282|138:356|29:387,1,203.999993774414,4|0,1:2|0:0,0:0:0:0:
139,137,4020,6,0,P|215:160|289:195,1,152.999995330811,12|4,0:0|3:0,0:0:0:0:
386,298,4546,2,0,P|420:282|457:271,1,76.4999976654053,2|0,0:0|0:0,0:0:0:0:
477,246,4809,1,0,3:0:0:0:
477,246,4897,2,0,P|471:204|464:170,1,76.4999976654053,2|0,3:2|0:0,0:0:0:0:
439,37,5248,6,0,P|442:55|444:74,2,38.2499988327027,2|0|4,0:0|0:0|3:0,0:0:0:0:
352,136,5598,2,0,P|312:116|273:101,1,76.4999976654053,2|0,0:0|0:0,0:0:0:0:
269,83,5862,1,8,3:0:0:0:
269,83,5949,2,0,P|229:103|190:118,1,76.4999976654053,2|0,3:2|0:0,0:0:0:0:
344,212,6300,2,0,P|346:167|353:126,1,76.4999976654053,2|0,0:0|1:0,0:0:0:0:
219,206,6651,2,0,P|237:218|253:231,1,38.2499988327027,2|0,0:0|0:0,0:0:0:0:
390,301,6827,6,0,P|426:272|464:247,1,76.4999976654053,2|0,0:0|0:0,0:0:0:0:
485,263,7090,1,8,3:0:0:0:
485,263,7177,1,8,3:0:0:0:
327,360,7353,2,0,P|284:342|243:321,1,76.4999976654053,2|0,0:0|0:0,0:0:0:0:
246,297,7616,1,8,3:0:0:0:
246,297,7704,2,0,P|203:314|162:335,1,76.4999976654053,2|4,3:2|3:0,0:0:0:0:
74,384,8055,5,2,0:0:0:0:
74,384,8405,1,2,0:0:0:0:
43,311,8581,1,0,3:0:0:0:
100,227,8756,1,2,3:2:0:0:
2,97,8932,5,8,3:0:0:0:
20,171,9107,1,0,3:0:0:0:
158,39,9283,5,8,3:0:0:0:
140,112,9458,1,2,3:0:0:0:
307,225,9634,6,0,P|381:190|356:109,1,170,6|8,0:2|0:0,0:0:0:0:
285,33,10160,2,0,B|177:51|241:93|130:113,1,170,2|2,0:0|1:0,0:0:0:0:
0,45,10686,1,8,0:0:0:0:
46,195,10862,6,0,B|85:175|134:216|134:216|123:254|158:280,1,170,2|0,1:0|1:0,0:0:0:0:
321,201,11388,1,8,0:0:0:0:
263,334,11563,2,0,P|255:291|244:248,1,85,2|0,0:0|0:0,0:0:0:0:
203,184,11914,1,2,1:2:0:0:
370,292,12090,2,0,P|417:276|462:263,1,85,8|0,0:0|1:0,0:0:0:0:
475,245,12353,1,0,1:0:0:0:
475,245,12441,6,0,P|465:194|455:154,1,85,2|0,1:0|1:0,0:0:0:0:
341,101,12791,1,8,0:0:0:0:
286,157,12967,2,0,B|224:144|224:144|181:163|181:163|122:150,1,170,2|0,1:2|1:0,0:0:0:0:
0,66,13493,2,0,P|40:53|81:41,1,85,8|0,0:0|1:0,0:0:0:0:
56,234,13844,6,0,P|43:188|33:151,1,85,2|0,1:0|1:0,0:0:0:0:
116,292,14195,1,8,0:0:0:0:
188,263,14370,2,0,P|236:247|272:237,1,85,2|8,0:0|3:0,0:0:0:0:
296,259,14634,1,8,3:0:0:0:
296,259,14721,2,0,P|308:301|318:347,1,85,4|0,1:2|0:0,0:0:0:0:
421,200,15072,2,0,P|415:221|410:244,1,42.5,0|0,1:0|0:0,0:0:0:0:
320,146,15248,6,0,B|260:135|260:135|217:157|217:157|157:146,1,170,4|8,0:0|0:0,0:0:0:0:
20,75,15774,2,0,P|35:139|56:251,1,170,2|2,0:0|1:0,0:0:0:0:
227,310,16300,1,8,0:0:0:0:
84,336,16476,6,0,B|175:301|111:257|218:221,1,170,2|2,1:0|1:2,0:0:0:0:
363,299,17002,1,8,0:0:0:0:
302,174,17177,2,0,P|293:218|285:265,1,85,2|0,1:2|0:0,0:0:0:0:
227,310,17528,1,2,1:2:0:0:
378,382,17704,2,0,P|370:340|362:298,1,85,8|0,0:0|1:0,0:0:0:0:
384,283,17967,1,0,1:0:0:0:
384,283,18055,6,0,P|424:269|465:257,1,85,2|2,1:0|1:2,0:0:0:0:
350,101,18405,1,8,0:0:0:0:
292,156,18581,2,0,B|185:136|230:208|121:187,1,170,2|2,1:2|1:2,0:0:0:0:
18,60,19107,1,8,0:0:0:0:
84,99,19283,1,0,1:0:0:0:
41,227,19458,6,0,P|29:171|19:135,1,85,12|0,0:0|0:0,0:0:0:0:
84,99,19721,2,0,P|96:43|106:7,1,85,4|0,3:0|0:0,0:0:0:0:
179,0,19984,1,8,0:0:0:0:
319,161,20335,2,2,P|378:141|362:45,1,170,2|0,1:0|0:0,1:0:0:0:
337,36,20862,6,0,P|303:45|261:59,1,76.4999976654053,4|0,1:2|0:0,0:0:0:0:
187,182,21212,2,0,B|234:195|234:195|265:239|265:239|314:253,1,152.999995330811,8|2,0:0|0:0,0:0:0:0:
397,206,21739,1,0,1:0:0:0:
397,206,21914,2,0,P|437:192|479:181,1,76.4999976654053,8|0,0:0|0:0,0:0:0:0:
401,317,22265,2,0,P|346:333|291:351,1,114.749996498108,2|4,0:0|3:0,0:0:0:0:
271,377,22616,2,0,P|232:361|195:347,1,76.4999976654053,8|2,0:0|1:2,0:0:0:0:
210,262,22967,2,0,P|221:218|232:181,1,76.4999976654053,0|0,0:0|1:0,0:0:0:0:
125,315,23318,2,0,P|114:271|103:234,1,76.4999976654053,8|0,0:0|1:0,0:0:0:0:
41,133,23669,6,0,P|52:89|63:52,1,76.4999976654053,2|0,1:2|0:0,0:0:0:0:
88,46,23932,1,0,1:0:0:0:
88,46,24019,2,0,P|130:56|169:67,1,76.4999976654053,8|0,0:0|0:0,0:0:0:0:
258,134,24370,2,0,P|294:123|332:115,1,76.4999976654053,0|2,1:0|1:2,0:0:0:0:
162,155,24721,2,0,P|153:195|145:243,1,76.4999976654053,8|0,0:0|1:2,0:0:0:0:
295,300,25072,2,0,P|288:262|279:225,1,76.4999976654053,2|0,0:0|0:0,0:0:0:0:
190,337,25423,1,8,0:0:0:0:
125,297,25598,2,0,B|72:315|72:315|46:355|46:355|-10:375,1,152.999995330811,2|0,1:2|1:0,0:0:0:0:
44,194,26125,2,0,P|85:205|126:218,1,76.4999976654053,8|2,0:0|1:2,0:0:0:0:
298,119,26476,5,4,0:0:0:0:
261,188,26651,1,2,0:0:0:0:
363,282,26827,2,0,P|353:239|342:201,1,76.4999976654053,8|0,0:0|1:0,0:0:0:0:
458,131,27177,2,0,P|447:167|439:205,1,76.4999976654053,2|0,0:0|1:0,0:0:0:0:
409,348,27528,1,8,0:0:0:0:
363,282,27704,1,0,1:0:0:0:
244,358,27879,2,0,B|152:333|183:404|81:369,2,152.999995330811,2|8|0,1:2|0:0|0:0,0:0:0:0:
284,290,28756,1,0,1:0:0:0:
147,197,28932,2,0,P|155:237|165:286,1,76.4999976654053,10|2,0:0|0:0,0:0:0:0:
274,102,29283,6,0,P|266:142|256:191,1,76.4999976654053,2|0,1:2|0:0,0:0:0:0:
173,100,29634,2,0,P|136:89|92:80,1,76.4999976654053,10|0,0:0|1:0,0:0:0:0:
79,61,29897,1,0,1:0:0:0:
79,61,29984,2,0,P|42:72|-2:81,1,76.4999976654053,0|2,1:0|0:0,0:0:0:0:
89,175,30335,1,8,0:0:0:0:
0,247,30511,2,0,P|4:226|8:209,1,38.2499988327027,8|8,0:0|0:0,0:0:0:0:
133,305,30686,6,0,P|171:296|199:268,1,76.4999976654053,12|0,0:0|0:0,0:0:0:0:
254,323,30949,2,0,P|274:289|274:250,1,76.4999976654053,4|0,3:0|0:0,0:0:0:0:
353,249,31212,2,0,P|344:211|316:183,1,76.4999976654053,12|0,0:2|0:0,0:0:0:0:
297,174,31476,1,8,0:0:0:0:
297,174,31563,1,12,0:0:0:0:
435,87,31739,2,0,P|429:126|425:164,1,76.4999976654053,12|0,0:0|0:0,0:0:0:0:
337,65,32090,6,0,P|297:52|256:41,1,76.4999976654053,4|0,1:0|0:0,0:0:0:0:
145,149,32441,2,0,P|185:136|226:125,1,76.4999976654053,0|0,1:0|0:0,0:0:0:0:
79,77,32791,2,0,B|71:101|48:125|48:125|77:227,1,152.999995330811,0|8,1:0|0:0,0:0:0:0:
111,358,33318,1,2,1:2:0:0:
174,308,33493,2,0,P|216:295|257:284,1,76.4999976654053,0|0,1:0|0:0,0:0:0:0:
348,224,33844,2,0,P|390:237|431:248,1,76.4999976654053,0|0,1:0|0:0,0:0:0:0:
491,282,34195,1,0,1:0:0:0:
342,384,34370,2,0,P|351:337|358:305,1,76.4999976654053,8|4,0:0|3:0,0:0:0:0:
281,156,34721,1,8,0:0:0:0:
374,97,34897,6,0,P|422:110|463:122,1,76.4999976654053,2|0,1:2|0:0,0:0:0:0:
341,0,35248,2,0,P|278:23|192:52,1,152.999995330811,4|0,1:2|0:0,0:0:0:0:
90,153,35774,1,0,0:0:0:0:
90,153,35862,1,4,3:0:0:0:
90,153,35949,2,0,P|98:192|107:238,1,76.4999976654053,8|2,0:0|0:0,0:0:0:0:
71,360,36300,2,0,P|30:339|-9:325,1,76.4999976654053,0|0,1:0|0:0,0:0:0:0:
141,311,36651,2,0,P|179:285|211:259,1,76.4999976654053,8|0,0:0|0:0,0:0:0:0:
238,273,36914,1,4,3:0:0:0:
238,273,37002,1,0,1:0:0:0:
375,335,37177,1,8,0:0:0:0:
333,194,37353,2,0,P|324:234|316:281,1,76.4999976654053,8|4,0:0|3:0,0:0:0:0:
274,138,37704,5,0,1:0:0:0:
142,210,37879,1,0,1:2:0:0:
176,49,38055,2,0,P|185:89|193:136,1,76.4999976654053,12|0,0:0|0:0,0:0:0:0:
39,232,38405,2,0,P|45:194|54:157,1,76.4999976654053,8|0,0:0|1:0,0:0:0:0:
79,142,38669,1,4,3:0:0:0:
79,142,38756,2,0,P|120:134|158:122,1,76.4999976654053,4|4,3:0|3:0,0:0:0:0:
244,186,39107,1,2,1:2:0:0:
152,298,39283,1,8,0:0:0:0:
282,368,39458,2,0,P|272:320|265:287,1,76.4999976654053,8|2,0:0|0:1,0:0:0:0:
390,172,39809,2,0,P|379:220|369:268,1,76.4999976654053,8|0,0:0|0:0,0:0:0:0:
371,278,40072,1,4,3:0:0:0:
371,278,40160,1,0,1:0:0:0:
437,351,40335,1,0,3:0:0:0:
279,224,40511,6,0,B|187:237|242:279|148:298,1,152.999995330811,2|8,1:2|0:0,0:0:0:0:
92,244,41037,1,0,0:0:0:0:
173,88,41212,2,0,P|182:128|190:172,1,76.4999976654053,10|0,0:0|0:0,0:0:0:0:
108,163,41563,1,0,1:0:0:0:
224,299,41739,2,0,P|296:274|372:253,1,152.999995330811,12|10,0:2|0:0,0:0:0:0:
439,292,42265,1,2,1:0:0:0:
324,96,42441,2,0,P|334:134|342:175,1,76.4999976654053,8|0,0:0|0:0,0:0:0:0:
465,36,42791,2,0,P|455:74|447:115,1,76.4999976654053,12|0,0:0|0:0,0:0:0:0:
303,15,43142,1,8,0:0:0:0:
303,15,43230,1,8,0:0:0:0:
303,15,43318,6,0,P|245:31|177:53,1,114.749996498108,4|0,0:0|0:0,0:0:0:0:
179,78,43669,2,0,B|162:113|162:113|179:152,1,76.4999976654053,8|0,0:0|1:0,0:0:0:0:
280,204,44019,1,4,3:0:0:0:
280,204,44107,1,4,3:0:0:0:
280,204,44195,2,0,P|272:246|267:282,1,76.4999976654053,8|8,3:0|1:2,0:0:0:0:
185,384,44546,2,0,P|181:364|176:344,1,38.2499988327027,0|0,1:0|1:0,0:0:0:0:
159,269,44721,5,2,1:2:0:0:
299,355,44897,1,8,0:0:0:0:
299,355,44984,1,4,3:0:0:0:
299,355,45072,2,0,P|339:340|372:328,1,76.4999976654053,12|0,0:0|0:0,0:0:0:0:
473,232,45423,1,8,3:0:0:0:
473,232,45510,1,8,3:0:0:0:
473,232,45598,2,0,P|433:217|400:205,1,76.4999976654053,4|0,3:0|1:0,0:0:0:0:
277,158,45949,1,0,1:0:0:0:
159,269,46125,6,0,P|119:244|109:206,1,85,12|0,0:0|0:0,0:0:0:0:
33,219,46388,2,0,P|34:171|62:144,1,85,0|0,1:0|0:0,0:0:0:0:
11,87,46651,2,0,P|52:64|90:75,1,85,12|0,0:0|0:0,0:0:0:0:
115,92,46914,1,0,1:0:0:0:
275,267,47177,1,8,0:0:0:0:
112,354,47353,6,0,P|129:269|147:186,1,170,12|12,0:0|0:0,0:0:0:0:
220,88,47879,1,12,0:0:0:0:
54,177,48055,1,12,0:0:0:0:
115,92,48230,1,0,1:0:0:0:
231,227,48405,2,0,B|290:213|290:213|339:229|339:229|396:216,1,170,12|0,0:2|0:0,0:0:0:0:
366,49,48932,6,0,P|357:92|347:152,1,93.5000028533936,4|0,1:2|0:0,0:0:0:0:
248,318,49283,2,0,P|240:271|230:226,1,93.5000028533936,10|0,0:1|0:0,0:0:0:0:
193,69,49634,1,2,1:2:0:0:
279,154,49809,1,2,0:0:0:0:
91,236,49984,2,0,P|98:189|108:144,1,93.5000028533936,8|0,0:0|1:0,0:0:0:0:
147,331,50335,6,0,P|102:345|61:366,1,93.5000028533936,2|2,1:2|1:0,0:0:0:0:
230,226,50686,2,0,P|274:240|315:261,1,93.5000028533936,10|0,0:1|0:0,0:0:0:0:
454,371,51037,2,0,P|521:308|475:227,1,187.000005706787,2|8,1:0|0:0,0:0:0:0:
352,133,51563,1,0,1:0:0:0:
352,133,51651,1,0,1:0:0:0:
352,133,51739,6,0,B|307:110|251:156|251:156|264:200|224:229,1,187.000005706787,4|8,0:0|0:0,0:0:0:0:
143,172,52265,1,0,1:0:0:0:
17,258,52441,2,0,P|25:304|35:353,1,93.5000028533936,6|0,0:2|0:0,0:0:0:0:
143,172,52791,2,0,P|151:125|158:76,1,93.5000028533936,8|0,0:0|0:0,0:0:0:0:
0,144,53142,5,0,1:0:0:0:
0,144,53230,1,10,0:1:0:0:
0,144,53318,2,0,P|19:149|44:158,1,46.7500014266968,0|0,1:0|0:0,0:0:0:0:
184,265,53493,2,0,P|229:248|275:235,1,93.5000028533936,8|2,0:0|0:0,0:0:0:0:
359,124,53844,1,10,0:1:0:0:
359,124,53932,1,8,0:0:0:0:
359,124,54019,1,2,1:0:0:0:
272,235,54195,1,8,0:0:0:0:
417,326,54370,1,8,0:2:0:0:
238,151,54546,6,0,B|127:178|198:234|82:275,1,187.000005706787,4|8,1:2|0:0,0:0:0:0:
0,179,55072,1,2,0:0:0:0:
112,51,55248,2,0,P|103:96|95:151,1,93.5000028533936,0|2,1:0|1:0,0:0:0:0:
254,242,55598,2,0,P|247:195|237:149,1,93.5000028533936,8|0,0:0|1:0,0:0:0:0:
346,34,55949,6,0,B|391:11|447:57|447:57|434:101|474:130,1,187.000005706787,4|8,1:2|0:0,0:0:0:0:
396,223,56476,1,2,0:0:0:0:
489,288,56651,1,0,1:0:0:0:
335,112,56827,2,0,P|325:157|316:203,1,93.5000028533936,2|8,1:0|0:0,0:0:0:0:
182,312,57177,1,2,0:0:0:0:
182,312,57265,1,0,1:0:0:0:
182,312,57353,6,0,P|135:293|86:278,1,93.5000028533936,4|0,0:0|0:0,0:0:0:0:
233,153,57704,2,0,P|240:203|251:253,1,93.5000028533936,8|0,0:0|0:0,0:0:0:0:
67,181,58055,2,0,P|106:149|144:114,1,93.5000028533936,0|2,1:0|1:0,0:0:0:0:
284,0,58405,1,8,0:0:0:0:
194,54,58581,2,0,P|166:44|137:35,1,46.7500014266968,8|8,0:0|0:0,0:0:0:0:
26,95,58756,6,0,P|30:142|68:181,1,101.999996887207,12|0,0:0|0:0,0:0:0:0:
17,242,59019,2,0,P|59:262|112:248,1,101.999996887207,0|0,1:0|0:0,0:0:0:0:
140,324,59283,2,0,P|178:297|193:244,1,101.999996887207,12|0,0:0|0:0,0:0:0:0:
343,94,59634,1,4,0:0:0:0:
306,161,59809,1,8,0:0:0:0:
410,257,59984,1,8,0:0:0:0:
410,257,60072,1,8,0:0:0:0:
410,257,60160,6,0,P|461:241|501:230,1,93.5000028533936,4|2,1:2|1:2,0:0:0:0:
364,380,60511,2,0,P|313:364|273:353,1,93.5000028533936,10|0,0:1|0:0,0:0:0:0:
165,271,60862,1,2,1:2:0:0:
255,221,61037,1,2,0:0:0:0:
89,353,61212,2,0,P|79:307|66:262,1,93.5000028533936,8|0,0:0|1:0,0:0:0:0:
192,78,61563,6,0,P|179:122|169:168,1,93.5000028533936,2|0,1:2|1:2,0:0:0:0:
293,311,61914,2,0,P|336:293|345:247,1,93.5000028533936,10|0,0:1|0:0,0:0:0:0:
315,93,62265,2,0,B|384:104|384:104|416:148|416:148|482:159,1,187.000005706787,2|10,1:0|0:2,0:0:0:0:
475,24,62791,2,0,P|467:46|460:82,1,46.7500014266968,0|4,1:0|3:0,0:0:0:0:
314,191,62967,6,0,P|224:164|122:136,1,187.000005706787,4|8,1:2|0:0,0:0:0:0:
122,310,63493,1,0,1:0:0:0:
122,310,63669,2,0,P|113:264|100:219,1,93.5000028533936,4|0,1:2|0:0,0:0:0:0:
22,68,64019,2,0,P|9:112|1:158,1,93.5000028533936,8|0,0:0|0:0,0:0:0:0:
147,107,64370,5,4,1:2:0:0:
147,107,64458,1,0,1:0:0:0:
147,107,64546,2,0,P|174:98|203:91,1,46.7500014266968,0|0,1:0|0:0,0:0:0:0:
272,33,64721,2,0,P|321:49|375:62,1,93.5000028533936,8|2,0:0|0:0,0:0:0:0:
465,99,65072,1,0,1:0:0:0:
322,193,65248,1,2,1:0:0:0:
491,304,65423,1,10,0:1:0:0:
491,304,65511,1,8,0:0:0:0:
491,304,65598,1,8,0:0:0:0:
283,377,65774,6,0,B|216:361|216:361|163:381|163:381|100:366,1,187.000005706787,4|10,1:2|0:0,0:0:0:0:
62,234,66300,1,0,0:0:0:0:
158,138,66476,2,0,P|173:183|181:240,1,93.5000028533936,2|0,1:2|0:0,0:0:0:0:
40,325,66827,2,0,P|47:278|62:234,1,93.5000028533936,8|0,0:0|0:0,0:0:0:0:
256,159,67177,6,0,B|369:136|315:219|433:193,1,187.000005706787,2|8,1:0|0:0,0:0:0:0:
398,107,67704,1,0,0:0:0:0:
257,249,67879,2,0,P|247:296|238:348,1,93.5000028533936,2|0,1:0|1:0,0:0:0:0:
365,281,68230,1,8,0:0:0:0:
184,195,68405,1,0,1:0:0:0:
184,195,68493,1,4,3:0:0:0:
184,195,68581,6,0,P|102:164|3:134,1,187.000005706787,2|8,1:0|0:0,0:0:0:0:
15,215,69107,1,0,3:0:0:0:
159,94,69283,2,0,P|143:36|130:-2,1,93.5000028533936,2|0,1:0|0:0,0:0:0:0:
286,147,69634,2,0,P|271:191|259:236,1,93.5000028533936,8|0,0:0|0:0,0:0:0:0:
126,328,69984,6,0,P|176:315|226:307,1,101.999996887207,12|0,0:0|0:0,0:0:0:0:
260,237,70248,2,0,P|305:263|345:292,1,101.999996887207,0|0,1:0|0:0,0:0:0:0:
424,288,70511,1,8,0:0:0:0:
388,380,70686,1,0,0:0:0:0:
491,214,70862,2,0,P|503:264|512:312,1,101.999996887207,8|10,0:0|0:2,0:0:0:0:
409,140,71388,6,0,P|420:80|432:30,1,101.999996887207,4|0,1:2|1:0,0:0:0:0:
491,214,71739,1,0,1:0:0:0:
276,277,71914,2,0,P|265:217|253:167,1,93.5000028533936,8|2,0:0|1:0,0:0:0:0:
199,92,72265,1,0,1:0:0:0:
348,194,72441,1,8,0:0:0:0:
169,252,72616,1,8,0:0:0:0:
299,45,72791,5,4,1:2:0:0:
299,45,73493,2,0,B|421:78|328:122|456:162,1,187.000005706787,2|2,0:0|0:0,0:0:0:0:
171,208,74195,6,0,P|93:225|101:308,1,170,6|8,0:2|0:0,0:0:0:0:
218,384,74721,2,0,B|319:365|255:323|363:305,1,170,2|2,0:0|1:0,0:0:0:0:
487,366,75247,1,8,0:0:0:0:
437,207,75423,6,0,B|372:192|372:192|329:210|329:210|263:193,1,170,2|0,1:0|1:0,0:0:0:0:
193,113,75949,1,8,0:0:0:0:
299,47,76124,2,0,P|309:88|317:129,1,85,2|0,0:0|0:0,0:0:0:0:
274,195,76475,1,2,1:2:0:0:
418,289,76651,2,0,P|425:247|436:206,1,85,8|0,0:0|1:0,0:0:0:0:
444,180,76914,1,0,1:0:0:0:
444,180,77002,6,0,P|420:155|373:144,1,85,2|0,1:0|1:0,0:0:0:0:
245,271,77352,1,8,0:0:0:0:
188,217,77528,2,0,B|198:149|198:149|218:128|218:128|228:54,1,170,2|0,1:2|1:0,0:0:0:0:
83,0,78055,2,0,P|94:49|103:98,1,85,8|0,0:0|1:0,0:0:0:0:
188,217,78405,6,0,P|235:200|281:186,1,85,2|0,1:0|1:0,0:0:0:0:
153,310,78756,1,8,0:0:0:0:
94,261,78932,2,0,P|102:215|111:167,1,85,2|8,0:0|3:0,0:0:0:0:
113,146,79195,1,8,3:0:0:0:
113,146,79283,2,0,P|65:157|19:169,1,85,4|0,1:2|0:0,0:0:0:0:
185,51,79634,2,0,P|164:45|143:41,1,42.5,0|0,1:0|0:0,0:0:0:0:
241,170,79809,6,0,P|301:147|298:48,1,170,4|8,0:0|0:0,0:0:0:0:
444,132,80335,2,0,P|429:196|408:308,1,170,2|2,0:0|1:0,0:0:0:0:
258,368,80861,1,8,0:0:0:0:
184,232,81037,6,0,B|241:245|241:245|275:288|275:288|337:303,1,170,2|0,1:0|1:0,0:0:0:0:
299,148,81563,1,8,0:0:0:0:
184,232,81739,2,0,P|174:190|163:149,1,85,2|0,1:2|0:0,0:0:0:0:
119,84,82089,1,2,1:2:0:0:
232,17,82265,2,0,P|281:27|327:38,1,85,8|0,0:0|1:0,0:0:0:0:
329,63,82528,1,0,1:0:0:0:
329,63,82616,6,0,P|369:49|410:37,1,85,2|2,1:0|1:2,0:0:0:0:
482,197,82966,1,8,0:0:0:0:
411,162,83142,2,0,P|334:187|353:273,1,170,2|2,1:2|1:2,0:0:0:0:
476,353,83668,1,8,0:0:0:0:
426,294,83844,1,0,1:0:0:0:
301,363,84019,6,0,P|253:349|197:337,1,85,12|0,0:0|0:0,0:0:0:0:
189,270,84283,2,0,P|145:294|97:325,1,85,4|0,3:0|0:0,0:0:0:0:
50,270,84546,2,0,P|36:317|24:374,1,85,8|0,0:0|0:0,0:0:0:0:
197,174,84897,2,2,B|312:197|233:238|354:269,1,170,2|0,1:0|0:0,1:0:0:0:
451,181,85423,6,0,P|436:95|423:20,1,152.999995330811,4|8,1:2|1:0,0:0:0:0:
424,30,86125,1,2,0:0:0:0:
355,71,86300,1,0,1:0:0:0:
219,0,86476,2,0,P|266:13|309:25,1,76.4999976654053,10|0,0:0|1:0,0:0:0:0:
244,118,86827,2,0,B|185:134|185:134|164:165|164:165|103:182,2,152.999995330811,2|8|0,0:0|0:0|0:0,0:0:0:0:
308,167,87704,1,2,1:2:0:0:
226,291,87879,2,0,P|236:239|243:205,1,76.4999976654053,8|0,0:0|0:0,0:0:0:0:
386,106,88230,6,0,P|401:180|415:256,1,152.999995330811,2|8,1:2|0:0,0:0:0:0:
415,256,88932,1,0,1:0:0:0:
366,317,89107,1,2,1:2:0:0:
251,240,89283,2,0,P|290:225|326:212,1,76.4999976654053,8|0,0:0|1:2,0:0:0:0:
268,332,89634,5,2,0:0:0:0:
196,302,89809,1,0,1:0:0:0:
109,217,89984,5,8,0:0:0:0:
37,247,90159,1,2,1:2:0:0:
0,179,90335,2,0,P|9:141|21:101,1,76.4999976654053,0|0,0:0|1:0,0:0:0:0:
137,32,90686,2,0,P|163:61|209:65,1,76.4999976654053,8|2,0:0|1:2,0:0:0:0:
223,45,90949,1,0,1:0:0:0:
223,45,91037,6,0,P|262:54|307:67,1,76.4999976654053,4|2,0:0|0:0,0:0:0:0:
456,130,91388,2,0,P|417:139|372:152,1,76.4999976654053,8|0,0:0|1:0,0:0:0:0:
250,237,91739,2,0,P|263:188|272:151,1,76.4999976654053,2|0,0:0|1:0,0:0:0:0:
426,245,92090,2,0,P|435:282|445:319,1,76.4999976654053,8|0,0:0|1:0,0:0:0:0:
291,369,92441,6,0,P|220:345|142:323,2,152.999995330811,2|10|0,1:2|0:0|1:0,0:0:0:0:
339,272,93318,1,0,0:0:0:0:
269,162,93493,1,10,0:0:0:0:
194,200,93669,1,2,0:0:0:0:
285,74,93844,6,0,P|275:27|264:-11,1,76.4999976654053,2|0,1:2|0:0,0:0:0:0:
385,180,94195,2,0,P|395:133|406:95,1,76.4999976654053,10|0,0:0|1:0,0:0:0:0:
211,274,94546,1,0,1:0:0:0:
211,274,94634,2,0,P|201:227|190:189,1,76.4999976654053,8|0,0:0|0:0,0:0:0:0:
189,173,94897,1,8,0:0:0:0:
91,254,95072,1,8,0:0:0:0:
238,357,95248,6,0,P|298:340|336:323,1,93.5000028533936,12|0,0:0|0:0,0:0:0:0:
392,372,95511,2,0,P|422:317|437:278,1,93.5000028533936,4|0,3:0|1:0,0:0:0:0:
512,280,95774,2,0,P|495:220|477:182,1,93.5000028533936,12|0,0:2|0:0,0:0:0:0:
460,175,96037,1,8,0:0:0:0:
460,175,96125,1,12,0:0:0:0:
274,60,96300,2,0,P|334:70|332:144,1,127.5,12|0,0:0|0:0,0:0:0:0:
326,156,96651,6,0,P|291:166|252:178,1,76.4999976654053,4|0,1:0|0:0,0:0:0:0:
298,324,97002,2,0,P|306:288|315:249,1,76.4999976654053,0|0,1:0|0:0,0:0:0:0:
204,380,97353,2,0,P|183:298|163:208,1,152.999995330811,0|8,1:0|0:0,0:0:0:0:
215,70,97879,1,2,1:2:0:0:
311,130,98055,2,0,P|356:116|403:104,1,76.4999976654053,0|0,1:0|0:0,0:0:0:0:
505,36,98405,2,0,P|460:22|413:10,1,76.4999976654053,0|0,1:0|0:0,0:0:0:0:
355,31,98756,1,0,1:0:0:0:
500,207,98932,2,0,P|490:161|482:129,1,76.4999976654053,8|4,0:0|3:0,0:0:0:0:
369,246,99283,1,8,0:0:0:0:
301,183,99458,6,0,P|247:199|182:223,1,114.749996498108,2|0,1:2|0:0,0:0:0:0:
185,252,99809,2,0,B|169:286|169:286|185:323,1,76.4999976654053,4|0,1:2|0:0,0:0:0:0:
309,352,100160,2,0,P|348:339|396:326,1,76.4999976654053,0|0,1:0|1:0,0:0:0:0:
414,345,100423,1,4,3:0:0:0:
414,345,100511,1,8,0:0:0:0:
479,268,100686,1,2,0:0:0:0:
361,149,100862,6,0,P|370:192|379:244,1,76.4999976654053,0|0,1:0|0:0,0:0:0:0:
488,66,101212,2,0,P|479:109|470:161,1,76.4999976654053,8|0,0:0|0:0,0:0:0:0:
472,172,101476,1,4,3:0:0:0:
472,172,101563,1,0,1:0:0:0:
342,60,101739,1,8,0:0:0:0:
261,134,101914,2,0,P|223:120|182:109,1,76.4999976654053,8|4,0:0|3:0,0:0:0:0:
171,88,102177,1,0,3:0:0:0:
171,88,102265,5,2,1:2:0:0:
83,196,102441,1,0,1:2:0:0:
211,270,102616,2,0,P|201:221|192:185,1,76.4999976654053,12|0,0:0|0:0,0:0:0:0:
341,245,102967,2,0,P|332:282|324:319,1,76.4999976654053,8|0,0:0|1:0,0:0:0:0:
344,350,103230,1,4,3:0:0:0:
344,350,103318,2,0,P|364:344|384:339,2,38.2499988327027,4|8|4,3:0|3:0|3:0,0:0:0:0:
242,375,103669,5,2,1:2:0:0:
341,245,103844,1,8,0:0:0:0:
203,167,104019,2,0,P|215:210|224:250,1,76.4999976654053,8|2,0:0|0:1,0:0:0:0:
316,128,104370,2,0,P|324:90|335:53,1,76.4999976654053,8|0,0:0|0:0,0:0:0:0:
362,36,104634,1,4,3:0:0:0:
362,36,104721,1,0,1:0:0:0:
436,108,104897,1,0,3:0:0:0:
253,9,105072,6,0,B|198:25|198:25|175:63|175:63|122:78,1,152.999995330811,2|8,1:2|0:0,0:0:0:0:
13,171,105598,1,2,1:2:0:0:
13,171,105686,1,0,1:0:0:0:
13,171,105774,2,0,P|50:183|89:200,1,76.4999976654053,10|0,0:0|1:0,0:0:0:0:
190,261,106125,1,0,1:0:0:0:
74,384,106300,6,0,P|34:349|55:296,1,114.749996498108,12|0,0:2|0:0,0:0:0:0:
78,283,106651,1,10,0:0:0:0:
160,339,106827,1,2,1:0:0:0:
174,186,107002,2,0,P|183:228|192:273,1,76.4999976654053,8|0,0:0|0:0,0:0:0:0:
316,384,107353,2,0,P|324:341|333:298,1,76.4999976654053,12|0,0:0|0:0,0:0:0:0:
360,189,107704,1,8,0:0:0:0:
360,189,107791,1,8,0:0:0:0:
360,189,107879,6,0,P|351:146|342:103,1,76.4999976654053,4|0,0:0|0:0,0:0:0:0:
322,93,108142,1,0,1:0:0:0:
322,93,108230,2,0,P|285:104|246:118,1,76.4999976654053,8|0,0:0|1:0,0:0:0:0:
153,188,108581,1,4,3:0:0:0:
153,188,108669,1,4,3:0:0:0:
153,188,108756,2,0,P|128:178|103:170,1,38.2499988327027,8|0,3:0|0:0,0:0:0:0:
76,79,108932,2,0,P|87:41|101:1,1,76.4999976654053,8|0,1:2|1:0,0:0:0:0:
174,93,109283,5,2,1:2:0:0:
23,206,109458,1,8,0:0:0:0:
23,206,109546,1,4,3:0:0:0:
23,206,109634,2,0,P|12:168|-2:128,1,76.4999976654053,12|0,0:0|0:0,0:0:0:0:
89,276,109984,1,8,3:0:0:0:
89,276,110072,1,8,3:0:0:0:
89,276,110160,2,0,P|114:266|139:258,1,38.2499988327027,4|0,3:0|0:0,0:0:0:0:
235,204,110335,2,0,P|292:224|349:247,1,114.749996498108,0|0,1:0|1:0,0:0:0:0:
372,230,110686,6,0,P|399:190|381:144,1,85,12|0,0:0|0:0,0:0:0:0:
465,131,110949,2,0,P|443:87|395:80,1,85,0|0,1:0|0:0,0:0:0:0:
427,0,111212,2,0,P|378:-3|348:35,1,85,12|0,0:0|0:0,0:0:0:0:
339,52,111476,1,0,1:0:0:0:
339,52,111563,1,0,1:0:0:0:
462,212,111739,1,8,0:0:0:0:
274,302,111914,2,0,P|285:232|300:163,1,127.5,12|0,0:0|0:0,0:0:0:0:
305,149,112265,5,12,0:0:0:0:
152,214,112441,1,12,0:0:0:0:
237,64,112616,1,12,0:0:0:0:
200,132,112791,1,0,1:0:0:0:
352,247,112967,2,0,B|446:229|411:299|517:276,1,170,4|0,1:2|0:0,0:0:0:0:
340,384,113493,6,0,P|272:351|293:277,1,140.25000428009,4|0,0:0|0:0,0:0:0:0:
261,267,113844,2,0,P|240:275|216:285,3,46.7500014266968,8|0|2|0,0:0|0:0|0:0|0:0,0:0:0:0:
235,160,114195,2,0,P|252:174|273:189,3,46.7500014266968,2|0|2|0,0:0|0:0|0:2|0:0,0:0:0:0:
155,236,114546,2,0,P|158:213|161:188,3,46.7500014266968,8|0|2|0,0:0|0:0|0:0|0:0,0:0:0:0:
174,104,114897,5,2,0:0:0:0:
42,173,115072,1,2,1:2:0:0:
42,173,115160,1,0,1:0:0:0:
42,173,115248,2,0,P|30:128|14:81,1,93.5000028533936,8|0,0:0|0:0,0:0:0:0:
155,236,115598,2,0,P|204:219|268:202,1,93.5000028533936,2|0,1:2|0:0,0:0:0:0:
272,201,115862,1,0,1:0:0:0:
272,201,115949,1,8,0:0:0:0:
471,48,116212,1,0,1:0:0:0:
471,48,116300,6,0,P|477:77|485:99,3,46.7500014266968,2|0|2|0,1:2|0:0|0:2|0:0,0:0:0:0:
417,144,116651,2,0,P|388:134|365:130,3,46.7500014266968,10|0|2|0,0:0|0:0|0:0|0:0,0:0:0:0:
360,49,117002,2,0,P|382:29|397:11,3,46.7500014266968,2|0|2|0,1:2|0:0|0:0|0:0,0:0:0:0:
282,83,117353,2,0,P|259:63|244:45,3,46.7500014266968,8|0|2|0,0:0|0:0|0:0|0:0,0:0:0:0:
206,125,117704,5,10,0:0:0:0:
206,125,117791,2,0,P|192:171|180:219,1,93.5000028533936,10|0,0:0|0:0,0:0:0:0:
169,252,118055,1,10,0:1:0:0:
314,198,118230,2,0,B|366:189|366:189|398:204|398:204|449:195,1,140.25000428009,0|8,1:0|0:0,0:0:0:0:
469,170,118581,2,0,P|456:122|448:74,1,93.5000028533936,8|0,0:0|0:0,0:0:0:0:
314,198,118932,6,0,P|298:289|272:389,1,187.000005706787,4|2,1:2|0:0,0:0:0:0:
469,286,119458,2,0,P|456:238|448:190,1,93.5000028533936,10|2,0:0|0:0,0:0:0:0:
303,106,119809,2,0,B|252:123|202:135|202:136,1,93.5000028533936,0|2,0:0|1:2,0:0:0:0:
362,271,120160,1,8,0:0:0:0:
314,198,120335,1,2,0:0:0:0:
157,293,120511,6,0,P|146:341|139:386,1,93.5000028533936,2|2,0:0|0:0,0:0:0:0:
19,209,120862,1,8,0:0:0:0:
93,235,121037,2,0,B|200:198|121:152|241:121,1,187.000005706787,2|2,0:0|0:0,0:0:0:0:
415,247,121563,2,0,P|361:229|316:219,1,93.5000028533936,8|0,0:0|1:0,0:0:0:0:
314,198,121827,1,4,3:0:0:0:
314,198,121914,6,0,P|321:151|332:106,1,93.5000028533936,12|0,0:0|1:0,0:0:0:0:
419,151,122265,1,0,1:0:0:0:
227,287,122441,2,0,P|219:240|208:195,1,93.5000028533936,12|2,0:0|1:2,0:0:0:0:
110,262,122792,1,0,1:0:0:0:
248,103,122967,1,12,0:0:0:0:
111,0,123142,6,0,P|95:42|98:94,1,93.5000028533936,0|0,1:0|1:0,0:0:0:0:
21,115,123405,2,0,P|49:149|95:173,1,93.5000028533936,8|0,0:0|0:0,0:0:0:0:
127,165,123669,1,10,0:0:0:0:
248,103,123844,2,0,P|303:116|357:136,1,93.5000028533936,0|0,1:0|0:0,0:0:0:0:
361,155,124107,1,0,1:0:0:0:
361,155,124195,2,0,B|386:197|386:197|364:243,1,93.5000028533936,12|0,0:0|0:0,0:0:0:0:
232,322,124546,1,0,1:0:0:0:
348,384,124721,6,0,P|340:342|326:300,1,85,4|2,1:2|0:0,0:0:0:0:
430,307,124984,1,0,0:0:0:0:
430,307,125072,2,0,P|438:265|452:223,1,85,10|0,0:2|0:0,0:0:0:0:
294,216,125423,2,0,P|266:183|232:154,1,85,2|2,1:2|0:0,0:0:0:0:
397,156,125774,2,0,P|424:123|458:94,1,85,8|0,0:0|0:0,0:0:0:0:
222,63,126125,1,2,1:2:0:0:
320,16,126300,2,0,P|312:40|303:70,1,42.5,0|0,1:0|0:0,0:0:0:0:
159,193,126476,2,0,P|142:140|125:88,1,85,8|0,0:0|0:0,0:0:0:0:
397,156,126827,2,0,B|338:145|338:145|293:166|293:166|234:155,1,170,2|10,1:2|0:0,0:0:0:0:
313,295,127353,1,0,1:0:0:0:
313,295,127441,1,0,1:0:0:0:
313,295,127528,5,2,1:2:0:0:
380,384,127704,2,0,P|386:360|393:340,1,42.5
201,236,127879,2,0,P|214:276|225:325,1,85,8|0,0:0|0:0,0:0:0:0:
366,134,128230,2,0,P|334:162|300:199,1,85,2|2,0:0|0:0,0:0:0:0:
107,113,128581,2,0,P|148:121|196:136,1,85,8|0,0:0|0:0,0:0:0:0:
206,120,128844,1,0,1:0:0:0:
206,120,128932,6,0,P|238:95|285:83,1,85,12|0,0:0|0:0,0:0:0:0:
291,0,129195,2,0,P|328:15|362:49,1,85,8|0,0:0|0:0,0:0:0:0:
378,77,129458,1,12,0:0:0:0:
316,182,129634,1,0,1:0:0:0:
316,182,129721,2,0,P|274:193|234:205,1,85,8|0,0:0|0:0,0:0:0:0:
203,214,129984,1,8,0:0:0:0:
49,120,130160,1,8,3:0:0:0:
49,120,130248,1,8,0:0:0:0:
49,120,130335,6,0,P|63:167|73:212,1,85,4|0,1:2|0:0,0:0:0:0:
207,383,130686,2,0,P|216:341|229:300,1,85,8|0,0:0|1:0,0:0:0:0:
347,169,131037,1,4,1:2:0:0:
347,169,131125,1,4,3:0:0:0:
347,169,131212,2,0,P|372:177|401:187,1,42.5,4|0,3:0|0:0,0:0:0:0:
478,146,131388,2,0,P|469:96|460:60,1,85,0|2,1:0|1:2,0:0:0:0:
346,0,131739,5,4,1:2:0:0:
235,110,131914,1,0,1:0:0:0:
235,110,132002,1,0,1:0:0:0:
235,110,132090,2,0,P|244:60|253:24,1,85,8|0,0:0|0:0,0:0:0:0:
333,159,132441,1,10,1:1:0:0:
333,159,132528,1,8,0:0:0:0:
333,159,132616,1,8,0:0:0:0:
205,213,132791,1,8,3:0:0:0:
46,103,132967,1,8,0:0:0:0:
46,103,133055,1,8,0:0:0:0:
46,103,133142,6,0,P|61:179|79:302,1,187.000005706787,12|0,0:0|1:0,0:0:0:0:
235,357,133669,2,0,B|347:328|264:297|396:263,1,187.000005706787,12|0,0:2|1:0,0:0:0:0:
230,134,134195,2,0,P|215:178|206:224,1,93.5000028533936,12|2,0:2|1:2,0:0:0:0:
100,377,134546,6,0,P|91:332|75:283,1,93.5000028533936,12|2,0:2|1:2,0:0:0:0:
25,209,134897,1,0,1:0:0:0:
277,291,135072,6,0,P|286:246|302:197,1,93.5000028533936,12|2,0:2|1:2,0:0:0:0:
365,92,135423,1,0,1:0:0:0:
438,237,135598,1,12,1:2:0:0:
206,179,135774,1,0,1:0:0:0:
377,348,135949,6,0,P|425:327|474:309,1,101.999996887207,6|0,1:0|0:0,0:0:0:0:
438,237,136212,2,0,P|391:215|344:197,1,101.999996887207,8|0,0:0|0:0,0:0:0:0:
324,123,136476,2,0,P|277:144|230:162,1,101.999996887207,10|0,0:0|1:0,0:0:0:0:
206,179,136739,1,0,1:0:0:0:
206,179,136827,1,8,0:0:0:0:
328,286,137002,1,8,2:0:0:0:
439,90,137177,1,14,1:1:0:0:
256,192,137353,12,0,141914,0:1:0:0:
187,156,142265,6,0,B|93:131|128:197|30:171,1,152.999995330811
0,244,142791,1,0,0:0:0:0:
149,346,142967,6,0,B|197:332|197:332|216:303|216:303|269:288,1,140.25000428009,4|0,1:2|0:0,0:0:0:0:
292,264,143318,2,0,B|311:218|311:218|292:177,1,93.5000028533936,10|0,0:1|0:0,0:0:0:0:
238,41,143669,1,2,1:2:0:0:
348,88,143844,1,2,0:0:0:0:
145,214,144019,2,0,P|161:153|172:115,1,93.5000028533936,8|0,0:0|1:0,0:0:0:0:
316,354,144370,6,0,P|300:293|289:255,1,93.5000028533936,2|2,1:2|1:0,0:0:0:0:
442,124,144721,2,0,P|429:168|417:214,1,93.5000028533936,10|0,0:1|0:0,0:0:0:0:
203,348,145072,2,0,P|107:320|9:294,1,187.000005706787,2|8,1:0|0:0,0:0:0:0:
125,132,145598,1,0,1:0:0:0:
125,132,145686,1,0,1:0:0:0:
125,132,145774,6,0,P|206:141|201:237,1,187.000005706787,4|8,0:0|0:0,0:0:0:0:
321,329,146300,1,0,1:0:0:0:
398,220,146476,2,0,P|347:232|299:245,1,93.5000028533936,6|0,0:2|0:0,0:0:0:0:
113,315,146827,2,0,P|158:325|203:337,1,93.5000028533936,8|0,0:0|0:0,0:0:0:0:
203,134,147177,5,0,1:0:0:0:
203,134,147265,2,0,P|188:188|175:232,1,93.5000028533936,10|0,0:1|0:0,0:0:0:0:
193,251,147528,2,0,P|240:236|285:224,1,93.5000028533936,8|2,0:0|0:0,0:0:0:0:
399,191,147879,1,10,0:1:0:0:
262,354,148055,1,2,1:0:0:0:
203,134,148230,1,8,0:0:0:0:
203,134,148318,1,0,1:0:0:0:
203,134,148405,2,0,P|179:141|151:152,1,46.7500014266968,8|8,0:2|0:2,0:0:0:0:
268,1,148581,6,0,B|313:-22|369:24|369:24|356:68|396:97,1,187.000005706787,4|8,1:2|0:0,0:0:0:0:
484,210,149107,1,2,0:0:0:0:
294,276,149283,2,0,P|306:217|319:178,1,93.5000028533936,0|2,1:0|1:0,0:0:0:0:
180,43,149634,2,0,P|193:87|202:133,1,93.5000028533936,8|0,0:0|1:0,0:0:0:0:
72,312,149984,6,0,P|33:289|38:234,1,93.5000028533936,4|0,1:2|0:0,0:0:0:0:
51,221,150248,1,4,3:0:0:0:
51,221,150335,2,0,P|100:235|146:250,1,93.5000028533936,8|2,0:0|0:0,0:0:0:0:
277,326,150686,1,0,1:0:0:0:
189,164,150862,1,2,1:0:0:0:
356,86,151037,2,0,P|345:141|337:190,1,93.5000028533936,8|0,0:0|1:0,0:0:0:0:
364,204,151300,1,0,1:0:0:0:
364,204,151388,6,0,P|422:188|462:174,1,93.5000028533936,4|0,0:0|0:0,0:0:0:0:
277,326,151739,2,0,P|321:340|366:352,1,93.5000028533936,8|0,0:0|0:0,0:0:0:0:
189,164,152090,2,0,P|231:121|258:89,1,93.5000028533936,0|2,1:0|1:0,0:0:0:0:
85,264,152441,2,0,P|101:322|115:362,1,93.5000028533936,8|8,0:0|0:0,0:0:0:0:
141,370,152704,1,8,0:0:0:0:
141,370,152791,6,0,B|230:342|167:321|270:301,1,140.25000428009,12|0,0:0|1:0,0:0:0:0:
277,281,153142,1,8,0:0:0:0:
63,168,153318,2,0,P|-6:201|7:276,1,152.999995330811,12|0,0:0|0:0,0:0:0:0:
20,300,153669,1,4,0:0:0:0:
192,174,153844,1,8,0:0:0:0:
147,272,154019,1,8,0:0:0:0:
89,73,154195,6,0,P|37:88|-13:105,1,93.5000028533936,4|2,1:2|0:0,0:0:0:0:
160,0,154546,2,0,P|212:15|262:32,1,93.5000028533936,10|0,0:1|0:0,0:0:0:0:
378,217,154897,1,2,1:2:0:0:
247,128,155072,1,2,0:0:0:0:
407,22,155248,1,8,0:0:0:0:
355,125,155423,2,0,P|350:101|343:77,1,46.7500014266968,0|0,1:0|1:0,0:0:0:0:
512,0,155598,6,0,P|497:49|487:100,1,93.5000028533936,2|0,1:2|0:0,0:0:0:0:
288,242,155949,2,0,P|338:229|387:213,1,93.5000028533936,10|0,0:1|0:0,0:0:0:0:
223,33,156300,2,0,P|235:77|245:123,1,93.5000028533936,2|2,1:0|1:0,0:0:0:0:
109,274,156651,1,10,0:2:0:0:
168,176,156827,1,0,1:0:0:0:
168,176,156914,1,4,3:0:0:0:
168,176,157002,6,0,B|280:208|197:259|311:294,1,187.000005706787,4|8,1:2|0:0,0:0:0:0:
417,216,157528,1,0,1:0:0:0:
281,382,157704,2,0,P|288:341|303:291,1,93.5000028533936,4|0,1:2|0:0,0:0:0:0:
394,125,158055,2,0,P|408:169|416:215,1,93.5000028533936,8|0,0:0|0:0,0:0:0:0:
252,59,158405,6,0,P|187:74|187:157,1,140.25000428009,4|0,1:2|0:0,0:0:0:0:
201,160,158756,2,0,P|189:205|180:256,1,93.5000028533936,8|2,0:0|0:0,0:0:0:0:
111,294,159019,1,0,1:0:0:0:
111,294,159107,2,0,P|117:313|124:348,1,46.7500014266968,2|0,1:2|0:0,0:0:0:0:
201,384,159283,1,2,1:0:0:0:
307,249,159458,1,10,0:1:0:0:
307,249,159546,1,0,1:0:0:0:
307,249,159634,2,0,P|282:258|247:271,1,46.7500014266968,8|8,0:0|0:0,0:0:0:0:
319,128,159809,6,0,B|391:146|391:146|420:193|420:193|497:214,1,187.000005706787,4|10,1:2|0:0,0:0:0:0:
359,323,160335,1,0,0:0:0:0:
489,384,160511,2,0,P|475:329|465:288,1,93.5000028533936,2|0,1:2|0:0,0:0:0:0:
319,128,160862,2,0,P|307:173|296:218,1,93.5000028533936,8|0,0:0|0:0,0:0:0:0:
142,343,161212,6,0,P|90:326|43:312,1,93.5000028533936,2|0,1:0|0:0,0:0:0:0:
38,290,161476,1,0,1:0:0:0:
38,290,161563,2,0,B|18:246|18:246|38:199,1,93.5000028533936,8|0,0:0|0:0,0:0:0:0:
151,139,161914,2,0,P|195:152|240:167,1,93.5000028533936,2|0,1:0|1:0,0:0:0:0:
117,28,162265,2,0,P|72:41|27:56,1,93.5000028533936,8|0,0:0|1:0,0:0:0:0:
17,84,162528,1,4,3:0:0:0:
17,84,162616,6,0,B|27:115|55:139|55:139|40:176|21:263,1,187.000005706787,2|8,1:2|0:0,0:0:0:0:
173,359,163142,1,0,3:0:0:0:
215,231,163318,2,0,P|164:244|111:259,1,93.5000028533936,2|0,1:0|1:0,0:0:0:0:
287,331,163669,2,0,P|338:344|391:359,1,93.5000028533936,8|0,0:0|0:0,0:0:0:0:
399,335,163932,1,0,1:0:0:0:
399,335,164019,6,0,P|420:285|399:240,1,93.5000028533936,12|0,0:0|0:0,0:0:0:0:
482,220,164283,2,0,P|449:176|399:172,1,93.5000028533936,0|0,1:0|0:0,0:0:0:0:
401,94,164546,2,0,P|374:97|359:117,1,46.7500014266968,8|0,0:0|0:0,0:0:0:0:
303,159,164721,1,2,0:0:0:0:
159,63,164897,2,0,P|252:88|305:169,1,187.000005706787,8|0,0:0|1:0,0:0:0:0:
149,304,165423,6,0,P|160:240|170:196,1,93.5000028533936,4|0,1:2|1:0,0:0:0:0:
100,127,165774,1,0,1:0:0:0:
319,250,165949,2,0,P|308:186|298:142,1,93.5000028533936,8|2,0:0|1:0,0:0:0:0:
387,35,166300,1,0,1:0:0:0:
219,140,166476,1,8,0:0:0:0:
418,213,166651,1,8,0:0:0:0:
250,7,166827,5,4,1:2:0:0:
250,7,167528,2,0,B|128:40|221:84|93:124,1,187.000005706787,2|2,0:0|0:0,0:0:0:0:
278,295,168230,6,0,B|339:278|339:278|368:242|368:242|435:222,1,170,6|8,0:2|0:0,0:0:0:0:
273,104,168756,2,0,P|195:133|216:225,1,170,2|2,0:0|1:0,0:0:0:0:
286,381,169282,1,8,0:0:0:0:
167,293,169458,6,0,B|61:268|99:346|-3:318,1,170,2|0,1:0|1:0,0:0:0:0:
119,200,169984,1,8,0:0:0:0:
0,159,170159,2,0,P|10:200|18:241,1,85,2|0,0:0|0:0,0:0:0:0:
6,320,170510,1,2,1:2:0:0:
119,200,170686,2,0,P|126:158|137:117,1,85,8|0,0:0|1:0,0:0:0:0:
165,95,170949,1,0,1:0:0:0:
165,95,171037,6,0,P|205:106|253:121,1,85,2|0,1:0|1:0,0:0:0:0:
85,0,171387,1,8,0:0:0:0:
16,37,171563,2,0,B|32:100|32:100|19:144|19:144|36:215,1,170,2|0,1:2|1:0,0:0:0:0:
216,331,172089,2,0,P|176:318|135:306,1,85,8|0,0:0|1:0,0:0:0:0:
123,282,172353,1,0,1:0:0:0:
123,282,172441,6,0,P|128:258|135:232,2,42.5,2|0|0,1:0|3:0|1:0,0:0:0:0:
158,116,172791,1,8,0:0:0:0:
301,218,172967,2,0,B|287:162|279:130|279:129,1,85,2|8,0:0|3:0,0:0:0:0:
299,112,173230,1,8,3:0:0:0:
299,112,173317,2,0,P|342:122|393:137,1,85,4|0,1:2|0:0,0:0:0:0:
252,11,173669,2,0,P|272:5|293:0,1,42.5,0|0,1:0|0:0,0:0:0:0:
512,89,173844,6,0,P|497:162|483:243,1,140.25000428009,4|0,1:2|0:0,0:0:0:0:
471,255,174195,2,0,P|424:238|378:226,1,93.5000028533936,8|2,0:0|1:0,0:0:0:0:
193,113,174546,2,0,P|240:96|286:84,1,93.5000028533936,8|2,0:0|1:0,0:0:0:0:
229,280,174897,1,8,0:0:0:0:
381,226,175072,2,0,P|376:203|369:177,1,46.7500014266968,2|0,1:2|0:0,0:0:0:0:
229,280,175248,6,0,P|164:260|91:240,1,140.25000428009,12|0,0:0|1:0,0:0:0:0:
78,213,175598,2,0,B|60:171|60:171|78:127,1,93.5000028533936,8|2,0:0|1:0,0:0:0:0:
262,3,175949,2,0,P|274:58|284:110,1,93.5000028533936,8|2,0:0|1:2,0:0:0:0:
324,296,176300,1,8,0:0:0:0:
215,183,176476,2,0,P|193:176|164:169,1,46.7500014266968,0|0,1:0|0:0,0:0:0:0:
71,335,176651,6,0,P|123:318|192:301,1,93.5000028533936,12|2,0:0|1:0,0:0:0:0:
70,101,177002,2,0,P|59:152|50:204,1,93.5000028533936,8|4,0:0|1:2,0:0:0:0:
260,378,177353,2,0,P|251:331|241:286,1,93.5000028533936,8|0,0:0|0:0,0:0:0:0:
235,260,177616,1,8,0:0:0:0:
235,260,177704,1,8,0:0:0:0:
337,168,177879,1,0,1:0:0:0:
206,96,178055,5,12,0:0:0:0:
333,258,178230,1,0,1:0:0:0:
153,204,178405,1,8,0:0:0:0:
306,79,178581,1,2,1:0:0:0:
142,215,178756,1,8,0:0:0:0:
305,346,178932,1,8,0:0:0:0:
305,346,179019,1,8,0:0:0:0:
305,346,179107,1,0,1:0:0:0:
252,170,179283,5,12,0:0:0:0:
