osu file format v14

[General]
AudioFilename: audio.mp3
AudioLeadIn: 0
PreviewTime: 48143
Countdown: 0
SampleSet: Soft
StackLeniency: 0.5
Mode: 0
LetterboxInBreaks: 0
WidescreenStoryboard: 1

[Editor]
DistanceSpacing: 0.8
BeatDivisor: 4
GridSize: 16
TimelineZoom: 3.899999

[Metadata]
Title:Zankyo Sanka
TitleUnicode:残響散歌
Artist:Aimer
ArtistUnicode:Aimer
Creator:Flask
Version:alevi's Extra
Source:「鬼滅の刃」遊郭編
Tags:anime japanese jpop jrock j-pop j-rock pop rock opening op full version Kimetsu no Yaiba Yuukaku hen Yuukaku-hen season 2 two Demon Slayer: Entertainment District Arc alevi エメ 鬼滅の刃遊郭編 uzui tengen 宇髄天元
BeatmapID:3442223
BeatmapSetID:1684121

[Difficulty]
HPDrainRate:5.5
CircleSize:3.8
OverallDifficulty:8
ApproachRate:9
SliderMultiplier:1.8
SliderTickRate:1

[Events]
//Background and Video events
0,0,"uhdpaper.com-9051e-pc-hd.jpg",0,0
//Break Periods
//Storyboard Layer 0 (Background)
//Storyboard Layer 1 (Fail)
//Storyboard Layer 2 (Pass)
//Storyboard Layer 3 (Foreground)
//Storyboard Layer 4 (Overlay)
//Storyboard Sound Samples

[TimingPoints]
162,350.877192982456,4,2,1,45,1,0
162,-100,4,2,1,45,0,0
854,-100,4,2,1,45,0,0
863,350.877192982456,3,2,1,45,1,0
863,-133.333333333333,4,2,1,60,0,0
1390,-153.846153846153,4,2,1,60,0,0
1916,-181.818181818181,4,2,1,60,0,0
2442,-285.714285714284,4,2,1,60,0,0
2969,-181.818181818182,4,2,1,60,0,0
4020,350.877192982456,4,2,1,60,1,0
4020,-83.3333333333333,4,2,1,60,0,0
4370,-111.111111111111,4,2,1,45,0,0
6827,-111.111111111111,4,2,1,50,0,0
8932,-111.111111111111,4,2,1,60,0,0
9634,-100,4,2,1,75,0,0
20335,-181.818181818182,4,2,1,75,0,0
20862,-125,4,2,1,75,0,0
21212,-125,4,2,1,60,0,0
32090,-111.111111111111,4,2,1,50,0,0
41739,-111.111111111111,4,2,1,60,0,0
46125,-90.9090909090909,4,2,1,70,0,0
48230,-181.818181818182,4,2,1,70,0,0
48405,-83.3333333333333,4,2,1,70,0,0
48854,-83.3333333333333,4,2,1,70,0,0
48932,-83.3333333333333,4,2,1,80,0,1
49204,-83.3333333333333,4,2,1,80,0,1
60082,-83.3333333333333,4,2,1,80,0,1
60257,-83.3333333333333,4,2,1,80,0,1
73493,-71.4285714285714,4,2,1,40,0,1
74195,-99.9999999999999,4,2,1,75,0,0
84897,-181.818181818182,4,2,1,75,0,0
85423,-125,4,2,1,75,0,0
85774,-125,4,2,1,60,0,0
96651,-111.111111111111,4,2,1,50,0,0
106300,-111.111111111111,4,2,1,60,0,0
110686,-90.9090909090908,4,2,1,70,0,0
112791,-181.818181818182,4,2,1,70,0,0
112967,-83.3333333333333,4,2,1,70,0,0
113493,-111.111111111111,4,2,1,70,0,0
115949,-83.3333333333333,4,2,1,70,0,0
116300,-111.111111111111,4,2,1,70,0,0
120511,-99.9999999999999,4,2,1,70,0,0
123318,-83.3333333333333,4,2,1,70,0,0
130335,-100,4,2,1,70,0,0
134546,-100,4,2,1,75,0,0
135949,-83.3333333333333,4,2,1,80,0,0
137177,-83.3333333333333,4,2,1,70,0,0
137265,-83.3333333333333,4,2,1,20,0,0
141914,-83.3333333333333,4,2,1,5,0,0
142265,-250,4,2,1,40,0,0
142967,-83.3333333333333,4,2,1,80,0,1
167528,-71.4285714285714,4,2,1,45,0,1
168230,-100,4,2,1,75,0,0
173844,-83.3333333333333,4,2,1,80,0,0
179283,-83.3333333333333,4,2,1,90,0,0

[Colours]
Combo1 : 117,255,117
Combo2 : 255,255,0
Combo3 : 255,141,87
Combo4 : 47,187,255
Combo5 : 186,117,255

[HitObjects]
256,192,162,5,8,0:0:0:0:
256,192,512,1,8,0:0:0:0:
398,66,863,6,0,P|364:56|329:49,1,67.5000025749208,4|0,0:0|0:0,0:0:0:0:
283,109,1126,1,0,1:0:0:0:
289,119,1214,1,8,0:0:0:0:
410,250,1390,6,0,P|400:220|392:190,1,58.4999973220826,2|0,1:2|0:0,0:0:0:0:
450,144,1653,1,0,1:0:0:0:
459,137,1740,1,8,0:0:0:0:
305,305,1916,6,0,P|312:281|318:257,1,49.5000015106202,2|0,1:2|0:0,0:0:0:0:
265,199,2179,1,0,1:0:0:0:
256,192,2266,1,8,0:0:0:0:
413,360,2442,6,0,P|435:353|459:348,1,47.2499985580445,2|0,1:2|1:0,0:0:0:0:
494,280,2793,1,8,0:0:0:0:
487,266,2881,1,0,1:0:0:0:
476,256,2969,6,0,B|414:232|374:267|358:298|358:298|345:333|302:371|233:345,1,272.250008308411,4|0,1:2|0:0,0:0:0:0:
219,277,4020,6,0,B|195:254|201:202|201:202|184:252|148:260,1,161.999995056153,12|0,0:0|0:0,0:0:0:0:
76,225,4370,2,0,P|51:231|24:242,1,40.4999987640381,4|0,3:0|0:0,0:0:0:0:
1,147,4546,6,0,P|42:138|84:121,1,80.9999975280763,2|0,0:0|0:0,0:0:0:0:
152,156,4809,1,0,3:0:0:0:
149,165,4897,2,0,P|160:195|165:216,1,40.4999987640381,2|0,3:2|0:0,0:0:0:0:
232,238,5072,2,0,P|221:268|216:289,1,40.4999987640381,0|0,3:0|0:0,0:0:0:0:
114,382,5248,6,0,P|97:298|68:204,1,161.999995056153,2|2,0:0|0:0,0:0:0:0:
213,87,5774,1,0,3:0:0:0:
209,98,5862,1,8,3:0:0:0:
214,108,5949,6,0,P|256:96|300:87,1,80.9999975280763,2|0,3:2|0:0,0:0:0:0:
59,8,6300,2,0,P|98:16|137:27,1,80.9999975280763,2|0,0:0|1:0,0:0:0:0:
0,123,6651,2,0,P|21:117|43:112,1,40.4999987640381,2|0,0:0|0:0,0:0:0:0:
102,191,6827,5,2,0:0:0:0:
10,317,7002,1,0,0:0:0:0:
16,304,7090,1,8,3:0:0:0:
23,290,7177,2,0,P|42:294|62:299,1,40.4999987640381,8|0,3:0|0:0,0:0:0:0:
176,379,7353,6,0,P|247:358|320:342,1,121.499996292114,2|8,0:0|3:0,0:0:0:0:
331,273,7704,1,2,3:2:0:0:
326,261,7791,1,0,3:0:0:0:
314,251,7879,2,0,P|284:257|255:266,1,40.4999987640381,4|0,3:0|0:0,0:0:0:0:
419,290,8055,5,2,0:0:0:0:
419,290,8405,2,0,P|425:263|440:237,1,40.4999987640381,2|0,0:0|0:0,0:0:0:0:
378,194,8581,2,0,P|401:179|430:171,1,40.4999987640381,0|0,3:0|0:0,0:0:0:0:
416,97,8756,2,0,P|443:103|469:118,1,40.4999987640381,2|0,3:2|0:0,0:0:0:0:
290,154,8932,5,8,3:0:0:0:
322,7,9107,1,0,3:0:0:0:
208,223,9283,5,8,3:0:0:0:
153,58,9458,2,0,P|161:80|168:102,1,40.4999987640381,2|0,3:0|0:0,0:0:0:0:
337,257,9634,6,0,B|349:237|392:221|392:221|347:233|322:223,1,135,6|0,0:2|0:0,0:0:0:0:
290,154,9984,2,0,P|295:128|302:99,1,45,8|0,0:0|0:0,0:0:0:0:
208,223,10160,6,0,B|164:206|137:230|125:252|125:252|116:276|86:303|38:284,1,180,2|2,0:0|1:0,0:0:0:0:
113,150,10686,1,8,0:0:0:0:
290,369,10862,6,0,B|314:305|314:305|289:243,1,135,2|0,1:0|0:0,0:0:0:0:
338,177,11212,2,0,P|360:183|387:192,1,45,0|0,1:0|0:0,0:0:0:0:
208,223,11388,2,0,P|191:239|173:260,1,45,8|0,0:0|0:0,0:0:0:0:
50,377,11563,6,0,B|70:384|92:374|93:347|93:347|65:218,1,180,2|2,0:0|1:2,0:0:0:0:
34,74,12090,1,8,0:0:0:0:
161,161,12265,1,0,1:0:0:0:
172,147,12353,1,0,1:0:0:0:
171,133,12441,5,2,1:0:0:0:
152,58,12616,1,0,1:0:0:0:
11,151,12791,1,8,0:0:0:0:
34,74,12967,6,0,P|115:95|215:122,1,180,2|0,1:2|1:0,0:0:0:0:
327,219,13493,1,8,0:0:0:0:
194,290,13669,2,0,P|200:265|207:243,1,45,0|0,1:0|1:0,0:0:0:0:
316,362,13844,5,2,1:0:0:0:
284,290,14019,1,0,1:0:0:0:
396,160,14195,1,8,0:0:0:0:
413,242,14370,6,0,P|369:229|326:218,1,90,2|8,0:0|3:0,0:0:0:0:
288,152,14634,1,8,3:0:0:0:
278,145,14721,2,0,P|234:157|191:168,1,90,4|0,1:2|0:0,0:0:0:0:
358,31,15072,2,0,P|352:51|347:79,1,45,0|0,1:0|0:0,0:0:0:0:
485,208,15248,6,0,B|512:144|512:144|485:84,1,135,4|0,0:0|0:0,0:0:0:0:
428,30,15598,2,0,P|410:39|387:46,1,45,8|0,0:0|0:0,0:0:0:0:
278,145,15774,6,0,B|295:134|325:140|328:170|328:170|300:289,1,180,2|2,0:0|1:0,0:0:0:0:
129,361,16300,1,8,0:0:0:0:
226,293,16476,6,0,P|286:312|357:336,1,135,2|0,1:0|0:0,0:0:0:0:
408,281,16827,2,0,P|402:255|394:233,1,45,2|0,1:2|0:0,0:0:0:0:
485,341,17002,2,0,P|490:315|498:293,1,45,8|0,0:0|0:0,0:0:0:0:
420,161,17177,6,0,B|379:151|360:97|360:97|367:153|339:179,1,180,2|2,1:2|1:2,0:0:0:0:
160,119,17704,1,8,0:0:0:0:
275,39,17879,1,0,1:0:0:0:
283,54,17967,1,0,1:0:0:0:
284,69,18055,5,2,1:0:0:0:
251,139,18230,1,2,1:2:0:0:
90,67,18405,1,8,0:0:0:0:
145,10,18581,6,0,P|129:98|116:188,1,180,2|2,1:2|1:2,0:0:0:0:
217,311,19107,1,8,0:0:0:0:
308,214,19283,2,0,P|281:222|255:231,1,45,0|0,1:0|0:0,0:0:0:0:
119,324,19458,6,0,P|68:307|17:292,1,90,12|0,0:0|0:0,0:0:0:0:
3,224,19721,1,4,3:0:0:0:
0,210,19809,2,0,P|5:187|12:162,1,45,0|0,1:0|0:0,0:0:0:0:
116,108,19984,6,0,P|105:57|89:3,1,90,8|0,0:0|0:0,0:0:0:0:
226,201,20335,2,2,P|240:136|259:66,1,123.75000377655,2|0,1:0|0:0,1:0:0:0:
344,35,20862,6,0,P|371:80|424:88,1,108,4|0,1:2|0:0,0:0:0:0:
422,88,21212,2,0,B|437:123|437:123|424:157,1,72,8|0,0:0|1:0,0:0:0:0:
299,234,21563,5,2,0:0:0:0:
226,201,21739,1,0,1:0:0:0:
276,321,21914,1,8,0:0:0:0:
298,245,22090,1,0,0:0:0:0:
181,353,22265,6,0,P|140:342|93:331,1,72,2|0,0:0|3:0,0:0:0:0:
111,335,22528,1,4,3:0:0:0:
111,335,22616,2,0,B|96:300|96:300|109:266,1,72,8|2,0:0|1:2,0:0:0:0:
206,182,22967,5,0,0:0:0:0:
183,107,23142,1,0,1:0:0:0:
31,228,23318,1,8,0:0:0:0:
56,156,23493,2,0,P|76:162|98:171,1,36,0|0,1:0|0:0,0:0:0:0:
189,280,23669,6,0,P|223:266|259:256,1,72,2|0,1:2|0:0,0:0:0:0:
257,256,23932,1,0,0:0:0:0:
257,256,24019,1,8,0:0:0:0:
367,174,24195,1,0,0:0:0:0:
365,162,24283,1,4,3:0:0:0:
357,153,24370,5,0,1:0:0:0:
282,128,24546,1,2,1:2:0:0:
403,30,24721,1,8,0:0:0:0:
429,104,24897,1,0,1:2:0:0:
254,48,25072,6,0,P|212:36|174:27,1,72,2|0,0:0|0:0,0:0:0:0:
184,29,25335,1,0,1:0:0:0:
184,29,25423,1,8,0:0:0:0:
281,229,25598,2,0,B|300:177|300:177|278:120,1,108,2|0,1:2|1:0,0:0:0:0:
281,127,25949,1,0,1:0:0:0:
141,252,26125,1,8,0:0:0:0:
116,179,26300,1,2,1:2:0:0:
230,337,26476,5,4,0:0:0:0:
305,307,26651,1,2,0:0:0:0:
141,252,26827,1,8,0:0:0:0:
83,308,27002,1,0,1:0:0:0:
241,237,27177,2,0,P|234:197|225:161,1,72,2|0,0:0|1:0,0:0:0:0:
237,34,27528,1,8,0:0:0:0:
243,45,27616,1,4,3:0:0:0:
242,58,27704,1,0,1:0:0:0:
99,93,27879,6,0,P|55:80|7:69,1,72,2|0,1:2|1:0,0:0:0:0:
29,73,28142,1,0,1:0:0:0:
29,73,28230,1,8,0:0:0:0:
117,13,28405,1,2,1:2:0:0:
144,179,28581,2,0,P|137:139|129:105,1,72,0|0,0:0|1:0,0:0:0:0:
16,231,28932,2,0,P|23:191|31:157,1,72,10|2,0:0|0:0,0:0:0:0:
167,258,29283,6,0,P|127:270|87:284,1,72,2|0,1:2|0:0,0:0:0:0:
268,221,29634,1,10,0:0:0:0:
320,337,29809,1,0,1:0:0:0:
316,349,29897,1,0,1:0:0:0:
305,360,29984,2,0,P|270:348|236:338,1,72,0|2,0:0|0:0,0:0:0:0:
404,210,30335,2,0,B|418:244|418:244|405:278,1,72,8|8,0:0|0:0,0:0:0:0:
333,258,30598,1,8,0:0:0:0:
332,246,30686,6,0,P|298:224|260:221,1,72,12|0,0:0|0:0,0:0:0:0:
185,293,30949,6,0,P|221:274|242:243,1,72,4|0,3:0|0:0,0:0:0:0:
217,142,31212,6,0,P|214:182|231:216,1,72,12|0,0:2|0:0,0:0:0:0:
295,170,31476,1,8,0:0:0:0:
302,162,31563,2,0,P|323:167|340:173,1,36,12|0,0:0|0:0,0:0:0:0:
252,44,31739,2,0,P|195:62|132:84,1,108,12|0,0:0|0:0,0:0:0:0:
47,186,32090,5,4,1:0:0:0:
3,125,32265,1,0,0:0:0:0:
149,77,32441,2,0,B|164:114|164:114|150:151,1,80.9999975280763,0|0,1:0|0:0,0:0:0:0:
80,15,32791,2,0,P|154:38|236:67,1,161.999995056153,0|8,1:0|0:0,0:0:0:0:
347,184,33318,1,2,1:2:0:0:
440,82,33493,5,0,1:0:0:0:
404,13,33669,1,2,0:0:0:0:
432,166,33844,5,0,1:0:0:0:
448,90,34020,1,2,0:0:0:0:
371,113,34195,1,0,1:0:0:0:
314,262,34370,5,8,0:0:0:0:
389,289,34546,1,4,3:0:0:0:
219,164,34721,1,8,0:0:0:0:
113,245,34897,5,2,1:2:0:0:
64,186,35072,1,0,0:0:0:0:
236,285,35248,2,0,P|275:273|320:260,1,80.9999975280763,4|0,1:2|0:0,0:0:0:0:
232,84,35598,2,0,P|224:128|217:172,1,80.9999975280763,0|0,1:0|1:0,0:0:0:0:
218,163,35862,1,4,3:0:0:0:
218,163,35949,1,8,0:0:0:0:
300,141,36125,1,2,0:0:0:0:
78,23,36300,6,0,P|90:91|101:159,1,121.499996292114,0|0,1:0|0:0,0:0:0:0:
98,142,36651,2,0,B|61:163|61:163|26:145,1,80.9999975280763,8|0,0:0|0:0,0:0:0:0:
27,145,36914,1,4,3:0:0:0:
27,145,37002,5,0,1:0:0:0:
92,294,37177,1,8,0:0:0:0:
29,254,37353,1,8,0:0:0:0:
85,333,37528,2,0,P|89:309|93:288,1,40.4999987640381,4|0,3:0|3:0,0:0:0:0:
166,238,37704,5,0,1:0:0:0:
6,374,37879,1,0,1:2:0:0:
178,321,38055,2,0,P|236:336|298:354,1,121.499996292114,12|0,0:0|0:0,0:0:0:0:
295,353,38405,5,8,0:0:0:0:
399,228,38581,1,0,1:0:0:0:
404,237,38669,1,4,3:0:0:0:
405,251,38756,2,0,P|401:274|397:299,1,40.4999987640381,4|8,3:0|3:0,0:0:0:0:
488,347,38932,2,0,P|484:327|481:307,1,40.4999987640381,4|0,3:0|0:0,0:0:0:0:
383,369,39107,5,2,1:2:0:0:
486,203,39283,1,8,0:0:0:0:
306,270,39458,2,0,B|292:230|292:230|305:191,1,80.9999975280763,8|2,0:0|0:1,0:0:0:0:
408,78,39809,6,0,B|428:90|447:87|447:87|429:93|416:111,1,80.9999975280763,8|0,0:0|0:0,0:0:0:0:
415,111,40072,1,4,3:0:0:0:
415,111,40160,1,0,1:0:0:0:
252,68,40335,1,0,3:0:0:0:
306,270,40511,6,0,B|325:276|346:267|347:240|347:240|320:116,1,161.999995056153,2|8,1:2|0:0,0:0:0:0:
173,19,40949,2,0,P|169:40|166:62,1,40.4999987640381
59,226,41212,5,10,0:0:0:0:
196,169,41388,1,0,0:0:0:0:
108,118,41563,1,0,1:0:0:0:
170,287,41739,6,0,P|179:232|196:167,1,121.499996292114,12|0,0:2|0:0,0:0:0:0:
195,168,42090,1,10,0:0:0:0:
276,291,42265,1,2,1:0:0:0:
92,364,42441,6,0,P|84:320|71:269,1,80.9999975280763,8|0,0:0|0:0,0:0:0:0:
273,85,42791,2,0,P|289:152|300:220,1,121.499996292114,12|0,0:0|0:0,0:0:0:0:
297,203,43142,1,8,0:0:0:0:
312,200,43230,1,8,0:0:0:0:
386,247,43318,6,0,P|374:294|366:343,1,80.9999975280763,4|0,0:0|0:0,0:0:0:0:
301,371,43581,1,0,0:0:0:0:
288,364,43669,2,0,P|246:351|207:341,1,80.9999975280763,8|0,0:0|1:0,0:0:0:0:
76,261,44019,5,4,3:0:0:0:
90,257,44107,1,4,3:0:0:0:
107,252,44195,2,0,P|128:245|147:240,1,40.4999987640381,8|0,3:0|3:0,0:0:0:0:
166,165,44370,2,0,P|185:175|202:185,1,40.4999987640381,8|0,1:2|1:2,0:0:0:0:
269,145,44546,2,0,P|275:165|280:185,1,40.4999987640381,0|0,1:0|1:0,0:0:0:0:
299,275,44721,5,2,1:2:0:0:
187,48,44897,1,8,0:0:0:0:
184,62,44984,1,4,3:0:0:0:
181,78,45072,1,12,0:0:0:0:
290,47,45248,1,0,0:0:0:0:
94,267,45423,5,8,3:0:0:0:
62,274,45511,1,8,3:0:0:0:
31,265,45598,1,4,3:0:0:0:
12,238,45686,1,0,3:0:0:0:
8,205,45774,1,0,1:0:0:0:
17,174,45862,1,0,1:0:0:0:
43,156,45949,1,0,1:0:0:0:
74,150,46037,1,0,1:0:0:0:
140,199,46125,6,0,P|193:187|262:173,1,99.0000030212403,12|0,0:0|0:0,0:0:0:0:
413,134,46388,6,0,P|364:144|316:155,1,99.0000030212403,0|0,1:0|0:0,0:0:0:0:
238,0,46651,6,0,P|249:47|260:96,1,99.0000030212403,12|0,0:0|0:0,0:0:0:0:
315,335,46914,6,0,P|304:286|293:238,1,99.0000030212403,0|0,1:0|0:0,0:0:0:0:
343,53,47177,5,8,0:0:0:0:
184,297,47353,1,12,0:0:0:0:
184,297,47704,1,12,0:0:0:0:
111,166,47879,1,12,0:0:0:0:
269,359,48055,1,12,0:0:0:0:
57,314,48230,6,0,P|60:299|64:284,1,24.7500007553101,0|0,1:0|0:0,0:0:0:0:
220,149,48405,2,0,B|282:125|322:160|338:191|338:191|351:226|394:264|463:238,1,269.999991760254,12|0,0:2|0:0,0:0:0:0:
422,158,48932,5,4,1:2:0:0:
493,127,49107,1,0,0:0:0:0:
308,22,49283,2,0,P|324:77|336:137,1,107.999996704102,10|0,0:1|0:0,0:0:0:0:
206,278,49634,5,2,1:2:0:0:
246,167,49809,1,2,0:0:0:0:
362,362,49984,1,8,0:0:0:0:
439,258,50160,2,0,P|408:267|372:281,1,53.9999983520508,0|0,1:0|1:0,0:0:0:0:
232,375,50335,5,2,1:2:0:0:
157,347,50511,1,2,1:0:0:0:
279,241,50686,1,10,0:1:0:0:
294,316,50862,1,0,0:0:0:0:
196,138,51037,6,0,B|84:148|139:191|49:206,1,161.999995056153,2|0,1:0|0:0,0:0:0:0:
13,113,51388,2,0,P|46:88|35:128,1,107.999996704102,8|0,0:0|1:0,0:0:0:0:
54,205,51651,1,0,1:0:0:0:
62,215,51739,6,0,P|134:236|218:263,1,161.999995056153,4|0,0:0|0:0,0:0:0:0:
251,192,52090,1,8,0:0:0:0:
196,138,52265,1,0,1:0:0:0:
339,280,52441,1,6,0:2:0:0:
363,195,52616,1,0,0:0:0:0:
231,375,52791,1,8,0:0:0:0:
193,251,52967,2,0,P|200:275|207:304,1,53.9999983520508
322,378,53142,5,0,1:0:0:0:
339,378,53230,1,10,0:1:0:0:
351,364,53318,1,0,1:0:0:0:
101,292,53493,1,8,0:0:0:0:
273,214,53669,1,2,0:0:0:0:
145,69,53844,5,10,0:1:0:0:
149,83,53932,1,0,1:0:0:0:
153,96,54019,1,2,1:0:0:0:
0,322,54195,1,8,0:0:0:0:
55,115,54370,1,8,0:2:0:0:
256,335,54546,6,0,P|177:309|92:289,1,161.999995056153,4|0,1:2|0:0,0:0:0:0:
59,225,54897,1,8,0:0:0:0:
118,384,55072,1,2,0:0:0:0:
271,198,55248,5,0,1:0:0:0:
187,233,55423,1,2,1:0:0:0:
338,308,55598,1,8,0:0:0:0:
181,101,55774,2,0,P|191:130|198:160,1,53.9999983520508,0|0,1:0|0:0,0:0:0:0:
338,308,55949,6,0,P|351:253|370:199,1,107.999996704102,4|0,1:2|0:0,0:0:0:0:
434,165,56212,1,4,3:0:0:0:
447,169,56300,1,8,0:0:0:0:
501,264,56476,1,2,0:0:0:0:
291,104,56651,5,0,1:0:0:0:
362,69,56827,1,2,1:0:0:0:
447,169,57002,1,8,0:0:0:0:
260,263,57177,1,0,1:0:0:0:
264,245,57265,1,0,1:0:0:0:
275,234,57353,6,0,P|325:245|382:259,1,107.999996704102,4|0,0:0|0:0,0:0:0:0:
185,128,57704,2,0,P|237:115|290:103,1,107.999996704102,8|0,0:0|0:0,0:0:0:0:
111,292,58055,2,0,P|148:326|191:367,1,107.999996704102,0|2,1:0|1:0,0:0:0:0:
66,88,58405,2,0,P|104:50|144:14,1,107.999996704102,8|8,0:0|0:0,0:0:0:0:
220,23,58669,1,8,0:0:0:0:
235,29,58756,6,0,P|247:75|258:141,1,107.999996704102,12|0,0:0|0:0,0:0:0:0:
382,191,59019,6,0,P|336:178|273:154,1,107.999996704102,0|0,1:0|0:0,0:0:0:0:
170,236,59283,6,0,P|203:202|255:160,1,107.999996704102,12|0,0:0|0:0,0:0:0:0:
55,104,59634,5,4,0:0:0:0:
95,199,59809,1,8,0:0:0:0:
21,370,59984,1,8,0:0:0:0:
18,352,60072,1,8,0:0:0:0:
29,337,60160,5,4,1:2:0:0:
104,361,60335,1,2,1:2:0:0:
226,242,60511,2,0,P|171:256|118:274,1,107.999996704102,10|0,0:1|0:0,0:0:0:0:
214,384,60862,5,2,1:2:0:0:
341,336,61037,1,2,0:0:0:0:
247,163,61212,1,8,0:0:0:0:
214,384,61388,1,0,1:0:0:0:
209,367,61476,1,0,1:0:0:0:
204,351,61563,5,2,1:2:0:0:
118,149,61739,1,0,1:0:0:0:
341,336,61914,2,0,P|350:283|366:228,1,107.999996704102,10|0,0:1|0:0,0:0:0:0:
189,217,62265,6,0,B|48:235|118:291|-13:311,1,215.999993408203,2|10,1:0|0:2,0:0:0:0:
15,118,62791,2,0,P|26:146|33:172,1,53.9999983520508,0|4,1:0|3:0,0:0:0:0:
177,325,62967,5,4,1:2:0:0:
273,286,63142,1,0,0:0:0:0:
451,185,63318,5,8,0:0:0:0:
355,146,63493,2,0,P|323:152|294:159,1,53.9999983520508,0|0,1:0|0:0,0:0:0:0:
482,267,63669,2,0,B|460:161|512:214|487:99,1,161.999995056153,4|0,1:2|0:0,0:0:0:0:
433,53,64019,2,0,P|425:8|462:37,1,107.999996704102,8|0,0:0|0:0,0:0:0:0:
498,98,64283,1,4,3:0:0:0:
489,108,64370,5,4,1:2:0:0:
338,220,64546,1,0,0:0:0:0:
318,25,64721,1,8,0:0:0:0:
386,122,64897,1,2,0:0:0:0:
315,37,65072,5,0,1:0:0:0:
118,180,65248,1,2,1:0:0:0:
199,73,65423,1,10,0:1:0:0:
205,86,65511,1,8,0:0:0:0:
211,99,65598,2,0,P|220:123|226:153,1,53.9999983520508,8|8,0:0|0:0,0:0:0:0:
306,346,65774,6,0,P|322:261|344:173,1,161.999995056153,4|0,1:2|0:0,0:0:0:0:
379,121,66125,1,10,0:0:0:0:
240,226,66300,1,0,0:0:0:0:
453,336,66476,5,2,1:2:0:0:
412,261,66651,1,0,0:0:0:0:
306,346,66827,1,8,0:0:0:0:
188,209,67002,2,0,P|210:215|239:225,1,53.9999983520508
136,340,67177,6,0,P|89:352|27:374,1,107.999996704102,2|0,1:0|0:0,0:0:0:0:
0,303,67441,1,0,1:0:0:0:
6,290,67528,1,8,0:0:0:0:
159,361,67704,1,0,0:0:0:0:
85,151,67879,5,2,1:0:0:0:
61,226,68055,1,0,1:0:0:0:
1,61,68230,1,8,0:0:0:0:
161,220,68405,1,0,1:0:0:0:
172,210,68493,1,4,3:0:0:0:
178,196,68581,6,0,B|206:120|206:120|178:45,1,161.999995056153,2|0,1:2|0:0,0:0:0:0:
106,11,68932,1,8,0:0:0:0:
291,69,69107,1,0,3:0:0:0:
213,293,69283,5,2,1:0:0:0:
140,333,69458,1,0,1:0:0:0:
66,213,69634,1,8,0:0:0:0:
295,229,69809,2,0,P|303:256|310:283,1,53.9999983520508,0|0,0:0|1:0,0:0:0:0:
220,46,69984,6,0,P|202:106|186:166,1,107.999996704102,12|0,0:0|0:0,0:0:0:0:
140,333,70248,6,0,P|153:280|169:229,1,107.999996704102,0|0,1:0|0:0,0:0:0:0:
295,229,70511,6,0,P|303:256|310:283,1,53.9999983520508,8|0,0:0|0:0,0:0:0:0:
99,132,70686,6,0,P|82:70|64:8,1,107.999996704102,2|8,0:0|0:0,0:0:0:0:
52,254,71037,6,0,P|128:226|219:196,1,161.999995056153,10|0,0:2|0:0,0:0:0:0:
204,200,71388,5,4,1:2:0:0:
286,303,71563,1,0,1:0:0:0:
311,144,71739,1,0,1:0:0:0:
164,335,71914,1,8,0:0:0:0:
227,107,72090,1,2,1:0:0:0:
360,299,72265,1,0,1:0:0:0:
132,55,72441,1,8,0:0:0:0:
33,354,72616,1,8,0:0:0:0:
333,24,72791,5,4,1:2:0:0:
333,24,73493,6,0,B|355:33|378:30|403:18|403:18|373:62|335:97|335:97|366:89|391:92|415:110,1,251.999992309571,2|2,0:0|0:0,0:0:0:0:
278,233,74107,1,0,3:0:0:0:
269,223,74195,6,0,P|282:148|296:75,1,135,6|0,0:2|0:0,0:0:0:0:
333,24,74546,2,0,P|344:11|342:30,1,45,8|0,0:0|0:0,0:0:0:0:
173,105,74721,6,0,B|129:88|102:112|90:134|90:134|81:158|51:185|3:166,1,180,2|2,0:0|1:0,0:0:0:0:
163,242,75247,1,8,0:0:0:0:
21,96,75423,6,0,P|37:169|49:233,1,135,2|0,1:0|0:0,0:0:0:0:
94,292,75774,2,0,P|86:328|80:360,1,45,0|0,1:0|0:0,0:0:0:0:
163,242,75949,2,0,P|171:278|177:310,1,45,8|0,0:0|0:0,0:0:0:0:
308,384,76125,6,0,B|326:353|383:338|383:338|326:348|295:325,1,180,2|2,0:0|1:2,0:0:0:0:
163,242,76651,1,8,0:0:0:0:
281,154,76826,1,0,1:0:0:0:
296,165,76914,1,0,1:0:0:0:
301,183,77002,5,2,1:0:0:0:
263,249,77177,1,0,1:0:0:0:
100,205,77352,1,8,0:0:0:0:
87,287,77528,6,0,P|173:267|262:248,1,180,2|0,1:2|1:0,0:0:0:0:
372,321,78054,1,8,0:0:0:0:
245,383,78230,2,0,P|250:361|256:339,1,45,0|0,1:0|1:0,0:0:0:0:
349,245,78405,5,2,1:0:0:0:
372,321,78580,1,0,1:0:0:0:
444,183,78756,1,8,0:0:0:0:
382,129,78931,6,0,P|338:140|295:152,1,90,2|8,0:0|3:0,0:0:0:0:
246,212,79195,1,8,3:0:0:0:
236,219,79282,2,0,P|192:207|149:196,1,90,4|0,1:2|0:0,0:0:0:0:
201,54,79633,2,0,P|207:74|212:102,1,45,0|0,1:0|0:0,0:0:0:0:
153,281,79809,6,0,B|77:260|77:260|58:283|19:283,1,135,4|0,0:0|0:0,0:0:0:0:
16,208,80160,2,0,P|16:187|28:204,1,45,8|0,0:0|0:0,0:0:0:0:
81,349,80335,6,0,P|168:323|256:300,1,180,2|2,0:0|1:0,0:0:0:0:
159,175,80861,1,8,0:0:0:0:
324,368,81037,6,0,B|347:300|347:300|318:238,1,135,2|0,1:0|0:0,0:0:0:0:
275,178,81388,2,0,P|279:156|287:134,1,45,0|0,1:0|0:0,0:0:0:0:
393,72,81563,2,0,P|400:93|404:115,1,45,8|0,0:0|0:0,0:0:0:0:
448,226,81739,6,0,P|361:200|273:177,1,180,2|2,1:2|1:2,0:0:0:0:
131,279,82265,1,8,0:0:0:0:
237,360,82440,1,0,1:0:0:0:
248,346,82528,1,0,1:0:0:0:
252,330,82616,5,2,1:0:0:0:
216,262,82791,1,2,1:2:0:0:
111,366,82966,1,8,0:0:0:0:
63,313,83142,6,0,P|138:331|241:361,1,180,2|2,1:2|1:2,0:0:0:0:
332,257,83668,1,8,0:0:0:0:
204,218,83844,2,0,P|212:245|217:266,1,45,0|0,1:0|0:0,0:0:0:0:
308,343,84019,6,0,P|322:286|338:231,1,90,12|0,0:0|0:0,0:0:0:0:
384,195,84282,1,4,3:0:0:0:
387,181,84370,2,0,P|382:158|375:133,1,45,0|0,1:0|0:0,0:0:0:0:
313,58,84546,6,0,P|278:87|228:84,1,90,8|0,0:0|0:0,0:0:0:0:
95,180,84897,2,2,P|157:180|205:221,1,123.75000377655,2|0,1:0|0:0,1:0:0:0:
264,292,85423,6,0,P|338:273|407:257,1,144,4|8,1:2|1:0,0:0:0:0:
403,257,86300,2,0,P|411:267|409:251,1,36,2|0,1:2|0:0,0:0:0:0:
355,168,86476,1,10,0:0:0:0:
194,230,86651,6,0,B|107:214|141:267|57:252,1,144,2|2,1:2|3:2,0:0:0:0:
171,128,87177,1,8,0:0:0:0:
171,128,87704,2,0,P|179:160|185:200,1,72,2|8,1:2|0:0,0:0:0:0:
293,72,88055,2,0,P|289:88|286:108,1,36,2|0,0:0|0:0,0:0:0:0:
369,252,88230,6,0,B|393:231|435:223|435:223|393:223|365:202,1,144,2|8,1:2|0:0,0:0:0:0:
367,203,89107,2,0,P|372:187|375:207,1,36,2|0,1:2|0:0,0:0:0:0:
467,295,89283,1,8,0:0:0:0:
336,344,89458,6,0,P|353:261|371:189,1,144,2|0,1:2|1:0,0:0:0:0:
258,91,89984,1,8,0:0:0:0:
155,253,90160,6,0,P|138:170|120:98,1,144,2|0,1:2|1:0,0:0:0:0:
233,0,90686,1,8,0:0:0:0:
330,147,90862,1,2,1:2:0:0:
340,136,90949,1,0,1:0:0:0:
343,120,91037,5,4,0:0:0:0:
326,45,91212,1,2,0:0:0:0:
449,104,91388,5,8,0:0:0:0:
432,179,91563,1,0,1:0:0:0:
315,256,91739,5,2,0:0:0:0:
240,229,91914,1,0,1:0:0:0:
341,337,92090,5,8,0:0:0:0:
320,263,92265,2,0,B|326:238|330:223|331:223,1,36,0|0,1:0|0:0,0:0:0:0:
195,310,92441,6,0,B|191:293|199:326|212:379,1,72,2|0,1:2|1:0,0:0:0:0:
60,219,92791,2,0,B|63:202|55:235|42:288,1,72,8|2,0:0|1:2,0:0:0:0:
142,148,93142,2,0,B|138:131|146:164|159:217,1,72,0|0,0:0|1:0,0:0:0:0:
53,62,93493,1,10,0:0:0:0:
26,133,93669,1,2,0:0:0:0:
186,36,93844,5,2,1:2:0:0:
249,82,94019,1,0,0:0:0:0:
127,218,94195,2,0,P|137:168|145:136,1,72,10|0,0:0|1:0,0:0:0:0:
272,264,94546,1,0,1:0:0:0:
282,256,94634,1,8,0:0:0:0:
285,242,94721,2,0,P|280:217|264:181,1,36,2|0,0:0|0:0,0:0:0:0:
166,348,94897,1,8,0:0:0:0:
193,277,95072,1,8,0:0:0:0:
387,335,95248,6,0,P|345:347|303:362,1,72,12|0,0:0|0:0,0:0:0:0:
437,265,95511,6,0,P|394:254|350:246,1,72,4|0,3:0|1:0,0:0:0:0:
503,225,95774,6,0,P|471:194|437:165,1,72,12|0,0:2|0:0,0:0:0:0:
372,162,96037,1,8,0:0:0:0:
362,153,96125,2,0,P|367:129|373:108,1,36,12|0,0:0|0:0,0:0:0:0:
279,221,96300,2,0,P|264:152|247:91,1,108,12|0,0:0|0:0,0:0:0:0:
323,4,96651,5,4,1:0:0:0:
394,36,96826,1,0,0:0:0:0:
254,115,97002,2,0,B|239:78|239:78|253:41,1,80.9999975280763,0|0,1:0|0:0,0:0:0:0:
106,0,97353,2,0,P|122:66|138:169,1,161.999995056153,0|8,1:0|0:0,0:0:0:0:
47,303,97879,1,2,1:2:0:0:
1,195,98054,5,0,1:0:0:0:
73,223,98230,1,0,0:0:0:0:
169,348,98405,5,0,1:0:0:0:
227,299,98581,1,0,0:0:0:0:
195,228,98756,1,0,1:0:0:0:
321,375,98931,5,8,0:0:0:0:
353,303,99107,1,4,3:0:0:0:
169,348,99282,1,8,0:0:0:0:
266,180,99458,5,2,1:2:0:0:
329,225,99633,1,0,0:0:0:0:
431,156,99809,2,0,P|422:111|412:71,1,80.9999975280763,4|0,1:2|0:0,0:0:0:0:
246,14,100159,2,0,P|238:58|231:102,1,80.9999975280763,0|0,1:0|1:0,0:0:0:0:
232,93,100423,1,4,3:0:0:0:
232,93,100510,1,8,0:0:0:0:
311,64,100686,1,2,0:0:0:0:
136,86,100861,6,0,P|148:154|159:222,1,121.499996292114,0|0,1:0|0:0,0:0:0:0:
156,205,101212,2,0,P|194:195|242:185,1,80.9999975280763,8|0,0:0|0:0,0:0:0:0:
235,186,101475,1,4,3:0:0:0:
235,186,101563,5,0,1:0:0:0:
304,243,101738,1,8,0:0:0:0:
204,358,101914,1,8,0:0:0:0:
271,314,102089,2,0,P|274:333|277:353,1,40.4999987640381,4|0,3:0|3:0,0:0:0:0:
198,273,102265,5,2,1:2:0:0:
358,354,102440,1,0,1:2:0:0:
105,314,102616,2,0,P|120:245|133:195,1,121.499996292114,12|0,0:0|0:0,0:0:0:0:
74,137,102966,5,8,0:0:0:0:
223,189,103142,1,0,1:0:0:0:
240,184,103230,1,4,3:0:0:0:
245,170,103317,2,0,P|241:150|238:130,1,40.4999987640381,4|8,3:0|3:0,0:0:0:0:
172,48,103493,2,0,P|168:67|165:87,1,40.4999987640381,4|0,3:0|0:0,0:0:0:0:
263,47,103668,5,2,1:2:0:0:
132,195,103844,1,8,0:0:0:0:
338,296,104019,2,0,P|328:250|319:210,1,80.9999975280763,8|2,0:0|0:1,0:0:0:0:
182,348,104370,6,0,P|156:327|189:335,1,80.9999975280763,8|0,0:0|0:0,0:0:0:0:
185,324,104633,1,4,3:0:0:0:
185,324,104721,1,0,1:0:0:0:
298,373,104896,1,0,3:0:0:0:
473,238,105072,6,0,B|435:223|411:244|401:263|401:263|394:284|368:307|326:291,1,161.999995056153,2|8,1:2|0:0,0:0:0:0:
478,382,105598,2,0,P|475:361|471:342,1,40.4999987640381,0|0,1:0|0:0,0:0:0:0:
337,212,105773,5,10,0:0:0:0:
298,373,105949,1,0,1:0:0:0:
418,155,106124,1,0,1:0:0:0:
221,289,106300,6,0,P|156:267|86:249,1,121.499996292114,12|0,0:2|0:0,0:0:0:0:
104,253,106651,1,10,0:0:0:0:
35,325,106826,1,2,1:0:0:0:
125,154,107002,6,0,P|77:167|30:183,1,80.9999975280763,8|0,0:0|0:0,0:0:0:0:
198,44,107353,2,0,P|273:64|347:89,1,121.499996292114,12|0,0:0|0:0,0:0:0:0:
314,77,107703,1,8,0:0:0:0:
329,89,107791,1,8,0:0:0:0:
362,160,107879,6,0,P|330:185|281:187,1,80.9999975280763,4|0,0:0|0:0,0:0:0:0:
262,258,108142,1,0,3:0:0:0:
254,267,108230,2,0,P|221:242|206:195,1,80.9999975280763,8|0,0:0|1:0,0:0:0:0:
126,174,108580,5,4,3:0:0:0:
112,178,108668,1,4,3:0:0:0:
95,183,108756,2,0,P|74:190|55:195,1,40.4999987640381,8|0,3:0|0:0,0:0:0:0:
8,134,108932,2,0,P|13:109|21:86,1,40.4999987640381,8|0,1:2|1:2,0:0:0:0:
4,251,109107,2,0,P|9:270|13:290,1,40.4999987640381,0|0,1:0|1:0,0:0:0:0:
38,382,109282,5,2,1:2:0:0:
204,218,109458,1,8,0:0:0:0:
201,232,109545,1,4,3:0:0:0:
198,248,109633,1,12,0:0:0:0:
170,370,109809,1,0,0:0:0:0:
367,355,109984,5,8,3:0:0:0:
387,320,110071,1,8,3:0:0:0:
391,280,110159,1,4,3:0:0:0:
375,243,110247,1,0,3:0:0:0:
346,215,110334,1,0,1:0:0:0:
326,180,110422,1,0,1:0:0:0:
326,140,110510,1,0,1:0:0:0:
342,103,110598,1,0,1:0:0:0:
416,153,110686,6,0,P|469:141|538:127,1,99.0000030212403,12|0,0:0|0:0,0:0:0:0:
375,243,110949,6,0,P|423:253|471:264,1,99.0000030212403,0|0,1:0|0:0,0:0:0:0:
229,161,111212,6,0,P|282:149|351:135,1,99.0000030212403,12|0,0:0|0:0,0:0:0:0:
173,291,111475,6,0,P|221:301|269:312,1,99.0000030212403,0|0,1:0|0:0,0:0:0:0:
62,153,111738,5,8,0:0:0:0:
126,384,111914,1,12,0:0:0:0:
126,384,112265,1,12,0:0:0:0:
207,305,112440,1,12,0:0:0:0:
16,257,112616,1,12,0:0:0:0:
229,155,112791,6,0,P|231:167|234:179,1,24.7500007553101,0|0,1:0|1:0,0:0:0:0:
341,338,112967,2,0,B|382:344|402:306|391:259|360:229|242:247|306:312|204:304,1,269.999991760254,4|0,1:2|0:0,0:0:0:0:
143,239,113493,6,0,B|123:179|123:179|143:124,1,121.499996292114,4|0,0:0|0:0,0:0:0:0:
235,29,113844,6,0,P|247:51|252:79,3,40.4999987640381,8|0|2|0,0:0|0:0|0:0|0:0,0:0:0:0:
142,124,114195,2,0,P|155:102|176:84,3,40.4999987640381,2|0|2|2,0:0|0:0|0:2|0:2,0:0:0:0:
266,165,114546,2,0,P|240:164|214:154,3,40.4999987640381,8|0|2|0,0:0|0:0|0:0|0:0,0:0:0:0:
115,235,114897,5,2,0:0:0:0:
99,263,114984,1,2,0:0:0:0:
91,294,115072,1,2,1:2:0:0:
103,324,115160,1,2,0:0:0:0:
127,345,115248,1,10,0:0:0:0:
156,357,115335,1,0,0:0:0:0:
188,354,115423,1,2,0:0:0:0:
215,336,115511,1,0,0:0:0:0:
237,312,115598,5,2,1:2:0:0:
278,288,115686,1,2,0:0:0:0:
325,298,115774,1,2,0:0:0:0:
361,331,115862,1,2,0:0:0:0:
430,282,115949,6,0,B|426:254|426:254|419:243|419:243|422:232|422:232|415:221|415:221|413:213|413:213|417:204|417:204|413:194|413:194|407:171,1,107.999996704102,8|0,0:0|0:0,0:0:0:0:
338,148,116212,1,0,1:0:0:0:
326,141,116300,6,0,P|301:148|281:161,3,40.4999987640381,2|0|2|0,1:2|0:0|0:2|0:0,0:0:0:0:
334,34,116651,2,0,P|352:52|373:62,3,40.4999987640381,10|0|2|0,0:0|0:0|0:0|0:0,0:0:0:0:
238,81,117002,2,0,P|244:55|243:32,3,40.4999987640381,2|0|0|0,1:2|0:0|0:0|0:0,0:0:0:0:
326,141,117353,2,0,P|332:167|331:190,3,40.4999987640381,10|0|10|0,0:0|0:0|0:0|0:0,0:0:0:0:
240,258,117704,5,10,0:0:0:0:
230,246,117791,2,0,P|204:238|174:230,2,40.4999987640381,10|0|0,0:0|0:0|0:0,0:0:0:0:
337,292,118055,2,0,P|363:284|393:276,1,40.4999987640381,10|0,0:1|0:0,0:0:0:0:
258,356,118230,5,0,1:0:0:0:
313,146,118493,1,8,0:0:0:0:
326,141,118581,2,0,P|344:145|365:153,3,40.4999987640381,10|0|0|0,0:0|0:0|0:0|0:0,0:0:0:0:
444,257,118932,6,0,B|457:267|475:268|479:240|479:240|458:163,1,121.499996292114,4|0,1:2|0:0,0:0:0:0:
435,99,119283,1,2,0:0:0:0:
278,237,119458,1,8,0:0:0:0:
313,146,119634,1,0,1:0:0:0:
370,294,119809,1,2,0:0:0:0:
215,126,119984,1,2,1:2:0:0:
274,357,120160,1,8,0:0:0:0:
381,199,120335,1,2,0:0:0:0:
176,263,120511,5,2,0:0:0:0:
162,254,120598,1,2,0:0:0:0:
158,237,120686,2,0,P|163:211|172:190,1,45,2|0,0:0|1:0,0:0:0:0:
44,229,120862,2,0,P|64:246|77:264,1,45,8|0,0:0|0:0,0:0:0:0:
195,342,121037,6,0,P|253:326|327:307,1,135,2|0,0:0|1:0,0:0:0:0:
381,358,121388,1,2,0:0:0:0:
264,187,121563,1,8,0:0:0:0:
416,284,121739,1,0,1:0:0:0:
428,272,121826,1,4,3:0:0:0:
434,258,121914,5,12,0:0:0:0:
437,178,122090,1,0,1:0:0:0:
362,153,122265,1,0,1:0:0:0:
259,286,122441,5,12,0:0:0:0:
155,215,122617,1,2,1:2:0:0:
190,97,122792,1,0,1:0:0:0:
357,333,122967,5,12,0:0:0:0:
249,183,123142,1,0,1:0:0:0:
262,189,123230,1,2,3:2:0:0:
272,204,123318,1,2,1:2:0:0:
259,286,123405,6,0,P|202:302|141:324,1,107.999996704102,8|0,0:0|0:0,0:0:0:0:
30,263,123669,6,0,P|82:277|133:295,1,107.999996704102,10|0,0:0|1:0,0:0:0:0:
203,87,124107,1,0,1:0:0:0:
190,97,124195,2,0,P|180:153|173:210,1,107.999996704102,12|0,0:0|0:0,0:0:0:0:
82,38,124546,2,0,P|87:67|91:98,1,53.9999983520508,0|0,1:0|0:0,0:0:0:0:
274,209,124721,5,4,1:2:0:0:
343,169,124897,2,0,P|349:191|358:228,1,53.9999983520508,2|0,0:0|0:0,0:0:0:0:
334,344,125072,1,10,0:2:0:0:
267,290,125248,1,0,0:0:0:0:
431,185,125423,5,2,1:2:0:0:
446,196,125511,1,0,1:2:0:0:
453,215,125598,1,2,0:0:0:0:
418,347,125774,1,8,0:0:0:0:
495,327,125949,2,0,P|501:300|508:274,1,53.9999983520508
391,109,126125,5,2,1:2:0:0:
477,19,126300,2,0,P|467:48|457:84,1,53.9999983520508,2|0,0:0|0:0,0:0:0:0:
341,175,126476,1,8,0:0:0:0:
512,135,126651,1,0,0:0:0:0:
344,22,126827,5,2,1:2:0:0:
324,32,126914,1,0,1:2:0:0:
312,52,127002,1,2,0:0:0:0:
253,186,127177,5,10,0:0:0:0:
130,89,127353,2,0,P|140:118|150:154,1,53.9999983520508
36,267,127528,5,2,1:2:0:0:
20,257,127616,1,2,1:2:0:0:
11,241,127704,2,0,P|18:215|27:189,1,53.9999983520508
185,272,127879,1,8,0:0:0:0:
115,320,128055,1,0,0:0:0:0:
253,186,128230,5,2,0:0:0:0:
324,233,128405,1,2,0:0:0:0:
192,353,128581,1,8,0:0:0:0:
317,384,128756,2,0,P|309:358|303:331,1,53.9999983520508,0|0,0:0|1:0,0:0:0:0:
422,161,128932,6,0,P|369:146|318:130,1,107.999996704102,12|0,0:0|0:0,0:0:0:0:
132,72,129195,6,0,P|183:87|235:102,1,107.999996704102,8|0,0:0|0:0,0:0:0:0:
301,49,129458,5,12,0:0:0:0:
243,248,129634,1,0,1:0:0:0:
252,258,129721,6,0,P|303:242|355:227,1,107.999996704102,8|0,0:0|0:0,0:0:0:0:
174,289,129984,6,0,P|121:303|70:319,1,107.999996704102,8|8,0:0|3:0,0:0:0:0:
20,258,130248,1,8,0:0:0:0:
14,248,130335,6,0,P|24:200|38:156,1,90,4|0,1:2|0:0,0:0:0:0:
175,45,130686,2,0,P|135:66|97:90,1,90,8|0,0:0|1:0,0:0:0:0:
247,240,131037,5,4,1:2:0:0:
257,231,131125,1,4,3:0:0:0:
264,217,131212,2,0,P|260:194|254:173,1,45,4|0,3:0|0:0,0:0:0:0:
379,225,131388,2,0,P|361:239|345:255,1,45,0|2,1:0|1:2,0:0:0:0:
328,121,131563,2,0,P|349:129|371:134,1,45,2|0,1:2|1:2,0:0:0:0:
259,68,131739,5,4,1:2:0:0:
446,172,131914,1,0,1:0:0:0:
457,164,132002,1,0,1:0:0:0:
460,149,132090,1,8,0:0:0:0:
408,63,132265,1,0,0:0:0:0:
275,245,132441,5,10,1:1:0:0:
269,230,132528,1,8,0:0:0:0:
266,216,132616,2,0,P|258:187|251:163,1,45,8|8,0:0|0:0,0:0:0:0:
126,47,132791,5,8,3:0:0:0:
121,65,132878,1,4,3:0:0:0:
118,79,132967,2,0,P|110:108|103:132,1,45,8|8,0:0|0:0,0:0:0:0:
27,263,133142,6,0,B|17:236|30:212|69:217|69:217|169:243,1,180,12|0,0:0|1:0,0:0:0:0:
322,335,133669,1,12,0:2:0:0:
275,245,133844,1,0,1:0:0:0:
210,367,134019,1,0,1:0:0:0:
367,224,134195,2,0,P|359:179|349:135,1,90,12|0,1:2|1:0,0:0:0:0:
196,282,134546,5,12,0:2:0:0:
253,158,134721,1,2,1:2:0:0:
322,335,134897,1,0,1:0:0:0:
179,114,135072,1,12,0:2:0:0:
101,303,135248,1,2,1:2:0:0:
254,65,135423,1,0,1:0:0:0:
336,312,135598,1,12,1:2:0:0:
177,17,135774,1,0,0:0:0:0:
22,354,135949,6,0,P|13:297|2:245,1,107.999996704102,6|0,1:0|0:0,0:0:0:0:
12,172,136212,1,8,0:0:0:0:
14,160,136300,2,0,P|36:146|70:142,1,53.9999983520508,8|0,0:0|0:0,0:0:0:0:
231,297,136476,6,0,P|241:237|251:188,1,107.999996704102,10|0,0:0|1:0,0:0:0:0:
232,107,136739,1,0,1:0:0:0:
219,90,136827,2,0,P|197:76|163:72,1,53.9999983520508,8|0,0:0|0:0,0:0:0:0:
123,196,137002,5,8,2:0:0:0:
436,80,137177,1,14,1:1:0:0:
256,192,137265,12,0,141914,0:0:0:0:
256,192,142265,6,0,P|222:183|180:173,1,72,2|0,0:0|0:0,0:0:0:0:
137,117,142791,1,0,0:0:0:0:
289,276,142967,6,0,B|270:173|319:218|296:113,1,161.999995056153,4|0,1:2|0:0,0:0:0:0:
254,51,143318,1,10,0:1:0:0:
424,187,143493,2,0,P|428:156|433:131,1,53.9999983520508,0|0,0:0|3:0,0:0:0:0:
493,270,143669,5,2,1:2:0:0:
419,300,143844,1,2,0:0:0:0:
262,167,144019,1,8,0:0:0:0:
336,197,144194,1,0,1:0:0:0:
188,323,144370,5,2,1:2:0:0:
165,218,144546,1,2,1:0:0:0:
335,95,144721,2,0,B|354:148|354:148|335:198,1,107.999996704102,10|0,0:1|0:0,0:0:0:0:
193,97,145072,2,0,B|165:88|146:35|146:35|157:89|143:114,1,161.999995056153,2|0,1:0|0:0,0:0:0:0:
87,171,145423,1,8,0:0:0:0:
274,296,145598,1,0,1:0:0:0:
284,286,145686,1,0,1:0:0:0:
288,272,145774,5,4,0:0:0:0:
245,208,145949,1,0,0:0:0:0:
126,314,146125,1,8,0:0:0:0:
145,238,146300,1,0,1:0:0:0:
200,365,146476,1,6,0:2:0:0:
31,305,146651,1,0,0:0:0:0:
245,208,146827,1,8,0:0:0:0:
102,102,147002,2,0,P|96:129|92:155,1,53.9999983520508
295,321,147177,5,0,1:0:0:0:
291,307,147265,1,10,0:1:0:0:
287,292,147353,1,0,0:0:0:0:
237,104,147528,1,8,0:0:0:0:
145,238,147704,1,2,0:0:0:0:
416,182,147879,5,10,0:1:0:0:
425,191,147967,1,0,1:0:0:0:
428,206,148055,1,2,1:0:0:0:
140,109,148230,1,8,0:0:0:0:
443,45,148405,1,8,0:2:0:0:
213,294,148581,6,0,P|128:267|46:245,1,161.999995056153,4|0,1:2|0:0,0:0:0:0:
13,186,148932,1,8,0:0:0:0:
71,350,149107,1,2,0:0:0:0:
198,208,149283,5,0,1:0:0:0:
288,245,149458,1,2,1:0:0:0:
171,363,149634,1,8,0:0:0:0:
276,192,149809,2,0,P|283:219|288:251,1,53.9999983520508,0|0,1:0|0:0,0:0:0:0:
124,269,149984,6,0,B|106:217|106:217|125:164,1,107.999996704102,4|0,1:2|0:0,0:0:0:0:
167,105,150248,1,4,3:0:0:0:
181,98,150335,1,8,0:0:0:0:
9,146,150511,1,2,0:0:0:0:
25,0,150686,5,0,1:0:0:0:
50,72,150862,1,2,1:0:0:0:
161,193,151037,1,8,0:0:0:0:
299,111,151212,1,0,1:0:0:0:
293,123,151300,1,0,1:0:0:0:
283,131,151388,6,0,P|233:112|172:95,1,107.999996704102,4|0,0:0|0:0,0:0:0:0:
403,151,151739,2,0,P|394:98|378:36,1,107.999996704102,8|0,0:0|0:0,0:0:0:0:
432,267,152090,2,0,P|473:233|518:188,1,107.999996704102,0|2,1:0|1:0,0:0:0:0:
311,351,152441,2,0,P|361:370|422:386,1,107.999996704102,8|8,0:0|0:0,0:0:0:0:
480,347,152704,1,8,0:0:0:0:
486,333,152791,5,12,0:0:0:0:
393,180,152967,1,2,0:0:0:0:
270,252,153142,1,8,0:0:0:0:
240,95,153318,6,0,P|292:106|348:120,1,107.999996704102,12|0,0:0|0:0,0:0:0:0:
393,180,153581,1,0,1:0:0:0:
396,193,153669,1,4,0:0:0:0:
192,274,153844,1,8,0:0:0:0:
248,178,154019,1,8,0:0:0:0:
413,366,154195,6,0,B|428:342|480:329|480:329|428:336|399:314,1,161.999995056153,4|0,1:2|0:0,0:0:0:0:
347,256,154546,1,10,0:1:0:0:
478,150,154721,2,0,P|485:177|490:207,1,53.9999983520508
422,84,154897,5,2,1:2:0:0:
351,117,155072,1,2,0:0:0:0:
419,0,155248,1,8,0:0:0:0:
490,35,155423,1,0,1:0:0:0:
278,193,155598,6,0,B|246:118|246:118|278:33,1,161.999995056153,2|0,1:2|0:0,0:0:0:0:
208,0,155949,2,0,P|157:16|106:34,1,107.999996704102,10|0,0:1|0:0,0:0:0:0:
134,211,156300,5,2,1:0:0:0:
174,128,156476,1,2,1:0:0:0:
46,294,156651,1,10,0:2:0:0:
2,198,156827,1,0,1:0:0:0:
5,183,156914,1,4,3:0:0:0:
15,172,157002,5,4,1:2:0:0:
134,211,157177,1,0,0:0:0:0:
14,379,157353,1,8,0:0:0:0:
144,263,157528,2,0,P|137:225|132:206,1,53.9999983520508,0|0,1:0|0:0,0:0:0:0:
95,121,157704,5,4,1:2:0:0:
329,192,157879,1,0,0:0:0:0:
144,354,158055,1,8,0:0:0:0:
206,187,158230,1,0,0:0:0:0:
367,301,158405,5,4,1:2:0:0:
301,101,158581,1,0,0:0:0:0:
219,350,158756,1,8,0:0:0:0:
416,164,158932,1,2,0:0:0:0:
422,178,159019,1,0,1:0:0:0:
415,193,159107,6,0,P|390:185|364:178,1,53.9999983520508,0|0,1:0|0:0,0:0:0:0:
249,85,159283,2,0,P|275:91|300:100,1,53.9999983520508,2|0,1:0|0:0,0:0:0:0:
256,240,159458,2,0,P|262:213|271:188,1,53.9999983520508,10|0,0:1|0:0,0:0:0:0:
407,38,159634,2,0,P|398:63|391:89,1,53.9999983520508,8|8,0:0|0:0,0:0:0:0:
163,228,159809,6,0,P|139:140|108:54,1,161.999995056153,4|0,1:2|0:0,0:0:0:0:
50,116,160160,1,10,0:0:0:0:
229,161,160335,1,0,0:0:0:0:
42,303,160511,5,2,1:2:0:0:
65,229,160686,1,0,0:0:0:0:
230,371,160862,1,8,0:0:0:0:
192,303,161037,2,0,P|167:312|140:323,1,53.9999983520508
295,224,161212,6,0,P|372:251|455:285,1,161.999995056153,2|0,1:0|0:0,0:0:0:0:
484,351,161563,1,8,0:0:0:0:
416,168,161739,1,0,0:0:0:0:
320,330,161914,5,2,1:0:0:0:
391,295,162090,1,0,1:0:0:0:
226,161,162265,1,8,0:0:0:0:
333,62,162441,1,0,1:0:0:0:
339,73,162528,1,4,3:0:0:0:
337,91,162616,6,0,P|261:67|180:43,1,161.999995056153,2|0,1:2|0:0,0:0:0:0:
125,97,162967,1,8,0:0:0:0:
203,239,163142,1,0,3:0:0:0:
21,303,163318,5,2,1:0:0:0:
42,223,163493,1,0,1:0:0:0:
192,338,163669,1,8,0:0:0:0:
94,381,163844,2,0,P|104:344|111:321,1,53.9999983520508,0|0,0:0|1:0,0:0:0:0:
284,285,164019,6,0,P|319:323|383:319,1,107.999996704102,12|0,0:0|0:0,0:0:0:0:
429,270,164283,1,0,1:0:0:0:
438,260,164370,2,0,P|432:230|424:205,1,53.9999983520508,8|0,0:0|0:0,0:0:0:0:
330,94,164546,2,0,P|322:119|317:146,1,53.9999983520508,8|0,0:0|0:0,0:0:0:0:
348,219,164721,1,0,0:0:0:0:
426,41,164897,6,0,P|317:66|205:97,1,215.999993408203,8|0,0:0|1:0,0:0:0:0:
100,237,165423,1,4,1:2:0:0:
168,167,165598,1,0,1:0:0:0:
132,327,165774,1,0,1:0:0:0:
57,146,165949,1,8,0:0:0:0:
232,294,166125,1,2,1:0:0:0:
153,83,166300,1,0,1:0:0:0:
25,329,166476,1,8,0:0:0:0:
71,52,166651,1,8,0:0:0:0:
205,376,166827,5,4,1:2:0:0:
205,376,167528,6,0,B|181:363|154:365|134:376|134:376|159:336|198:297|198:297|167:308|142:305|112:287,1,251.999992309571,2|2,0:0|0:0,0:0:0:0:
252,156,168230,6,0,P|312:173|381:196,1,135,6|0,0:2|0:0,0:0:0:0:
435,138,168581,2,0,P|429:110|421:88,1,45,8|0,0:0|0:0,0:0:0:0:
252,156,168756,6,0,B|216:131|164:153|164:153|214:127|227:87,1,180,2|2,0:0|1:0,0:0:0:0:
199,233,169282,1,8,0:0:0:0:
64,71,169458,6,0,B|40:135|40:135|65:197,1,135,2|0,1:0|0:0,0:0:0:0:
101,264,169809,2,0,P|94:284|90:315,1,45,0|0,1:0|0:0,0:0:0:0:
0,237,169984,2,0,P|7:257|11:288,1,45,8|0,0:0|0:0,0:0:0:0:
159,369,170160,6,0,P|235:340|225:251,1,180,2|2,0:0|1:2,0:0:0:0:
156,108,170686,1,8,0:0:0:0:
293,190,170861,1,0,1:0:0:0:
304,176,170949,1,0,1:0:0:0:
303,162,171037,5,2,1:0:0:0:
276,91,171212,1,0,1:0:0:0:
386,219,171387,1,8,0:0:0:0:
425,151,171563,6,0,P|410:238|396:336,1,180,2|0,1:2|1:0,0:0:0:0:
256,257,172089,1,8,0:0:0:0:
303,372,172265,2,0,P|297:347|290:325,1,45,0|0,1:0|0:0,0:0:0:0:
163,214,172441,5,2,1:0:0:0:
147,222,172528,1,0,1:0:0:0:
137,236,172616,2,0,P|130:257|125:279,1,45,0|0,1:0|0:0,0:0:0:0:
238,172,172791,1,8,0:0:0:0:
157,371,172967,6,0,P|107:355|57:343,1,90,2|8,0:0|3:0,0:0:0:0:
19,289,173230,1,8,3:0:0:0:
13,276,173318,2,0,P|23:224|34:184,1,90,4|0,1:2|0:0,0:0:0:0:
114,52,173668,2,0,P|109:29|103:8,1,45,0|0,1:0|0:0,0:0:0:0:
166,148,173844,6,0,B|260:125|260:125|281:153|324:152,1,161.999995056153,4|0,1:2|0:0,0:0:0:0:
367,90,174195,2,0,P|371:44|343:80,1,107.999996704102,8|2,0:0|1:0,0:0:0:0:
504,282,174546,5,8,0:0:0:0:
452,131,174721,1,2,1:0:0:0:
293,349,174897,1,8,0:0:0:0:
231,187,175072,2,0,P|261:194|293:204,1,53.9999983520508,2|0,1:2|0:0,0:0:0:0:
119,318,175248,6,0,B|100:213|155:261|128:143,1,161.999995056153,12|0,0:0|1:0,0:0:0:0:
178,95,175598,2,0,B|227:72|227:72|276:95,1,107.999996704102,8|2,0:0|1:0,0:0:0:0:
377,264,175949,5,8,0:0:0:0:
231,187,176125,1,2,1:2:0:0:
445,128,176300,1,8,0:0:0:0:
486,325,176476,2,0,P|479:286|473:260,1,53.9999983520508,0|0,1:0|0:0,0:0:0:0:
342,54,176651,5,12,0:0:0:0:
310,192,176827,1,2,1:0:0:0:
444,8,177002,1,8,0:0:0:0:
496,144,177177,2,0,P|463:133|437:126,1,53.9999983520508,4|0,1:2|1:0,0:0:0:0:
228,118,177353,6,0,B|206:170|206:170|227:220,1,107.999996704102,8|0,0:0|0:0,0:0:0:0:
273,279,177616,1,8,0:0:0:0:
281,288,177704,1,8,0:0:0:0:
161,342,177879,1,0,1:0:0:0:
393,289,178055,5,12,0:0:0:0:
111,128,178230,1,0,1:0:0:0:
161,342,178405,1,8,0:0:0:0:
342,74,178581,1,2,1:0:0:0:
73,246,178756,5,8,0:0:0:0:
427,172,178932,1,8,0:0:0:0:
436,158,179019,1,8,0:0:0:0:
446,140,179107,2,0,P|441:112|435:88,1,53.9999983520508,8|0,0:0|0:0,0:0:0:0:
256,192,179283,5,12,0:0:0:0:
