osu file format v14

[General]
AudioFilename: audio.mp3
AudioLeadIn: 0
PreviewTime: 48143
Countdown: 0
SampleSet: Soft
StackLeniency: 0.7
Mode: 0
LetterboxInBreaks: 0
WidescreenStoryboard: 1

[Editor]
Bookmarks: 9634,20862,32090,74195,85423,96651,113493,130335,137265,137441,137616,137791,137879,138055,138142,138318,138493,138669,138756,138932,139107,139283,139458,139546,139721,139897,140072,140248,140423,140511,140686,140862,141037,141212,141300,141476,141651,168230
DistanceSpacing: 1
BeatDivisor: 4
GridSize: 8
TimelineZoom: 1.6

[Metadata]
Title:Zankyo Sanka
TitleUnicode:残響散歌
Artist:Aimer
ArtistUnicode:Aimer
Creator:Flask
Version:Normal
Source:「鬼滅の刃」遊郭編
Tags:anime japanese jpop jrock j-pop j-rock pop rock opening op full version Kimetsu no Yaiba Yuukaku hen Yuukaku-hen season 2 two Demon Slayer: Entertainment District Arc alevi エメ 鬼滅の刃遊郭編 uzui tengen 宇髄天元
BeatmapID:3442402
BeatmapSetID:1684121

[Difficulty]
HPDrainRate:4
CircleSize:3
OverallDifficulty:4
ApproachRate:5.5
SliderMultiplier:1
SliderTickRate:1

[Events]
//Background and Video events
0,0,"uhdpaper.com-9051e-pc-hd.jpg",0,0
//Break Periods
//Storyboard Layer 0 (Background)
//Storyboard Layer 1 (Fail)
//Storyboard Layer 2 (Pass)
//Storyboard Layer 3 (Foreground)
//Storyboard Layer 4 (Overlay)
//Storyboard Sound Samples

[TimingPoints]
162,350.877192982456,4,2,1,45,1,0
863,350.877192982456,3,2,1,60,1,0
863,-100,3,2,1,60,0,0
1082,-100,3,2,1,60,0,0
1126,-100,3,2,1,60,0,0
1389,-100,3,2,1,60,0,0
1608,-100,3,2,1,60,0,0
1652,-100,3,2,1,60,0,0
1915,-100,3,2,1,60,0,0
2134,-100,3,2,1,60,0,0
2178,-100,3,2,1,60,0,0
2441,-100,3,2,1,60,0,0
2661,-100,3,2,1,60,0,0
2705,-100,3,2,1,60,0,0
2968,-100,3,2,1,60,0,0
3933,-100,3,2,1,60,0,0
4020,350.877192982456,4,2,1,60,1,0
4020,-100,4,2,1,60,0,0
4370,-100,4,2,1,45,0,0
6827,-100,4,2,1,50,0,0
8932,-100,4,2,1,60,0,0
9458,-100,4,2,1,60,0,0
9634,-100,4,2,1,75,0,0
14721,-100,4,2,1,75,0,0
15248,-100,4,2,1,75,0,0
19458,-100,4,2,1,75,0,0
20335,-100,4,2,1,75,0,0
21212,-100,4,2,1,60,0,0
30686,-100,4,2,1,60,0,0
31739,-100,4,2,1,60,0,0
32090,-100,4,2,1,50,0,0
35248,-100,4,2,1,50,0,0
35774,-100,4,2,1,50,0,0
39283,-100,4,2,1,50,0,0
40511,-100,4,2,1,50,0,0
41739,-100,4,2,1,60,0,0
42791,-100,4,2,1,60,0,0
43318,-100,4,2,1,60,0,0
44721,-100,4,2,1,60,0,0
45072,-100,4,2,1,60,0,0
45598,-100,4,2,1,60,0,0
46125,-100,4,2,1,70,0,0
47353,-100,4,2,1,70,0,0
47704,-100,4,2,1,70,0,0
47879,-100,4,2,1,70,0,0
48055,-100,4,2,1,70,0,0
48405,-100,4,2,1,70,0,0
48932,-100,4,2,1,80,0,1
50686,-100,4,2,1,80,0,1
51037,-100,4,2,1,80,0,1
51739,-100,4,2,1,80,0,1
52265,-100,4,2,1,80,0,1
52791,-100,4,2,1,80,0,1
53493,-100,4,2,1,80,0,1
53844,-100,4,2,1,80,0,1
54546,-100,4,2,1,80,0,1
55423,-100,4,2,1,80,0,1
55774,-100,4,2,1,80,0,1
56827,-100,4,2,1,80,0,1
57353,-100,4,2,1,80,0,1
57704,-100,4,2,1,80,0,1
58756,-100,4,2,1,80,0,1
59634,-100,4,2,1,80,0,1
60160,-100,4,2,1,80,0,1
60511,-100,4,2,1,80,0,1
61212,-100,4,2,1,80,0,1
62265,-100,4,2,1,80,0,1
62967,-100,4,2,1,80,0,1
64370,-100,4,2,1,80,0,1
65248,-100,4,2,1,80,0,1
65774,-100,4,2,1,80,0,1
67177,-100,4,2,1,80,0,1
67528,-100,4,2,1,80,0,1
69984,-100,4,2,1,80,0,1
71563,-100,4,2,1,80,0,1
72090,-100,4,2,1,80,0,1
72791,-100,4,2,1,80,0,0
74195,-100,4,2,1,75,0,0
79283,-100,4,2,1,75,0,0
79809,-100,4,2,1,75,0,0
84019,-100,4,2,1,75,0,0
84897,-100,4,2,1,75,0,0
85423,-100,4,2,1,75,0,0
85774,-100,4,2,1,60,0,0
90160,-100,4,2,1,60,0,0
90511,-100,4,2,1,60,0,0
95248,-100,4,2,1,60,0,0
96300,-100,4,2,1,60,0,0
96651,-100,4,2,1,50,0,0
99809,-100,4,2,1,50,0,0
100862,-100,4,2,1,50,0,0
103844,-100,4,2,1,50,0,0
105072,-100,4,2,1,50,0,0
106300,-100,4,2,1,60,0,0
107353,-100,4,2,1,60,0,0
107879,-100,4,2,1,60,0,0
108756,-100,4,2,1,60,0,0
109634,-100,4,2,1,60,0,0
110686,-100,4,2,1,70,0,0
111914,-100,4,2,1,70,0,0
112265,-100,4,2,1,70,0,0
112441,-100,4,2,1,70,0,0
112616,-100,4,2,1,70,0,0
112967,-100,4,2,1,70,0,0
113493,-100,4,2,1,70,0,0
117791,-100,4,2,1,70,0,0
118932,-100,4,2,1,70,0,0
122441,-100,4,2,1,70,0,0
123405,-100,4,2,1,70,0,0
123669,-100,4,2,1,70,0,0
124195,-100,4,2,1,70,0,0
124721,-100,4,2,1,70,0,0
128932,-100,4,2,1,70,0,0
129458,-100,4,2,1,70,0,0
129634,-100,4,2,1,70,0,0
130335,-100,4,2,1,70,0,0
132090,-100,4,2,1,70,0,0
133142,-100,4,2,1,70,0,0
134546,-100,4,2,1,75,0,0
135949,-100,4,2,1,80,0,0
137177,-100,4,2,1,70,0,0
137265,-100,4,2,1,20,0,0
141914,-100,4,2,1,5,0,0
142967,-100,4,2,1,80,0,1
144721,-100,4,2,1,80,0,1
145072,-100,4,2,1,80,0,1
145774,-100,4,2,1,80,0,1
146300,-100,4,2,1,80,0,1
146826,-100,4,2,1,80,0,1
147528,-100,4,2,1,80,0,1
147879,-100,4,2,1,80,0,1
148581,-100,4,2,1,80,0,1
149458,-100,4,2,1,80,0,1
149809,-100,4,2,1,80,0,1
150862,-100,4,2,1,80,0,1
151388,-100,4,2,1,80,0,1
151739,-100,4,2,1,80,0,1
152791,-100,4,2,1,80,0,1
153669,-100,4,2,1,80,0,1
154195,-100,4,2,1,80,0,1
154546,-100,4,2,1,80,0,1
155247,-100,4,2,1,80,0,1
156300,-100,4,2,1,80,0,1
157002,-100,4,2,1,80,0,1
158405,-100,4,2,1,80,0,1
159283,-100,4,2,1,80,0,1
159809,-100,4,2,1,80,0,1
161212,-100,4,2,1,80,0,1
161563,-100,4,2,1,80,0,1
164019,-100,4,2,1,80,0,1
165598,-100,4,2,1,80,0,1
166125,-100,4,2,1,80,0,1
166827,-100,4,2,1,80,0,0
167528,-100,4,2,1,45,0,0
168230,-100,4,2,1,75,0,0
173318,-100,4,2,1,75,0,0
173844,-100,4,2,1,80,0,0
179019,-100,4,2,1,80,0,0
179283,-100,4,2,1,90,0,0

[Colours]
Combo1 : 117,255,117
Combo2 : 255,255,0
Combo3 : 255,141,87
Combo4 : 47,187,255
Combo5 : 186,117,255

[HitObjects]
96,85,162,5,8,0:0:0:0:
120,181,512,1,8,0:0:0:0:
145,277,863,6,0,P|195:286|234:255,1,100,4|8,0:0|0:0,0:0:0:0:
281,264,1389,2,0,P|305:219|287:172,1,100,2|8,1:2|0:0,0:0:0:0:
310,130,1915,2,0,P|274:93|225:95,1,100,2|8,1:2|0:0,0:0:0:0:
191,61,2441,2,0,P|145:83|131:131,1,100,2|8,1:2|0:0,0:0:0:0:
88,152,2968,6,0,B|87:243|191:275|183:240|285:261|284:348,1,300,4|12,1:2|0:0,0:0:0:0:
384,371,4370,5,4,3:0:0:0:
384,371,4546,2,0,L|415:264,1,100,2|2,0:0|3:2,0:0:0:0:
475,197,5248,2,0,L|449:92,1,100,2|2,0:0|0:0,0:0:0:0:
388,21,5949,2,0,P|433:-2|489:10,2,100,2|2|0,3:2|0:0|0:0,0:0:0:0:
354,58,6827,6,0,L|253:32,1,100,2|8,0:0|3:0,0:0:0:0:
208,21,7353,1,2,0:0:0:0:
123,74,7704,1,2,3:2:0:0:
179,156,8055,2,0,L|157:262,1,100,2|2,0:0|0:0,0:0:0:0:
125,291,8581,2,0,L|72:299,1,50,0|2,3:0|3:2,0:0:0:0:
32,272,8932,2,0,L|9:222,2,50,8|0|8,3:0|3:0|3:0,0:0:0:0:
101,199,9634,6,0,L|212:175,1,100,6|8,0:2|0:0,0:0:0:0:
248,169,10160,1,2,0:0:0:0:
318,239,10511,1,2,1:0:0:0:
409,198,10862,2,0,L|428:92,1,100,2|0,1:0|1:0,0:0:0:0:
414,51,11388,1,8,0:0:0:0:
414,51,11563,2,0,P|367:39|325:79,1,100,2|2,0:0|1:2,0:0:0:0:
298,108,12090,1,8,0:0:0:0:
210,155,12441,6,0,L|151:142,2,50,2|0|8,1:0|1:0|0:0,0:0:0:0:
233,199,12967,2,0,P|247:244|221:288,1,100,2|0,1:2|1:0,0:0:0:0:
182,318,13493,1,8,0:0:0:0:
82,322,13844,2,0,L|89:379,2,50,2|0|8,1:0|1:0|0:0,0:0:0:0:
42,291,14370,2,0,L|67:178,1,100,2|4,0:0|1:2,0:0:0:0:
76,144,14897,1,8,0:0:0:0:
60,45,15248,6,0,P|104:41|152:79,1,100,4|8,0:0|0:0,0:0:0:0:
173,115,15774,1,2,0:0:0:0:
270,93,16125,1,2,1:0:0:0:
348,155,16476,2,0,L|332:261,1,100,2|2,1:0|1:2,0:0:0:0:
350,306,17002,1,8,0:0:0:0:
350,306,17177,2,0,P|391:327|446:302,1,100,2|2,1:2|1:2,0:0:0:0:
474,273,17704,1,8,0:0:0:0:
486,173,18055,6,0,L|512:127,2,50,2|2|8,1:0|1:2|0:0,0:0:0:0:
436,179,18581,2,0,P|404:151|394:90,1,100,2|2,1:2|1:2,0:0:0:0:
314,33,19283,2,0,L|202:51,1,100,0|0,1:0|0:0,0:0:0:0:
166,58,19809,1,0,1:0:0:0:
117,67,19984,1,8,0:0:0:0:
20,41,20335,2,2,P|14:91|93:161,1,150,2|4,1:0|1:2,1:0:0:0:
178,158,21212,6,0,L|160:268,1,100,8|2,0:0|0:0,0:0:0:0:
185,301,21739,2,0,L|237:312,1,50,0|8,1:2|0:0,0:0:0:0:
315,253,22265,2,0,L|424:236,2,100,2|8|2,0:0|0:0|0:0,0:0:0:0:
329,153,23318,2,0,L|315:99,1,50,8|0,0:0|1:0,0:0:0:0:
304,55,23669,1,2,1:2:0:0:
397,19,24019,6,0,P|444:23|473:81,1,100,8|0,0:0|1:0,0:0:0:0:
474,114,24546,2,0,L|520:132,2,50,2|8|0,1:2|0:0|1:2,0:0:0:0:
428,135,25072,2,0,L|405:244,1,100,2|8,0:0|0:0,0:0:0:0:
307,228,25774,2,0,L|327:130,1,100,2|8,0:0|0:0,0:0:0:0:
274,51,26476,5,4,0:0:0:0:
274,51,26651,2,0,L|315:14,2,50,2|8|0,0:0|0:0|1:0,0:0:0:0:
231,77,27177,1,2,0:0:0:0:
191,45,27353,2,0,P|151:34|100:63,1,100,0|0,1:0|1:0,0:0:0:0:
68,97,27879,1,2,1:2:0:0:
117,183,28230,1,8,0:0:0:0:
56,262,28581,1,2,0:0:0:0:
119,338,28932,2,0,L|171:331,1,50,10|0,0:0|0:0,0:0:0:0:
203,295,29283,6,0,L|302:321,1,100,2|10,1:2|0:0,0:0:0:0:
373,252,29984,1,2,0:0:0:0:
318,167,30335,2,0,L|263:154,1,50,8|8,0:0|0:0,0:0:0:0:
241,114,30686,2,0,L|159:125,2,75,12|4|12,0:0|3:0|0:2,0:0:0:0:
260,67,31388,2,0,P|283:24|350:25,1,100,2|12,0:0|0:0,0:0:0:0:
430,16,32090,5,4,1:0:0:0:
487,97,32441,1,0,1:0:0:0:
396,139,32791,2,0,L|408:241,1,100,0|8,1:0|0:0,0:0:0:0:
435,286,33318,1,2,1:2:0:0:
435,286,33493,2,0,P|488:281|509:235,2,100,0|0|0,1:0|1:0|1:0,0:0:0:0:
364,357,34546,1,4,3:0:0:0:
275,310,34897,6,0,L|224:326,2,50,2|0|4,1:2|0:0|1:2,0:0:0:0:
317,219,35598,2,0,L|308:156,1,50,0|0,1:0|1:0,0:0:0:0:
279,129,35949,2,0,L|270:66,1,50,8|2,0:0|0:0,0:0:0:0:
233,47,36300,2,0,P|200:30|136:54,1,100,0|8,1:0|0:0,0:0:0:0:
50,87,37002,2,0,L|74:200,1,100,0|8,1:0|0:0,0:0:0:0:
100,280,37704,6,0,L|45:333,2,75,0|2|2,1:0|0:0|0:0,0:0:0:0:
146,296,38405,2,0,L|164:370,2,75,8|4|4,0:0|3:0|3:0,0:0:0:0:
182,264,39107,2,0,L|255:285,2,75,2|2|2,1:2|0:0|0:1,0:0:0:0:
172,216,39809,2,0,L|248:139,1,100,8|0,0:0|1:0,0:0:0:0:
279,51,40511,6,0,P|323:78|335:140,1,100,2|8,1:2|0:0,0:0:0:0:
331,175,41037,1,0,0:0:0:0:
331,175,41212,2,0,L|442:160,1,100,10|0,0:0|1:0,0:0:0:0:
477,190,41739,1,12,0:2:0:0:
477,190,41914,2,0,P|497:235|473:285,1,100,0|2,0:0|1:0,0:0:0:0:
417,358,42616,1,0,1:0:0:0:
326,316,42967,1,8,0:0:0:0:
237,362,43318,6,0,P|207:341|198:277,1,100,4|8,0:0|0:0,0:0:0:0:
221,239,43844,1,0,1:0:0:0:
221,239,44019,2,0,L|201:134,1,100,4|8,3:0|1:2,0:0:0:0:
138,66,44721,2,0,L|153:12,2,50,2|8|12,1:2|0:0|0:0,1:2:0:0:
44,101,45423,2,0,L|58:159,1,50,8|4,3:0|3:0,0:0:0:0:
35,195,45774,2,0,L|49:253,1,50,0|0,1:0|1:0,0:0:0:0:
24,288,46125,6,0,P|45:339|102:351,1,100,12|0,0:0|1:0,0:0:0:0:
126,327,46651,2,0,L|238:349,1,100,12|0,0:0|1:0,0:0:0:0:
276,364,47177,1,8,0:0:0:0:
276,364,47353,1,12,0:0:0:0:
353,300,47704,2,0,L|413:312,2,50,12|12|12,0:0|0:0|0:0,0:0:0:0:
296,217,48405,2,0,P|282:180|300:121,1,100,12|0,0:2|0:0,0:0:0:0:
332,86,48932,5,4,1:2:0:0:
419,135,49283,1,10,0:1:0:0:
497,72,49634,2,0,L|522:26,2,50,2|2|8,1:2|0:0|0:0,0:0:0:0:
456,53,50160,1,0,1:0:0:0:
456,53,50335,2,0,L|407:34,1,50,2|2,1:2|1:0,0:0:0:0:
359,31,50686,2,0,B|317:62|317:62|266:49,2,100,10|2|8,0:1|1:0|0:0,0:0:0:0:
388,126,51739,6,0,L|373:245,1,100,4|8,0:0|0:0,0:0:0:0:
369,278,52265,1,0,1:0:0:0:
369,278,52441,2,0,B|322:263|322:263|272:306,1,100,6|8,0:2|0:0,0:0:0:0:
211,365,53142,2,0,B|164:371|164:371|132:323,1,100,2|8,1:2|0:0,0:0:0:0:
93,309,53669,1,2,0:0:0:0:
93,309,53844,2,0,L|111:241,2,50,10|2|8,0:1|1:0|0:0,0:0:0:0:
13,248,54546,6,0,L|41:143,1,100,4|8,1:2|0:0,0:0:0:0:
58,107,55072,1,2,0:0:0:0:
58,107,55248,2,0,B|105:85|105:85|156:111,1,100,0|8,1:0|0:0,0:0:0:0:
197,132,55774,1,2,0:0:0:0:
197,132,55949,1,4,1:2:0:0:
278,74,56300,2,0,L|266:16,2,50,8|2|0,0:0|0:0|1:0,0:0:0:0:
323,163,57002,2,0,L|308:219,1,50,8|0,0:0|1:0,0:0:0:0:
272,244,57353,6,0,L|172:225,2,100,4|8|0,0:0|0:0|1:0,0:0:0:0:
360,290,58405,1,8,0:0:0:0:
410,376,58756,2,0,P|438:356|451:312,2,75,12|0|12,0:0|1:0|0:0,0:0:0:0:
309,374,59634,2,0,L|206:358,1,100,4|8,0:0|0:0,0:0:0:0:
162,342,60160,6,0,L|174:288,1,50,4|2,1:2|1:2,0:0:0:0:
187,245,60511,1,10,0:1:0:0:
101,193,60862,2,0,L|39:204,2,50,2|2|8,1:2|0:0|0:0,0:0:0:0:
129,153,61388,1,0,0:0:0:0:
129,153,61563,2,0,L|190:165,1,50,2|0,1:2|1:2,0:0:0:0:
213,125,61914,2,0,P|217:79|230:19,2,100,10|2|10,0:1|1:0|0:2,0:0:0:0:
265,210,62967,6,0,P|260:255|248:316,1,100,4|8,1:2|0:0,0:0:0:0:
286,350,63493,1,0,1:0:0:0:
286,350,63669,2,0,P|330:361|373:318,1,100,4|8,1:2|0:0,0:0:0:0:
467,340,64370,2,0,L|452:241,1,100,4|8,1:2|0:0,0:0:0:0:
452,194,64897,1,2,0:0:0:0:
452,194,65072,2,0,L|466:85,1,100,0|10,1:0|0:1,0:0:0:0:
387,30,65774,6,0,P|343:25|303:69,1,100,4|10,1:2|0:0,0:0:0:0:
296,113,66300,1,0,0:0:0:0:
296,113,66476,2,0,P|252:118|212:74,1,100,2|8,1:2|0:0,0:0:0:0:
176,48,67002,1,0,0:0:0:0:
176,48,67177,2,0,L|72:69,2,100,2|8|2,1:0|0:0|1:0,0:0:0:0:
142,142,68230,1,8,0:0:0:0:
222,201,68581,6,0,L|209:313,1,100,2|8,1:2|0:0,0:0:0:0:
179,340,69107,1,0,3:0:0:0:
179,340,69283,2,0,P|134:338|97:295,1,100,2|8,1:0|0:0,0:0:0:0:
84,256,69809,1,0,0:0:0:0:
84,256,69984,2,0,L|0:276,2,75,12|0|8,0:0|1:0|0:0,0:0:0:0:
104,210,70686,2,0,L|225:231,1,100,2|10,0:0|0:2,0:0:0:0:
302,215,71388,5,4,1:2:0:0:
269,310,71739,1,0,1:0:0:0:
349,369,72090,1,2,1:0:0:0:
431,313,72441,1,8,0:0:0:0:
401,217,72791,1,4,1:2:0:0:
401,217,74195,6,0,P|419:173|397:122,1,100,6|8,0:2|0:0,0:0:0:0:
365,90,74721,1,2,0:0:0:0:
268,119,75072,1,2,1:0:0:0:
193,52,75423,2,0,L|92:72,1,100,2|0,1:0|1:0,0:0:0:0:
49,86,75949,1,8,0:0:0:0:
49,86,76125,2,0,P|28:125|50:176,1,100,2|2,0:0|1:2,0:0:0:0:
85,206,76651,1,8,0:0:0:0:
178,241,77002,6,0,L|166:300,2,50,2|0|8,1:0|1:0|0:0,0:0:0:0:
221,215,77528,2,0,L|210:111,1,100,2|0,1:2|1:0,0:0:0:0:
203,65,78055,1,8,0:0:0:0:
301,48,78405,6,0,L|289:-11,2,50,2|0|8,1:0|1:0|0:0,0:0:0:0:
339,80,78932,2,0,L|328:184,1,100,2|4,0:0|1:2,0:0:0:0:
357,220,79458,1,8,0:0:0:0:
446,264,79809,6,0,P|426:306|366:327,1,100,4|8,0:0|0:0,0:0:0:0:
329,319,80335,1,2,0:0:0:0:
243,371,80686,1,2,1:0:0:0:
176,296,81037,2,0,L|198:193,1,100,2|0,1:0|1:0,0:0:0:0:
209,152,81563,1,8,0:0:0:0:
209,152,81739,2,0,P|193:110|139:100,1,100,2|2,1:2|1:2,0:0:0:0:
95,113,82265,1,8,0:0:0:0:
43,198,82616,6,0,L|-9:186,2,50,2|2|8,1:0|1:2|0:0,0:0:0:0:
73,237,83142,2,0,L|182:224,1,100,2|2,1:2|1:2,0:0:0:0:
270,244,83844,2,0,L|257:135,1,100,0|0,1:0|0:0,0:0:0:0:
254,94,84370,1,0,1:0:0:0:
248,44,84546,1,8,0:0:0:0:
342,9,84897,2,2,B|413:23|413:23|427:38|427:38|492:51,1,150,2|4,1:0|1:2,1:0:0:0:
491,148,85774,6,0,L|471:253,1,100,8|2,0:0|0:0,0:0:0:0:
432,277,86300,2,0,L|443:332,2,50,0|10|0,1:2|0:0|1:0,0:0:0:0:
384,258,86827,2,0,P|344:252|297:292,1,100,2|8,0:0|0:0,0:0:0:0:
237,366,87528,1,0,0:0:0:0:
237,366,87704,2,0,L|135:350,1,100,2|0,1:2|0:0,0:0:0:0:
88,342,88230,1,2,1:2:0:0:
45,251,88581,6,0,P|57:212|113:183,1,100,8|0,0:0|1:0,0:0:0:0:
154,167,89107,2,0,L|196:195,2,50,2|8|0,1:2|0:0|1:2,0:0:0:0:
140,118,89634,2,0,L|126:10,1,100,2|8,0:0|0:0,0:0:0:0:
227,14,90335,2,0,L|235:79,1,50,2|0,0:0|1:0,0:0:0:0:
237,113,90686,1,8,0:0:0:0:
320,177,91037,5,4,0:0:0:0:
320,177,91212,2,0,L|373:193,2,50,2|8|0,0:0|0:0|1:0,0:0:0:0:
275,200,91739,1,2,0:0:0:0:
281,249,91914,2,0,P|304:291|357:309,1,100,0|0,1:0|1:0,0:0:0:0:
400,298,92441,1,2,1:2:0:0:
486,248,92791,1,8,0:0:0:0:
473,148,93142,1,2,0:0:0:0:
381,108,93493,2,0,L|324:120,1,50,10|0,0:0|0:0,0:0:0:0:
283,132,93844,6,0,L|298:21,2,100,2|10|0,1:2|0:0|1:0,0:0:0:0:
193,177,94897,2,0,L|209:235,1,50,8|8,0:0|0:0,0:0:0:0:
221,272,95248,2,0,P|255:281|302:264,2,75,12|4|12,0:0|3:0|0:2,0:0:0:0:
190,311,95949,2,0,P|166:351|112:359,1,100,2|12,0:0|0:0,0:0:0:0:
31,306,96651,5,4,1:0:0:0:
86,222,97002,1,0,1:0:0:0:
24,142,97353,2,0,L|44:41,1,100,0|8,1:0|0:0,0:0:0:0:
87,17,97879,1,2,1:2:0:0:
87,17,98055,2,0,P|128:10|174:51,1,100,0|0,1:0|1:0,0:0:0:0:
251,104,98756,1,0,1:0:0:0:
251,104,98932,2,0,L|241:162,2,50,8|4|8,0:0|3:0|0:0,0:0:0:0:
288,71,99458,6,0,P|338:63|382:93,1,100,2|4,1:2|1:2,0:0:0:0:
478,90,100160,2,0,L|447:201,1,100,0|8,1:0|0:0,0:0:0:0:
432,232,100686,1,2,0:0:0:0:
432,232,100862,2,0,L|447:288,2,50,0|0|8,1:0|0:0|0:0,0:0:0:0:
350,173,101563,2,0,P|309:145|254:164,1,100,0|8,1:0|0:0,0:0:0:0:
290,252,102265,6,0,L|334:315,2,75,2|2|2,1:2|0:0|0:0,0:0:0:0:
245,274,102967,2,0,L|212:343,2,75,8|4|4,0:0|3:0|3:0,0:0:0:0:
203,246,103669,2,0,L|126:252,2,75,2|2|2,1:2|0:0|0:1,0:0:0:0:
206,195,104370,2,0,L|145:110,1,100,8|0,0:0|1:0,0:0:0:0:
81,38,105072,6,0,P|50:70|49:133,1,100,2|8,1:2|0:0,0:0:0:0:
74,170,105598,1,2,0:0:0:0:
74,170,105774,2,0,L|54:281,1,100,10|0,0:0|1:0,0:0:0:0:
80,318,106300,1,14,0:2:0:0:
80,318,106476,2,0,P|124:330|168:297,1,100,0|2,0:0|1:0,0:0:0:0:
240,233,107177,1,0,1:0:0:0:
318,294,107528,1,8,0:0:0:0:
407,249,107879,6,0,L|505:282,2,100,4|8|4,0:0|0:0|3:0,0:0:0:0:
362,159,108932,1,8,1:2:0:0:
388,62,109283,2,0,L|421:21,2,50,2|8|12,1:2|0:0|0:0,1:2:0:0:
290,86,109984,2,0,L|241:71,1,50,8|4,3:0|3:0,0:0:0:0:
195,89,110335,2,0,L|146:74,1,50,0|0,1:0|1:0,0:0:0:0:
99,89,110686,6,0,P|57:133|62:187,1,100,12|0,0:0|1:0,0:0:0:0:
13,196,111212,2,0,P|47:238|44:291,1,100,12|0,0:0|1:0,0:0:0:0:
32,332,111739,1,8,0:0:0:0:
32,332,111914,1,12,0:0:0:0:
131,318,112265,2,0,L|149:369,2,50,12|12|12,0:0|0:0|0:0,0:0:0:0:
194,240,112967,2,0,L|216:141,1,100,4|0,1:2|0:0,0:0:0:0:
205,93,113493,6,0,P|238:59|304:70,1,100,4|8,0:0|0:0,0:0:0:0:
387,70,114195,2,0,P|408:48|420:23,2,50,2|2|8,1:2|0:0|0:0,0:0:0:0:
416,166,114897,2,0,P|409:212|349:242,1,100,2|8,0:0|0:0,0:0:0:0:
311,323,115598,2,0,L|325:384,2,50,2|2|8,1:2|0:0|0:0,0:0:0:0:
265,317,116125,1,0,1:0:0:0:
265,317,116300,6,0,P|239:277|254:219,1,100,2|10,1:2|0:0,0:0:0:0:
319,157,117002,2,0,L|380:169,2,50,2|2|8,1:2|0:0|0:0,0:0:0:0:
263,73,117704,2,0,L|159:58,1,100,10|10,0:0|0:1,0:0:0:0:
114,55,118230,1,0,1:0:0:0:
38,119,118581,1,8,0:0:0:0:
109,188,118932,6,0,P|131:230|113:298,1,100,4|2,1:2|0:0,0:0:0:0:
89,316,119458,1,8,0:0:0:0:
89,316,119634,2,0,L|191:347,1,100,2|2,1:2|1:2,0:0:0:0:
275,303,120335,2,0,B|307:263|307:263|278:215,1,100,2|2,0:0|0:0,0:0:0:0:
248,190,120862,1,8,0:0:0:0:
248,190,121037,2,0,L|266:80,1,100,2|2,0:0|0:0,0:0:0:0:
365,72,121739,1,0,1:0:0:0:
365,72,121914,6,0,B|413:58|413:58|459:95,1,100,12|0,0:0|1:0,0:0:0:0:
466,137,122441,2,0,B|454:185|454:185|399:206,1,100,12|0,0:0|1:0,0:0:0:0:
358,193,122967,2,0,B|321:158|321:158|330:100,1,100,12|0,0:0|1:0,0:0:0:0:
317,60,123493,2,0,L|280:21,2,50,2|10|0,0:0|0:0|1:0,0:0:0:0:
233,115,124195,2,0,L|211:215,1,100,12|0,0:0|0:0,0:0:0:0:
196,260,124721,5,4,1:2:0:0:
105,216,125072,1,10,0:2:0:0:
86,314,125423,2,0,L|27:327,2,50,2|2|8,1:2|0:0|0:0,0:0:0:0:
175,360,126125,1,2,1:2:0:0:
268,323,126476,1,8,0:0:0:0:
366,338,126827,2,0,B|390:389,2,50,2|2|8,1:2|0:0|0:0,0:0:0:0:
384,293,127353,1,0,1:0:0:0:
384,293,127528,6,0,L|404:192,1,100,2|8,1:2|0:0,0:0:0:0:
349,110,128230,1,2,0:0:0:0:
249,97,128581,2,0,L|186:104,1,50,8|0,0:0|0:0,0:0:0:0:
156,75,128932,2,0,B|153:43|153:43|149:37|149:37|142:-5,2,75,12|8|12,0:0|0:0|0:0,0:0:0:0:
122,112,129634,2,0,L|111:216,1,100,0|8,1:0|0:0,0:0:0:0:
211,209,130335,5,4,1:2:0:0:
261,295,130686,2,0,L|245:355,1,50,8|0,1:2|0:0,0:0:0:0:
209,375,131037,2,0,L|106:354,1,100,4|0,1:2|1:0,0:0:0:0:
85,256,131739,2,0,L|26:255,2,50,4|0|8,1:2|1:0|0:0,0:0:0:0:
108,211,132265,1,0,0:0:0:0:
108,211,132441,2,0,L|88:112,1,100,10|8,1:1|3:0,0:0:0:0:
179,72,133142,6,0,P|217:57|275:90,1,100,12|0,0:0|1:0,0:0:0:0:
302,117,133669,2,0,L|415:96,1,100,12|0,0:2|1:0,0:0:0:0:
449,88,134195,1,12,1:2:0:0:
485,183,134546,6,0,L|464:295,1,100,12|0,0:2|1:0,0:0:0:0:
454,329,135072,2,0,P|406:339|372:304,1,100,12|0,0:2|1:0,0:0:0:0:
359,257,135598,1,12,1:2:0:0:
281,194,135949,6,0,L|171:215,1,100,6|8,1:0|0:0,0:0:0:0:
142,243,136476,2,0,L|87:235,2,50,10|0|8,0:0|1:0|0:0,0:0:0:0:
164,287,137002,1,8,2:0:0:0:
147,334,137177,1,14,1:1:0:0:
256,192,137353,12,0,141914,0:1:0:0:
400,239,142967,5,4,1:2:0:0:
328,169,143318,1,10,0:1:0:0:
243,221,143669,2,0,L|253:281,2,50,2|2|8,1:2|0:0|0:0,0:0:0:0:
226,181,144195,1,2,0:0:0:0:
226,181,144370,2,0,L|240:119,1,50,2|2,1:2|1:0,0:0:0:0:
226,83,144721,2,0,P|200:54|142:52,2,100,10|2|8,0:1|1:0|0:0,0:0:0:0:
303,19,145774,6,0,L|409:41,1,100,4|8,0:0|0:0,0:0:0:0:
450,49,146300,1,0,1:0:0:0:
450,49,146476,2,0,B|478:92|478:92|456:140,1,100,6|8,0:2|0:0,0:0:0:0:
385,205,147177,2,0,L|279:183,1,100,2|8,1:2|0:0,0:0:0:0:
245,210,147704,1,2,0:0:0:0:
245,210,147879,2,0,L|254:267,2,50,10|2|8,0:1|1:0|0:0,0:0:0:0:
156,257,148581,6,0,P|114:238|98:186,1,100,4|8,1:2|0:0,0:0:0:0:
57,168,149107,1,2,0:0:0:0:
57,168,149283,2,0,P|52:122|89:82,1,100,0|8,1:0|0:0,0:0:0:0:
84,37,149808,1,0,1:0:0:0:
84,37,149984,2,0,P|121:10|174:22,2,100,4|8|0,1:2|0:0|1:0,0:0:0:0:
150,117,151037,2,0,L|174:165,1,50,8|0,0:0|1:0,0:0:0:0:
194,206,151388,5,4,0:0:0:0:
287,170,151739,1,8,0:0:0:0:
380,135,152090,2,0,L|425:240,1,100,0|8,1:0|0:0,0:0:0:0:
502,281,152791,2,0,P|475:319|419:327,1,100,12|8,0:0|0:0,0:0:0:0:
376,313,153318,1,12,0:0:0:0:
289,262,153669,2,0,L|186:292,1,100,4|8,0:0|0:0,0:0:0:0:
155,323,154195,6,0,P|113:290|114:242,1,100,4|10,1:2|0:1,0:0:0:0:
162,160,154897,2,0,L|216:168,2,50,2|2|8,1:2|0:0|0:0,0:0:0:0:
129,130,155423,1,0,0:0:0:0:
129,130,155598,2,0,L|71:136,1,50,2|0,1:2|0:0,0:0:0:0:
35,110,155949,2,0,P|13:76|24:17,2,100,10|2|10,0:1|1:0|0:2,0:0:0:0:
19,209,157002,6,0,L|1:317,1,100,4|8,1:2|0:0,0:0:0:0:
39,349,157528,1,0,1:0:0:0:
39,349,157704,2,0,P|92:368|131:333,1,100,4|8,1:2|0:0,0:0:0:0:
211,295,158405,2,0,L|322:311,1,100,4|8,1:2|0:0,0:0:0:0:
363,325,158932,1,2,0:0:0:0:
363,325,159107,2,0,B|394:288|394:288|382:231,1,100,0|10,1:0|0:1,0:0:0:0:
399,138,159809,6,0,L|288:172,1,100,4|10,1:2|0:0,0:0:0:0:
273,208,160335,1,0,0:0:0:0:
273,208,160511,2,0,L|188:128,1,100,2|8,1:2|0:0,0:0:0:0:
149,133,161037,1,0,0:0:0:0:
149,133,161213,2,0,L|175:20,2,100,2|8|2,1:0|0:0|1:0,0:0:0:0:
51,110,162265,1,8,0:0:0:0:
28,207,162616,6,0,L|45:322,1,100,2|8,1:2|0:0,0:0:0:0:
38,359,163142,1,0,3:0:0:0:
38,359,163318,2,0,B|81:378|81:378|128:352,1,100,2|8,1:0|0:0,0:0:0:0:
166,320,163844,1,0,0:0:0:0:
166,320,164019,2,0,B|200:325|200:325|209:331|209:331|250:338,2,75,12|0|8,0:0|1:0|0:0,0:0:0:0:
146,273,164721,2,0,L|131:160,1,100,2|10,0:0|0:2,0:0:0:0:
207,107,165423,5,4,1:2:0:0:
280,39,165774,1,0,1:0:0:0:
367,87,166125,1,2,1:0:0:0:
348,184,166476,1,8,0:0:0:0:
249,196,166826,1,4,1:2:0:0:
249,196,168230,6,0,L|134:216,1,100,6|8,0:2|0:0,0:0:0:0:
100,220,168756,1,2,0:0:0:0:
47,304,169107,1,2,1:0:0:0:
137,347,169458,2,0,P|174:369|232:357,1,100,2|0,1:0|1:0,0:0:0:0:
267,327,169984,1,8,0:0:0:0:
267,327,170160,2,0,L|255:220,1,100,2|2,0:0|1:2,0:0:0:0:
251,177,170686,1,8,0:0:0:0:
303,91,171037,6,0,L|291:37,2,50,2|0|8,1:0|1:0|0:0,0:0:0:0:
353,92,171563,2,0,L|459:118,1,100,2|0,1:2|1:0,0:0:0:0:
498,129,172090,1,8,0:0:0:0:
492,229,172441,6,0,L|504:283,2,50,2|0|8,1:0|1:0|0:0,0:0:0:0:
447,208,172967,2,0,L|341:182,1,100,2|4,0:0|1:2,0:0:0:0:
302,171,173494,1,8,0:0:0:0:
236,246,173844,6,0,P|208:219|207:158,1,100,4|8,1:2|0:0,0:0:0:0:
219,115,174370,1,2,1:0:0:0:
219,115,174546,2,0,L|111:144,1,100,8|8,0:0|0:0,0:0:0:0:
34,92,175248,1,12,0:0:0:0:
10,188,175598,1,8,0:0:0:0:
81,257,175949,2,0,L|62:323,2,50,8|2|8,0:0|1:2|0:0,0:0:0:0:
180,245,176651,6,0,L|237:236,1,50,12|2,0:0|1:0,0:0:0:0:
274,258,177002,1,8,0:0:0:0:
274,258,177177,2,0,P|298:216|287:159,1,100,4|2,1:2|1:2,0:0:0:0:
278,67,177879,2,0,L|393:92,1,100,4|0,1:2|1:0,0:0:0:0:
428,103,178405,1,8,0:0:0:0:
428,103,178581,1,2,1:0:0:0:
488,182,178932,2,0,B|463:214|463:214|475:280,1,100,8|12,0:0|0:0,0:0:0:0:
