osu file format v14

[General]
AudioFilename: audio.mp3
AudioLeadIn: 0
PreviewTime: 48143
Countdown: 0
SampleSet: Soft
StackLeniency: 0.7
Mode: 0
LetterboxInBreaks: 0
WidescreenStoryboard: 1

[Editor]
Bookmarks: 9634,20862,32090,74195,85423,96651,113493,130335,137265,137441,137616,137791,137879,138055,138142,138318,138493,138669,138756,138932,139107,139283,139458,139546,139721,139897,140072,140248,140423,140511,140686,140862,141037,141212,141300,141476,141651,168230
DistanceSpacing: 1.3
BeatDivisor: 8
GridSize: 8
TimelineZoom: 1.6

[Metadata]
Title:Zankyo Sanka
TitleUnicode:残響散歌
Artist:Aimer
ArtistUnicode:Aimer
Creator:Flask
Version:Hard
Source:「鬼滅の刃」遊郭編
Tags:anime japanese jpop jrock j-pop j-rock pop rock opening op full version Kimetsu no Yaiba Yuukaku hen Yuukaku-hen season 2 two Demon Slayer: Entertainment District Arc alevi エメ 鬼滅の刃遊郭編 uzui tengen 宇髄天元
BeatmapID:3442401
BeatmapSetID:1684121

[Difficulty]
HPDrainRate:5
CircleSize:3.5
OverallDifficulty:6.5
ApproachRate:8
SliderMultiplier:1.4
SliderTickRate:1

[Events]
//Background and Video events
0,0,"uhdpaper.com-9051e-pc-hd.jpg",0,0
//Break Periods
//Storyboard Layer 0 (Background)
//Storyboard Layer 1 (Fail)
//Storyboard Layer 2 (Pass)
//Storyboard Layer 3 (Foreground)
//Storyboard Layer 4 (Overlay)
//Storyboard Sound Samples

[TimingPoints]
162,350.877192982456,4,2,1,45,1,0
863,350.877192982456,3,2,1,60,1,0
863,-100,3,2,1,60,0,0
1082,-100,3,2,1,60,0,0
1126,-100,3,2,1,60,0,0
1389,-100,3,2,1,60,0,0
1608,-100,3,2,1,60,0,0
1652,-100,3,2,1,60,0,0
1915,-100,3,2,1,60,0,0
2134,-100,3,2,1,60,0,0
2178,-100,3,2,1,60,0,0
2441,-100,3,2,1,60,0,0
2661,-100,3,2,1,60,0,0
2705,-100,3,2,1,60,0,0
2968,-100,3,2,1,60,0,0
3933,-100,3,2,1,60,0,0
4020,350.877192982456,4,2,1,60,1,0
4020,-100,4,2,1,60,0,0
4370,-100,4,2,1,45,0,0
6827,-100,4,2,1,50,0,0
8932,-100,4,2,1,60,0,0
9458,-100,4,2,1,60,0,0
9634,-100,4,2,1,75,0,0
14721,-100,4,2,1,75,0,0
15248,-100,4,2,1,75,0,0
19458,-100,4,2,1,75,0,0
20335,-100,4,2,1,75,0,0
21212,-100,4,2,1,60,0,0
30686,-100,4,2,1,60,0,0
31739,-100,4,2,1,60,0,0
32090,-100,4,2,1,50,0,0
35248,-100,4,2,1,50,0,0
35774,-100,4,2,1,50,0,0
39283,-100,4,2,1,50,0,0
40511,-100,4,2,1,50,0,0
41739,-100,4,2,1,60,0,0
42791,-100,4,2,1,60,0,0
43318,-100,4,2,1,60,0,0
44721,-100,4,2,1,60,0,0
45072,-100,4,2,1,60,0,0
45598,-100,4,2,1,60,0,0
46125,-100,4,2,1,70,0,0
47353,-100,4,2,1,70,0,0
47704,-100,4,2,1,70,0,0
47879,-100,4,2,1,70,0,0
48055,-100,4,2,1,70,0,0
48405,-100,4,2,1,70,0,0
48932,-100,4,2,1,80,0,1
50686,-100,4,2,1,80,0,1
51037,-100,4,2,1,80,0,1
51739,-100,4,2,1,80,0,1
52265,-100,4,2,1,80,0,1
52791,-100,4,2,1,80,0,1
53493,-100,4,2,1,80,0,1
53844,-100,4,2,1,80,0,1
54546,-100,4,2,1,80,0,1
55423,-100,4,2,1,80,0,1
55774,-100,4,2,1,80,0,1
56827,-100,4,2,1,80,0,1
57353,-100,4,2,1,80,0,1
57704,-100,4,2,1,80,0,1
58756,-100,4,2,1,80,0,1
59634,-100,4,2,1,80,0,1
60160,-100,4,2,1,80,0,1
60511,-100,4,2,1,80,0,1
61212,-100,4,2,1,80,0,1
62265,-100,4,2,1,80,0,1
62967,-100,4,2,1,80,0,1
64370,-100,4,2,1,80,0,1
65248,-100,4,2,1,80,0,1
65774,-100,4,2,1,80,0,1
67177,-100,4,2,1,80,0,1
67528,-100,4,2,1,80,0,1
69984,-100,4,2,1,80,0,1
71563,-100,4,2,1,80,0,1
72090,-100,4,2,1,80,0,1
72791,-100,4,2,1,80,0,0
74195,-100,4,2,1,75,0,0
79283,-100,4,2,1,75,0,0
79809,-100,4,2,1,75,0,0
84019,-100,4,2,1,75,0,0
84897,-100,4,2,1,75,0,0
85423,-100,4,2,1,75,0,0
85774,-100,4,2,1,60,0,0
90160,-100,4,2,1,60,0,0
90511,-100,4,2,1,60,0,0
95248,-100,4,2,1,60,0,0
96300,-100,4,2,1,60,0,0
96651,-100,4,2,1,50,0,0
99809,-100,4,2,1,50,0,0
100862,-100,4,2,1,50,0,0
103844,-100,4,2,1,50,0,0
105072,-100,4,2,1,50,0,0
106300,-100,4,2,1,60,0,0
107353,-100,4,2,1,60,0,0
107879,-100,4,2,1,60,0,0
108756,-100,4,2,1,60,0,0
109634,-100,4,2,1,60,0,0
110686,-100,4,2,1,70,0,0
111914,-100,4,2,1,70,0,0
112265,-100,4,2,1,70,0,0
112441,-100,4,2,1,70,0,0
112616,-100,4,2,1,70,0,0
112967,-100,4,2,1,70,0,0
113493,-100,4,2,1,70,0,0
117791,-100,4,2,1,70,0,0
118932,-100,4,2,1,70,0,0
122441,-100,4,2,1,70,0,0
123405,-100,4,2,1,70,0,0
123669,-100,4,2,1,70,0,0
124195,-100,4,2,1,70,0,0
124721,-100,4,2,1,70,0,0
128932,-100,4,2,1,70,0,0
129458,-100,4,2,1,70,0,0
129634,-100,4,2,1,70,0,0
130335,-100,4,2,1,70,0,0
132090,-100,4,2,1,70,0,0
133142,-100,4,2,1,70,0,0
134546,-100,4,2,1,75,0,0
135949,-100,4,2,1,80,0,0
137177,-100,4,2,1,70,0,0
137265,-100,4,2,1,20,0,0
141914,-100,4,2,1,5,0,0
142967,-100,4,2,1,80,0,1
144721,-100,4,2,1,80,0,1
145072,-100,4,2,1,80,0,1
145774,-100,4,2,1,80,0,1
146300,-100,4,2,1,80,0,1
146826,-100,4,2,1,80,0,1
147528,-100,4,2,1,80,0,1
147879,-100,4,2,1,80,0,1
148581,-100,4,2,1,80,0,1
149458,-100,4,2,1,80,0,1
149809,-100,4,2,1,80,0,1
150862,-100,4,2,1,80,0,1
151388,-100,4,2,1,80,0,1
151739,-100,4,2,1,80,0,1
152791,-100,4,2,1,80,0,1
153669,-100,4,2,1,80,0,1
154195,-100,4,2,1,80,0,1
154546,-100,4,2,1,80,0,1
155247,-100,4,2,1,80,0,1
156300,-100,4,2,1,80,0,1
157002,-100,4,2,1,80,0,1
158405,-100,4,2,1,80,0,1
159283,-100,4,2,1,80,0,1
159809,-100,4,2,1,80,0,1
161212,-100,4,2,1,80,0,1
161563,-100,4,2,1,80,0,1
164019,-100,4,2,1,80,0,1
165598,-100,4,2,1,80,0,1
166125,-100,4,2,1,80,0,1
166827,-100,4,2,1,80,0,0
167528,-100,4,2,1,45,0,0
168230,-100,4,2,1,75,0,0
173318,-100,4,2,1,75,0,0
173844,-100,4,2,1,80,0,0
179019,-100,4,2,1,80,0,0
179283,-100,4,2,1,90,0,0

[Colours]
Combo1 : 117,255,117
Combo2 : 255,255,0
Combo3 : 255,141,87
Combo4 : 47,187,255
Combo5 : 186,117,255

[HitObjects]
420,52,162,5,8,0:0:0:0:
420,52,512,1,8,0:0:0:0:
461,200,863,6,0,P|423:215|357:186,1,105,4|0,0:0|1:0,0:0:0:0:
350,179,1213,1,8,0:0:0:0:
290,248,1389,6,0,P|263:216|271:144,1,105,2|0,1:2|1:0,0:0:0:0:
275,135,1739,1,8,0:0:0:0:
217,63,1915,6,0,B|167:71|167:71|161:75|161:75|105:84,1,105,2|0,1:2|1:0,0:0:0:0:
93,86,2266,1,8,0:0:0:0:
52,167,2441,6,0,B|101:175|101:175|108:179|108:179|164:188,1,105,2|0,1:2|1:0,0:0:0:0:
176,190,2792,1,8,0:0:0:0:
172,281,2968,6,0,B|246:283|312:241|312:241|364:303|364:303|282:363|182:363,1,420,4|12,1:2|0:0,0:0:0:0:
33,274,4370,5,4,3:0:0:0:
33,274,4546,2,0,P|56:231|36:179,1,105,2|0,0:0|0:0,0:0:0:0:
22,167,4897,2,0,P|64:164|93:143,1,70,2|0,3:2|0:0,0:0:0:0:
130,69,5248,2,0,L|124:30,2,35,2|0|4,0:0|3:0|3:0,0:0:0:0:
212,105,5598,2,0,P|202:141|196:179,1,70,2|0,0:0|0:0,0:0:0:0:
149,251,5949,2,0,P|199:264|275:207,1,140,2|2,3:2|0:0,0:0:0:0:
360,202,6476,2,0,L|384:243,2,35,0|0|0,1:0|3:0|3:0,0:0:0:0:
418,131,6827,6,0,P|425:99|432:52,1,70,2|0,0:0|0:0,0:0:0:0:
421,45,7090,1,8,3:0:0:0:
403,33,7177,1,8,3:0:0:0:
320,73,7353,2,0,P|245:64|178:43,1,140,2|2,0:0|3:2,0:0:0:0:
38,156,8055,2,0,P|67:225|83:293,1,140,2|2,0:0|0:0,0:0:0:0:
150,349,8581,2,0,P|186:343|210:304,1,70,0|2,3:0|3:2,0:0:0:0:
292,199,8932,5,8,3:0:0:0:
206,168,9107,1,0,3:0:0:0:
301,196,9283,2,0,L|291:114,1,70,8|2,3:0|3:0,0:0:0:0:
396,27,9634,6,0,P|449:37|480:128,1,140,6|8,0:2|0:0,0:0:0:0:
431,183,10160,2,0,L|442:261,1,70,2|0,0:0|0:0,0:0:0:0:
407,337,10511,2,0,P|374:323|359:288,1,70,2|8,1:0|0:0,0:0:0:0:
279,250,10862,6,0,B|192:257|238:296|144:298,1,140,2|0,1:0|1:0,0:0:0:0:
81,239,11388,1,8,0:0:0:0:
21,307,11563,2,0,P|-10:265|0:206,1,105,2|0,0:0|1:0,0:0:0:0:
6,198,11914,2,0,L|-6:119,1,70,2|8,1:2|0:0,0:0:0:0:
64,69,12265,1,0,1:0:0:0:
84,75,12353,1,0,1:0:0:0:
103,84,12441,6,0,L|190:59,2,70,2|0|8,1:0|1:0|0:0,0:0:0:0:
97,175,12967,2,0,L|238:130,1,140,2|0,1:2|1:0,0:0:0:0:
285,205,13493,1,8,0:0:0:0:
228,272,13669,1,0,1:0:0:0:
220,291,13756,1,0,1:0:0:0:
211,310,13844,6,0,L|228:385,2,70,2|0|8,1:0|1:0|0:0,0:0:0:0:
127,272,14370,1,2,0:0:0:0:
166,189,14546,2,0,L|158:149,1,35,8|8,3:0|3:0,0:0:0:0:
144,140,14721,2,0,P|195:140|243:69,1,140,4|0,1:2|0:0,0:0:0:0:
386,38,15248,6,0,B|418:78|418:78|402:171,1,140,4|8,0:0|0:0,0:0:0:0:
312,177,15774,2,0,L|325:100,1,70,2|0,0:0|0:0,0:0:0:0:
280,27,16125,2,0,L|194:47,1,70,2|8,1:0|0:0,0:0:0:0:
141,100,16476,6,0,B|184:140|184:140|186:166|186:166|229:204,1,140,2|2,1:0|1:2,0:0:0:0:
205,291,17002,1,8,0:0:0:0:
141,356,17177,2,0,P|87:367|31:303,1,140,2|2,1:2|1:2,0:0:0:0:
0,224,17704,1,8,0:0:0:0:
47,146,17879,1,0,1:0:0:0:
69,146,17967,1,0,1:0:0:0:
91,146,18055,6,0,L|76:69,2,70,2|2|8,1:0|1:2|0:0,0:0:0:0:
121,231,18581,2,0,P|163:204|171:134,1,105,2|0,1:2|0:0,0:0:0:0:
172,132,18932,2,0,L|246:148,1,70,2|8,1:2|0:0,0:0:0:0:
328,170,19283,1,0,1:0:0:0:
375,250,19458,6,0,L|455:232,1,70,12|0,0:0|0:0,0:0:0:0:
464,231,19721,1,4,3:0:0:0:
484,227,19809,1,0,1:0:0:0:
512,101,19984,5,8,0:0:0:0:
512,101,20335,2,2,B|467:68|487:7|487:7|456:63|397:59,1,210,2|4,1:0|1:2,1:0:0:0:
246,152,21212,6,0,P|198:148|164:65,1,140,8|2,0:0|0:0,0:0:0:0:
81,27,21739,1,0,1:0:0:0:
12,86,21914,2,0,L|31:165,1,70,8|0,0:0|0:0,0:0:0:0:
104,204,22265,2,0,P|87:261|75:345,2,140,2|8|0,0:0|0:0|0:0,0:0:0:0:
183,158,23142,1,0,1:0:0:0:
251,217,23318,2,0,P|288:213|311:187,1,70,8|0,0:0|1:0,0:0:0:0:
325,101,23669,1,2,1:2:0:0:
492,170,24019,6,0,P|481:219|469:314,1,140,8|0,0:0|1:0,0:0:0:0:
394,361,24546,1,2,1:2:0:0:
315,315,24721,2,0,P|288:294|249:292,1,70,8|0,0:0|1:2,0:0:0:0:
175,338,25072,2,0,P|131:352|64:292,1,140,2|8,0:0|0:0,0:0:0:0:
12,222,25598,1,2,1:2:0:0:
89,174,25774,2,0,B|104:128|104:128|80:67,1,105,2|0,0:0|0:0,0:0:0:0:
70,58,26125,2,0,B|154:68,1,70,8|2,0:0|1:2,0:0:0:0:
208,125,26476,5,4,0:0:0:0:
280,70,26651,2,0,P|274:41|270:-3,2,70,2|8|0,0:0|0:0|1:0,0:0:0:0:
292,160,27177,1,2,0:0:0:0:
208,125,27353,2,0,P|206:197|256:244,1,140,0|0,1:0|1:0,0:0:0:0:
342,239,27879,2,0,L|417:219,1,70,2|0,1:2|1:0,0:0:0:0:
436,133,28230,2,0,L|381:78,1,70,8|2,0:0|1:2,0:0:0:0:
297,104,28581,2,0,L|276:178,1,70,2|0,0:0|1:0,0:0:0:0:
206,227,28932,2,0,B|144:216|169:186|91:185,1,105,10|0,0:0|0:0,0:0:0:0:
91,194,29283,6,0,P|133:147|117:69,2,140,2|10|0,1:2|0:0|0:0,0:0:0:0:
18,361,30335,2,0,L|98:345,1,70,8|8,0:0|0:0,0:0:0:0:
158,296,30686,6,0,B|207:311|207:311|216:325|216:325|263:341,1,105,12|4,0:0|3:0,0:0:0:0:
271,343,31037,1,0,1:0:0:0:
343,288,31212,2,0,B|369:242|369:242|331:190,1,105,12|8,0:2|0:0,0:0:0:0:
323,185,31563,1,12,0:0:0:0:
249,130,31739,2,0,B|257:87|257:87|252:79|252:79|262:21,1,105,12|0,0:0|0:0,0:0:0:0:
277,12,32090,6,0,L|369:24,1,70,4|0,1:0|0:0,0:0:0:0:
409,86,32441,2,0,P|464:90|499:21,2,140,0|0|8,1:0|1:0|0:0,0:0:0:0:
352,157,33318,1,2,1:2:0:0:
440,175,33493,2,0,B|458:209|458:209|440:236,1,70,0|0,1:0|0:0,0:0:0:0:
387,309,33844,2,0,L|228:324,1,140,0|0,1:0|1:0,0:0:0:0:
167,365,34370,5,8,0:0:0:0:
165,273,34546,1,4,3:0:0:0:
168,373,34721,1,8,0:0:0:0:
81,320,34897,6,0,P|44:327|1:339,1,70,2|0,1:2|0:0,0:0:0:0:
165,273,35248,2,0,P|182:228|137:154,1,140,4|0,1:2|1:0,0:0:0:0:
46,156,35774,2,0,L|4:164,2,35,0|4|8,1:0|3:0|0:0,0:0:0:0:
93,76,36125,1,2,0:0:0:0:
34,6,36300,6,0,P|92:36|168:4,1,140,0|8,1:0|0:0,0:0:0:0:
250,10,36827,1,0,0:0:0:0:
270,14,36914,1,4,3:0:0:0:
290,19,37002,2,0,L|276:94,1,70,0|8,1:0|0:0,0:0:0:0:
208,148,37353,1,8,0:0:0:0:
255,225,37528,2,0,L|269:267,1,35,4|0,3:0|3:0,0:0:0:0:
257,272,37704,6,0,P|296:281|342:295,1,70,0|0,1:0|1:2,0:0:0:0:
382,360,38055,2,0,P|433:340|454:259,1,140,12|8,0:0|0:0,0:0:0:0:
406,186,38581,2,0,L|360:194,4,35,0|4|4|8|4,1:0|3:0|3:0|3:0|3:0,0:0:0:0:
488,145,39107,5,2,1:2:0:0:
411,94,39283,2,0,L|343:107,1,70,8|8,0:0|0:0,0:0:0:0:
283,176,39634,1,2,0:1:0:0:
209,228,39809,2,0,P|187:199|205:132,1,105,8|4,0:0|3:0,0:0:0:0:
212,118,40160,2,0,L|197:37,1,70,0|0,1:0|3:0,0:0:0:0:
112,19,40511,6,0,P|65:17|16:94,1,140,2|8,1:2|0:0,0:0:0:0:
7,177,41037,1,0,0:0:0:0:
80,229,41212,2,0,L|84:303,2,70,10|0|0,0:0|0:0|1:0,0:0:0:0:
155,176,41739,2,0,B|220:168|201:199|263:199,1,105,12|0,0:2|0:0,0:0:0:0:
274,190,42090,1,10,0:0:0:0:
347,136,42265,1,2,1:0:0:0:
409,209,42441,1,8,0:0:0:0:
409,209,42791,6,0,B|446:262|446:262|419:337,1,140,12|8,0:0|0:0,0:0:0:0:
412,352,43230,1,8,0:0:0:0:
402,370,43318,6,0,L|327:350,1,70,4|0,0:0|0:0,0:0:0:0:
243,361,43669,2,0,L|263:286,1,70,8|0,0:0|1:0,0:0:0:0:
320,224,44019,2,0,L|364:238,2,35,4|4|8,3:0|3:0|3:0,0:0:0:0:
273,145,44370,2,0,L|261:101,3,35,8|0|0|0,1:2|1:2|1:0|1:0,0:0:0:0:
257,94,44721,6,0,L|180:114,1,70,2|8,1:2|0:0,1:2:0:0:
110,66,45072,2,0,B|90:112|90:112|117:175,1,105,12|0,0:0|0:0,0:0:0:0:
121,182,45423,2,0,L|71:198,2,35,8|8|4,3:0|3:0|3:0,0:0:0:0:
189,242,45774,1,0,1:0:0:0:
186,262,45862,1,0,1:0:0:0:
183,282,45949,1,0,1:0:0:0:
180,302,46037,1,0,1:0:0:0:
177,322,46125,6,0,P|218:358|283:344,1,105,12|0,0:0|1:0,0:0:0:0:
287,353,46476,1,0,1:0:0:0:
376,337,46651,6,0,P|386:283|342:234,1,105,12|0,0:0|1:0,0:0:0:0:
348,226,47002,1,0,1:0:0:0:
257,232,47177,5,8,0:0:0:0:
200,125,47353,2,0,B|178:92|178:92|186:32|256:21,1,140,12|12,0:0|0:0,0:0:0:0:
319,72,47879,1,12,0:0:0:0:
402,35,48055,1,12,0:0:0:0:
402,35,48405,6,0,B|447:66|447:66|416:156,1,140,12|0,0:2|0:0,0:0:0:0:
471,288,48932,6,0,P|441:254|371:251,1,105,4|0,1:2|0:0,0:0:0:0:
367,257,49283,2,0,L|284:230,1,70,10|0,0:1|0:0,0:0:0:0:
227,290,49634,1,2,1:2:0:0:
220,199,49809,1,2,0:0:0:0:
133,171,49984,2,0,L|49:190,1,70,8|0,0:0|1:0,0:0:0:0:
10,259,50335,5,2,1:2:0:0:
10,259,50511,1,2,1:0:0:0:
40,344,50686,2,0,P|87:362|134:321,1,105,10|0,0:1|0:0,0:0:0:0:
141,317,51037,2,0,L|123:241,1,70,2|2,1:0|1:0,0:0:0:0:
184,180,51388,1,8,0:0:0:0:
247,73,51563,1,0,1:0:0:0:
264,85,51651,1,0,1:0:0:0:
282,96,51739,6,0,B|357:107|338:60|427:70,1,140,4|8,0:0|0:0,0:0:0:0:
481,133,52265,1,0,1:0:0:0:
452,219,52441,2,0,P|418:242|353:226,1,105,6|0,0:2|0:0,0:0:0:0:
342,216,52791,2,0,L|322:298,1,70,8|0,0:0|0:0,0:0:0:0:
274,360,53142,5,0,1:0:0:0:
256,371,53230,2,0,P|217:337|221:277,1,105,10|8,0:1|0:0,0:0:0:0:
257,205,53669,1,2,0:0:0:0:
212,125,53844,2,0,L|228:80,2,35,10|0|2,0:1|0:0|1:0,0:0:0:0:
133,172,54195,1,8,0:0:0:0:
22,96,54370,1,8,0:2:0:0:
19,116,54458,1,8,0:2:0:0:
28,135,54546,6,0,B|54:184|54:184|33:267,1,140,4|8,1:2|0:0,0:0:0:0:
6,353,55072,1,2,0:0:0:0:
94,331,55248,2,0,B|161:343|161:343|169:350|169:350|238:364,1,140,0|8,1:0|0:0,0:0:0:0:
314,328,55774,1,0,1:0:0:0:
288,240,55949,6,0,B|276:201|276:201|305:140,1,105,4|4,1:2|3:0,0:0:0:0:
296,129,56300,2,0,L|377:118,2,70,8|2|0,0:0|0:0|1:0,0:0:0:0:
442,162,56827,2,0,P|455:132|442:86,1,70,2|8,1:0|0:0,0:0:0:0:
391,25,57177,1,0,1:0:0:0:
370,28,57265,1,0,1:0:0:0:
349,31,57353,6,0,L|235:45,1,105,4|0,0:0|0:0,0:0:0:0:
225,35,57704,2,0,B|196:56|196:56|159:42,1,70,8|0,0:0|0:0,0:0:0:0:
96,105,58055,1,0,1:0:0:0:
96,105,58230,1,2,1:0:0:0:
8,80,58405,2,0,P|0:116|20:154,1,70,8|8,0:0|0:0,0:0:0:0:
24,163,58669,1,8,0:0:0:0:
41,176,58756,6,0,L|16:285,1,105,12|0,0:0|1:0,0:0:0:0:
12,297,59107,1,8,0:0:0:0:
101,280,59283,1,12,0:0:0:0:
254,355,59634,2,0,P|297:329|291:230,1,140,4|8,0:0|0:0,0:0:0:0:
211,147,60160,6,0,P|217:113|225:67,1,70,4|2,1:2|1:2,0:0:0:0:
168,5,60511,2,0,P|229:41|304:15,1,140,10|2,0:1|1:2,0:0:0:0:
348,96,61037,1,2,0:0:0:0:
434,69,61212,2,0,L|422:-1,1,70,8|0,0:0|1:0,0:0:0:0:
418,158,61563,5,2,1:2:0:0:
348,96,61739,1,0,1:0:0:0:
279,155,61914,2,0,P|250:196|264:256,1,105,10|0,0:1|0:0,0:0:0:0:
249,266,62265,2,0,L|329:288,1,70,2|2,1:0|1:0,0:0:0:0:
378,352,62616,2,0,L|298:374,1,70,10|0,0:2|1:0,0:0:0:0:
408,268,62967,6,0,L|433:115,1,140,4|8,1:2|0:0,0:0:0:0:
512,87,63493,1,0,1:0:0:0:
438,32,63669,2,0,P|397:30|346:81,1,105,4|0,1:2|0:0,0:0:0:0:
332,79,64019,2,0,L|246:58,1,70,8|0,0:0|0:0,0:0:0:0:
178,30,64370,2,0,B|170:99|170:99|177:113|177:113|167:179,1,140,4|8,1:2|0:0,0:0:0:0:
230,235,64897,2,0,L|234:314,1,70,2|0,0:0|1:0,0:0:0:0:
104,356,65248,5,2,1:0:0:0:
15,336,65423,1,10,0:1:0:0:
108,346,65598,1,8,0:0:0:0:
77,217,65774,6,0,P|85:185|96:146,1,70,4|0,1:2|0:0,0:0:0:0:
63,69,66125,1,10,0:0:0:0:
63,69,66300,1,0,0:0:0:0:
150,46,66476,2,0,P|187:34|242:83,1,105,2|0,1:2|0:0,0:0:0:0:
247,89,66827,2,0,L|324:74,1,70,8|0,0:0|0:0,0:0:0:0:
399,42,67177,6,0,P|401:112|353:158,2,140,2|8|2,1:0|0:0|1:0,0:0:0:0:
315,75,68055,1,0,1:0:0:0:
262,149,68230,2,0,L|278:239,1,70,8|0,0:0|1:0,0:0:0:0:
215,287,68581,6,0,P|263:313|342:275,1,140,2|8,1:2|0:0,0:0:0:0:
374,198,69107,1,0,3:0:0:0:
460,226,69283,2,0,L|451:330,1,105,2|0,1:0|0:0,0:0:0:0:
464,348,69634,2,0,B|433:365|433:365|394:348,1,70,8|0,0:0|0:0,0:0:0:0:
327,234,69984,6,0,P|297:221|256:232,1,70,12|0,0:0|0:0,0:0:0:0:
244,242,70248,2,0,L|228:168,1,70,0|0,1:0|0:0,0:0:0:0:
226,152,70511,1,8,0:0:0:0:
137,133,70686,1,2,0:0:0:0:
137,224,70862,2,0,P|75:257|72:325,1,140,10|0,0:0|0:0,0:0:0:0:
187,368,71388,6,0,L|266:357,1,70,4|0,1:2|1:0,0:0:0:0:
343,282,71739,2,0,L|264:271,1,70,0|8,1:0|0:0,0:0:0:0:
148,197,72090,6,0,L|227:186,1,70,2|0,1:0|1:0,0:0:0:0:
366,117,72441,2,0,L|287:106,1,70,8|8,0:0|0:0,0:0:0:0:
256,11,72791,5,4,1:2:0:0:
256,11,74195,6,0,P|206:19|164:95,1,140,6|8,0:2|0:0,0:0:0:0:
213,168,74721,2,0,L|293:187,1,70,2|0,0:0|0:0,0:0:0:0:
323,264,75072,2,0,L|391:247,1,70,2|8,1:0|0:0,0:0:0:0:
468,200,75423,2,0,P|485:260|434:327,1,140,2|0,1:0|1:0,0:0:0:0:
374,379,75949,1,8,0:0:0:0:
288,348,76125,2,0,L|176:325,1,105,2|0,0:0|1:0,0:0:0:0:
165,335,76476,2,0,B|151:302|151:302|167:264,1,70,2|8,1:2|0:0,0:0:0:0:
217,203,76827,1,0,1:0:0:0:
227,185,76914,1,0,1:0:0:0:
237,166,77002,6,0,L|224:94,2,70,2|0|8,1:0|1:0|0:0,0:0:0:0:
292,59,77528,2,0,P|234:80|176:35,1,140,2|0,1:2|1:0,0:0:0:0:
85,22,78055,1,8,0:0:0:0:
32,95,78230,1,0,1:0:0:0:
26,115,78318,1,0,1:0:0:0:
19,134,78405,6,0,L|38:209,2,70,2|0|8,1:0|1:0|0:0,0:0:0:0:
110,139,78932,1,2,0:0:0:0:
164,211,79107,2,0,L|210:201,1,35,8|8,3:0|3:0,0:0:0:0:
216,192,79283,2,0,P|258:216|262:305,1,140,4|0,1:2|0:0,0:0:0:0:
361,383,79809,6,0,B|418:347|418:347|401:275,1,140,4|8,0:0|0:0,0:0:0:0:
379,187,80335,2,0,L|397:112,1,70,2|0,0:0|0:0,0:0:0:0:
441,40,80686,2,0,P|407:25|369:35,1,70,2|8,1:0|0:0,0:0:0:0:
307,91,81037,2,0,B|229:85|262:38|173:43,1,140,2|0,1:0|1:0,0:0:0:0:
185,133,81563,1,8,0:0:0:0:
94,145,81739,2,0,L|116:260,1,105,2|0,1:2|1:0,0:0:0:0:
105,269,82090,2,0,P|74:278|31:252,1,70,2|8,1:2|0:0,0:0:0:0:
4,180,82441,1,0,1:0:0:0:
13,160,82528,1,0,1:0:0:0:
24,142,82616,6,0,L|6:68,2,70,2|2|8,1:0|1:2|0:0,0:0:0:0:
110,113,83142,2,0,L|83:5,1,105,2|0,1:2|0:0,0:0:0:0:
108,20,83493,2,0,B|146:29|146:29|187:0,1,70,2|8,1:2|0:0,0:0:0:0:
240,70,83844,1,0,1:0:0:0:
314,17,84019,6,0,P|333:48|329:88,1,70,12|0,0:0|0:0,0:0:0:0:
329,102,84283,1,4,3:0:0:0:
318,120,84370,1,0,1:0:0:0:
210,195,84546,5,8,0:0:0:0:
210,195,84897,2,2,B|285:224|285:224|294:254|294:254|392:292,1,210,2|4,1:0|1:2,1:0:0:0:
209,334,85774,6,0,B|147:363|147:363|82:330,1,140,8|2,1:0|0:0,0:0:0:0:
13,272,86300,1,0,1:0:0:0:
13,272,86476,2,0,L|1:195,1,70,10|0,0:0|1:0,0:0:0:0:
89,177,86827,2,0,L|116:34,2,140,2|8|0,0:0|0:0|0:0,0:0:0:0:
163,229,87704,1,2,1:2:0:0:
237,176,87879,2,0,P|271:189|287:217,1,70,8|0,0:0|0:0,0:0:0:0:
287,308,88230,1,2,1:2:0:0:
458,369,88581,6,0,P|467:317|502:221,1,140,8|0,0:0|1:0,0:0:0:0:
491,143,89107,1,2,1:2:0:0:
404,172,89283,2,0,L|335:157,1,70,8|0,0:0|1:2,0:0:0:0:
268,218,89634,2,0,P|244:180|273:94,1,140,2|8,0:0|0:0,0:0:0:0:
360,65,90160,1,2,1:2:0:0:
360,65,90335,2,0,L|439:81,2,70,0|0|8,0:0|1:0|0:0,0:0:0:0:
285,16,90862,1,2,1:2:0:0:
285,16,90949,1,0,1:0:0:0:
285,16,91037,5,4,0:0:0:0:
201,51,91212,1,2,0:0:0:0:
114,21,91388,2,0,L|42:43,1,70,8|0,0:0|1:0,0:0:0:0:
59,131,91739,2,0,L|-20:116,2,70,2|0|8,0:0|1:0|0:0,0:0:0:0:
117,201,92265,1,0,1:0:0:0:
70,279,92441,6,0,P|129:294|194:247,1,140,2|8,1:2|0:0,0:0:0:0:
200,161,92967,1,2,1:2:0:0:
282,123,93142,2,0,L|270:47,1,70,0|0,0:0|1:0,0:0:0:0:
357,24,93493,2,0,L|372:145,1,105,10|0,0:0|0:0,0:0:0:0:
373,150,93844,6,0,B|438:168|438:168|447:183|447:183|517:203,2,140,2|10|0,1:2|0:0|1:0,0:0:0:0:
369,336,94897,1,8,0:0:0:0:
369,336,95072,1,8,0:0:0:0:
286,374,95248,6,0,P|276:327|310:268,1,105,12|4,0:0|3:0,0:0:0:0:
316,264,95598,1,0,1:0:0:0:
239,213,95774,2,0,P|192:223|133:189,1,105,12|8,0:2|0:0,0:0:0:0:
129,183,96124,1,12,0:0:0:0:
40,206,96300,2,0,L|26:94,1,105,12|0,0:0|0:0,0:0:0:0:
18,82,96651,6,0,P|28:45|61:24,1,70,4|0,1:0|0:0,0:0:0:0:
136,62,97002,2,0,L|276:82,2,140,0|0|8,1:0|1:0|0:0,0:0:0:0:
111,149,97879,1,2,1:2:0:0:
181,207,98055,2,0,L|166:282,1,70,0|0,1:0|0:0,0:0:0:0:
88,320,98405,2,0,P|145:307|210:374,1,140,0|0,1:0|1:0,0:0:0:0:
290,321,98932,5,8,0:0:0:0:
369,364,99107,1,4,3:0:0:0:
291,315,99283,1,8,0:0:0:0:
345,242,99458,6,0,P|353:212|316:151,1,105,2|0,1:2|0:0,0:0:0:0:
297,152,99809,2,0,L|325:9,1,140,4|0,1:2|1:0,0:0:0:0:
415,14,100335,1,0,1:0:0:0:
432,25,100423,1,4,3:0:0:0:
450,36,100511,2,0,L|435:117,1,70,8|2,0:0|0:0,0:0:0:0:
501,169,100862,6,0,P|456:196|376:170,1,140,0|8,1:0|0:0,0:0:0:0:
309,232,101388,2,0,L|320:282,2,35,0|4|0,0:0|3:0|1:0,0:0:0:0:
229,186,101739,2,0,L|244:111,1,70,8|8,0:0|0:0,0:0:0:0:
185,45,102090,1,4,3:0:0:0:
166,35,102177,1,0,3:0:0:0:
145,37,102265,6,0,P|109:36|76:12,1,70,2|0,1:2|1:2,0:0:0:0:
21,87,102616,2,0,P|89:126|171:124,1,140,12|8,0:0|0:0,0:0:0:0:
211,195,103142,2,0,L|260:184,4,35,0|4|4|8|4,1:0|3:0|3:0|3:0|3:0,0:0:0:0:
143,257,103669,1,2,1:2:0:0:
53,244,103844,2,0,P|50:281|81:316,1,70,8|8,0:0|0:0,0:0:0:0:
148,348,104195,1,2,0:1:0:0:
222,295,104370,2,0,L|340:318,1,105,8|4,0:0|3:0,0:0:0:0:
344,307,104721,2,0,B|366:273|366:273|355:232,1,70,0|0,1:0|3:0,0:0:0:0:
296,177,105072,6,0,B|307:116|307:116|300:101|300:101|309:39,1,140,2|8,1:2|0:0,0:0:0:0:
396,14,105598,1,0,1:0:0:0:
409,29,105686,1,0,1:0:0:0:
429,31,105774,2,0,P|464:31|490:-7,2,70,10|0|0,0:0|1:0|1:0,0:0:0:0:
408,112,106300,6,0,P|393:163|425:205,1,105,12|0,0:2|0:0,0:0:0:0:
441,209,106651,1,10,0:0:0:0:
501,277,106827,1,2,1:0:0:0:
416,299,107002,1,8,0:0:0:0:
416,299,107353,6,0,B|349:288|349:288|332:297|332:297|269:286,1,140,12|8,0:0|0:0,0:0:0:0:
260,296,107791,1,8,0:0:0:0:
252,315,107879,6,0,L|236:232,1,70,4|0,0:0|0:0,0:0:0:0:
149,226,108230,2,0,L|163:150,1,70,8|0,0:0|1:0,0:0:0:0:
225,92,108581,2,0,L|267:104,2,35,4|4|8,3:0|3:0|3:0,0:0:0:0:
160,27,108932,2,0,L|153:-12,4,35,8|0|0|0|2,1:2|1:2|1:0|1:0|1:2,0:0:0:0:
83,76,109458,5,8,0:0:0:0:
66,88,109546,1,4,3:0:0:0:
49,100,109634,2,0,L|63:176,1,70,12|0,0:0|0:0,0:0:0:0:
38,256,109984,2,0,L|12:294,2,35,8|8|4,3:0|3:0|3:0,0:0:0:0:
108,313,110335,1,0,1:0:0:0:
128,318,110423,1,0,1:0:0:0:
149,318,110511,1,0,1:0:0:0:
168,311,110598,1,0,1:0:0:0:
183,296,110686,6,0,L|169:183,1,105,12|0,0:0|1:0,0:0:0:0:
177,171,111037,1,0,1:0:0:0:
265,193,111212,6,0,L|378:179,1,105,12|0,0:0|1:0,0:0:0:0:
390,187,111563,1,0,1:0:0:0:
449,256,111739,5,8,0:0:0:0:
509,138,111914,2,0,P|517:92|444:35,1,140,12|12,0:0|0:0,0:0:0:0:
365,6,112441,1,12,0:0:0:0:
295,64,112616,2,0,L|216:42,1,70,12|0,0:0|0:0,0:0:0:0:
115,127,112967,2,0,P|88:91|128:1,1,140,4|0,1:2|0:0,0:0:0:0:
209,128,113493,6,0,L|173:274,1,140,4|8,0:0|0:0,0:0:0:0:
113,330,114019,1,2,0:0:0:0:
93,338,114107,1,2,0:0:0:0:
72,332,114195,2,0,P|34:300|47:204,1,140,2|8,0:0|0:0,0:0:0:0:
90,140,114721,1,0,0:0:0:0:
168,187,114897,2,0,L|309:227,1,140,2|8,0:0|0:0,0:0:0:0:
370,286,115423,1,0,0:0:0:0:
448,239,115598,2,0,P|455:209|437:160,2,70,2|2|8,1:2|0:0|0:0,0:0:0:0:
370,286,116125,1,0,1:2:0:0:
365,306,116212,1,0,1:0:0:0:
361,326,116300,6,0,P|289:344|224:370,1,140,2|10,1:2|0:0,0:0:0:0:
146,325,116827,1,0,0:0:0:0:
196,249,117002,2,0,P|214:216|215:175,1,70,2|2,1:2|0:0,0:0:0:0:
145,126,117353,2,0,L|66:141,1,70,8|8,0:0|0:0,0:0:0:0:
25,63,117704,5,10,0:0:0:0:
45,60,117791,2,0,L|168:38,1,105,10|10,0:0|0:1,0:0:0:0:
238,30,118230,1,0,1:0:0:0:
400,112,118581,1,8,0:0:0:0:
298,263,118932,6,0,P|300:311|371:376,1,140,4|2,1:2|0:0,0:0:0:0:
452,381,119458,1,8,0:0:0:0:
486,296,119634,2,0,P|480:247|426:212,1,105,2|0,1:2|0:0,0:0:0:0:
418,217,119984,2,0,L|433:137,1,70,2|8,1:2|0:0,0:0:0:0:
504,93,120335,6,0,P|457:109|386:53,1,140,2|2,0:0|0:0,0:0:0:0:
302,26,120862,1,8,0:0:0:0:
230,81,121037,2,0,L|255:195,1,105,2|0,0:0|1:0,0:0:0:0:
243,203,121388,2,0,B|216:222|216:222|171:208,1,70,2|8,0:0|0:0,0:0:0:0:
113,270,121739,1,0,1:0:0:0:
113,270,121827,1,4,3:0:0:0:
113,270,121914,5,12,0:0:0:0:
40,214,122090,2,0,L|56:130,1,70,0|0,1:0|1:0,0:0:0:0:
142,128,122441,1,12,0:0:0:0:
215,72,122617,2,0,L|199:-12,1,70,2|0,1:2|1:0,0:0:0:0:
119,41,122967,1,12,0:0:0:0:
229,160,123142,6,0,L|307:139,1,70,0|0,1:0|1:0,0:0:0:0:
313,157,123405,2,0,P|298:223|289:277,1,105,8|10,0:0|0:0,0:0:0:0:
335,339,123844,1,0,1:0:0:0:
431,366,124019,1,0,1:0:0:0:
431,366,124107,1,0,1:0:0:0:
431,366,124195,2,0,P|480:342|480:260,1,140,12|0,0:0|0:0,0:0:0:0:
448,135,124721,6,0,P|456:101|472:59,1,70,4|2,1:2|0:0,0:0:0:0:
379,45,125072,2,0,P|367:78|358:111,1,70,10|0,0:2|0:0,0:0:0:0:
291,173,125423,6,0,P|297:214|305:249,1,70,2|2,1:2|0:0,0:0:0:0:
214,264,125774,2,0,P|206:229|201:195,1,70,8|0,0:0|0:0,0:0:0:0:
186,179,126037,1,0,0:0:0:0:
172,162,126125,6,0,P|180:128|196:86,1,70,2|2,1:2|0:0,0:0:0:0:
103,72,126476,2,0,P|91:105|82:138,1,70,8|0,0:0|0:0,0:0:0:0:
0,184,126827,6,0,P|13:219|22:259,1,70,2|2,1:2|0:0,0:0:0:0:
107,319,127177,1,10,0:0:0:0:
7,369,127353,1,0,1:0:0:0:
7,369,127441,1,0,1:0:0:0:
7,369,127528,6,0,P|38:354|84:342,1,70,2|2,1:2|0:0,0:0:0:0:
160,366,127879,2,0,P|191:351|237:339,1,70,8|0,0:0|0:0,0:0:0:0:
316,340,128230,6,0,P|301:309|289:263,1,70,2|2,0:0|0:0,0:0:0:0:
313,187,128581,2,0,P|298:156|286:110,1,70,8|0,0:0|0:0,0:0:0:0:
273,106,128844,1,0,1:0:0:0:
286,89,128932,6,0,L|401:109,1,105,12|8,0:0|0:0,0:0:0:0:
406,94,129283,2,0,P|422:63|411:20,1,70,0|12,0:0|0:0,0:0:0:0:
498,100,129634,1,0,1:0:0:0:
502,117,129721,2,0,P|480:158|467:219,1,105,8|8,0:0|0:0,0:0:0:0:
503,304,130160,1,8,3:0:0:0:
503,304,130248,1,8,0:0:0:0:
503,304,130335,6,0,P|436:308|384:247,1,140,4|8,1:2|0:0,0:0:0:0:
383,167,130862,1,0,1:0:0:0:
305,119,131037,2,0,L|265:112,3,35,4|4|4|4,1:2|3:0|3:0|3:0,0:0:0:0:
252,125,131388,2,0,L|212:132,3,35,0|2|2|0,1:0|1:2|1:2|1:2,0:0:0:0:
196,124,131739,1,4,1:2:0:0:
112,159,131914,1,0,1:0:0:0:
120,178,132002,1,0,1:0:0:0:
129,196,132090,6,0,P|186:209|247:225,1,105,8|0,0:0|0:0,0:0:0:0:
246,236,132441,2,0,P|254:273|237:304,1,70,10|8,1:1|0:0,0:0:0:0:
174,362,132791,1,8,3:0:0:0:
94,342,132967,1,8,0:0:0:0:
94,342,133055,1,8,0:0:0:0:
94,342,133142,6,0,P|57:331|17:326,2,70,12|2|0,0:0|1:2|1:0,0:0:0:0:
159,277,133669,2,0,P|195:266|236:261,2,70,12|0|0,0:2|1:0|1:0,0:0:0:0:
106,202,134195,2,0,P|103:166|98:115,1,70,12|0,1:2|1:0,0:0:0:0:
205,29,134546,6,0,P|236:10|271:10,1,70,12|2,0:2|1:2,0:0:0:0:
265,100,134897,1,0,1:0:0:0:
321,171,135072,6,0,P|352:190|387:190,1,70,12|2,0:2|1:2,0:0:0:0:
381,100,135423,1,0,1:0:0:0:
471,110,135598,2,0,P|473:82|454:40,1,70,12|0,1:2|0:0,0:0:0:0:
340,15,135949,6,0,P|314:27|287:64,1,70,6|0,1:0|0:0,0:0:0:0:
283,80,136212,1,8,0:0:0:0:
286,100,136300,1,8,0:0:0:0:
226,169,136476,2,0,L|114:149,1,105,10|0,0:0|1:0,0:0:0:0:
100,162,136827,2,0,B|81:198|81:198|94:232,1,70,8|8,0:0|2:0,0:0:0:0:
171,339,137177,5,14,1:1:0:0:
256,192,137353,12,0,141914,0:1:0:0:
169,41,142967,6,0,P|127:54|97:116,1,105,4|0,1:2|0:0,0:0:0:0:
82,119,143318,2,0,P|91:156|96:192,1,70,10|0,0:1|0:0,0:0:0:0:
36,257,143669,1,2,1:2:0:0:
82,335,143844,1,2,0:0:0:0:
168,308,144019,2,0,L|255:330,1,70,8|0,0:0|1:0,0:0:0:0:
319,373,144370,5,2,1:2:0:0:
319,373,144546,1,2,1:0:0:0:
388,314,144721,2,0,P|396:276|356:212,1,105,10|0,0:1|0:0,0:0:0:0:
348,211,145072,2,0,L|367:141,2,70,2|2|8,1:0|1:0|0:0,0:0:0:0:
297,99,145598,1,0,1:0:0:0:
304,79,145686,1,0,1:0:0:0:
322,67,145774,6,0,P|374:56|448:107,1,140,4|8,0:0|0:0,0:0:0:0:
509,163,146300,1,0,1:0:0:0:
466,243,146476,2,0,L|447:353,1,105,6|0,0:2|0:0,0:0:0:0:
431,359,146827,2,0,P|393:361|366:337,1,70,8|0,0:0|0:0,0:0:0:0:
323,263,147177,5,0,1:0:0:0:
302,257,147265,2,0,L|196:279,1,105,10|8,0:1|0:0,0:0:0:0:
123,227,147704,1,2,0:0:0:0:
117,317,147879,2,0,L|93:358,2,35,10|0|2,0:1|1:0|1:0,0:0:0:0:
199,278,148230,1,8,0:0:0:0:
285,185,148405,1,8,0:2:0:0:
293,165,148493,1,8,0:2:0:0:
301,145,148581,6,0,L|273:22,1,105,4|0,1:2|0:0,0:0:0:0:
259,32,148932,2,0,P|228:30|196:50,1,70,8|2,0:0|0:0,0:0:0:0:
105,64,149283,2,0,P|118:105|172:137,1,105,0|0,1:0|0:0,0:0:0:0:
191,135,149634,2,0,L|166:212,1,70,8|0,0:0|1:0,0:0:0:0:
86,237,149984,6,0,L|104:348,1,105,4|4,1:2|3:0,0:0:0:0:
89,356,150335,2,0,L|13:340,2,70,8|2|0,0:0|0:0|1:0,0:0:0:0:
230,296,150862,2,0,B|264:286|264:286|300:309,1,70,2|8,1:0|0:0,0:0:0:0:
359,366,151212,1,0,1:0:0:0:
377,356,151300,1,0,1:0:0:0:
395,346,151388,6,0,L|371:227,1,105,4|0,0:0|0:0,0:0:0:0:
387,225,151739,2,0,L|404:146,1,70,8|0,0:0|0:0,0:0:0:0:
319,116,152090,2,0,L|300:194,1,70,0|2,1:0|1:0,0:0:0:0:
222,228,152441,2,0,P|187:222|166:181,1,70,8|8,0:0|0:0,0:0:0:0:
154,179,152704,1,8,0:0:0:0:
160,155,152791,6,0,L|191:38,1,105,12|0,0:0|1:0,0:0:0:0:
193,33,153142,1,8,0:0:0:0:
105,6,153318,1,12,0:0:0:0:
9,160,153669,2,0,P|51:220|32:290,1,140,4|8,0:0|0:0,0:0:0:0:
144,367,154195,6,0,L|220:352,1,70,4|2,1:2|0:0,0:0:0:0:
301,375,154546,2,0,P|304:333|221:261,1,140,10|2,0:1|1:2,0:0:0:0:
152,283,155072,1,2,0:0:0:0:
181,196,155248,2,0,L|168:114,1,70,8|0,0:0|1:0,0:0:0:0:
231,60,155598,5,2,1:2:0:0:
231,60,155774,1,0,0:0:0:0:
302,115,155949,2,0,P|349:122|391:76,1,105,10|0,0:1|0:0,0:0:0:0:
396,65,156300,2,0,L|438:128,1,70,2|2,1:0|1:0,0:0:0:0:
466,208,156651,2,0,B|500:209|500:209|515:165,1,70,10|0,0:2|1:0,0:0:0:0:
379,194,157002,6,0,B|351:237|351:237|376:325,1,140,4|8,1:2|0:0,0:0:0:0:
298,372,157528,1,0,1:0:0:0:
222,320,157704,2,0,L|111:337,1,105,4|0,1:2|0:0,0:0:0:0:
102,348,158055,2,0,L|120:262,1,70,8|0,0:0|0:0,0:0:0:0:
183,218,158405,2,0,L|158:70,1,140,4|8,1:2|0:0,0:0:0:0:
86,25,158932,2,0,L|41:19,2,35,2|0|0,0:0|0:0|1:0,0:0:0:0:
224,15,159283,5,2,1:0:0:0:
311,40,159458,1,10,0:1:0:0:
247,106,159634,1,8,0:0:0:0:
350,193,159809,6,0,L|458:170,1,105,4|0,1:2|0:0,0:0:0:0:
473,178,160160,2,0,B|493:215|493:215|478:250,1,70,10|0,0:0|0:0,0:0:0:0:
465,330,160511,2,0,L|357:353,1,105,2|0,1:2|0:0,0:0:0:0:
342,345,160862,2,0,B|322:308|322:308|337:273,1,70,8|0,0:0|0:0,0:0:0:0:
246,255,161212,6,0,B|268:213|268:213|243:114,2,140,2|8|2,1:0|0:0|1:0,0:0:0:0:
185,324,162090,1,0,1:0:0:0:
113,267,162265,2,0,L|42:287,1,70,8|0,0:0|1:0,0:0:0:0:
29,299,162528,1,4,3:0:0:0:
43,314,162616,6,0,B|58:278|58:278|9:172,1,140,2|8,1:2|0:0,0:0:0:0:
56,104,163142,1,0,3:0:0:0:
141,137,163318,2,0,L|248:154,1,105,2|0,1:0|0:0,0:0:0:0:
263,164,163669,2,0,B|279:198|279:198|266:233,1,70,8|0,0:0|0:0,0:0:0:0:
304,364,164019,6,0,L|390:348,1,70,12|0,0:0|0:0,0:0:0:0:
392,359,164283,2,0,L|416:287,1,70,0|0,1:0|0:0,0:0:0:0:
407,272,164546,1,8,0:0:0:0:
477,215,164721,1,2,0:0:0:0:
420,143,164897,2,0,B|448:2,1,140,10|0,0:0|0:0,0:0:0:0:
324,16,165423,6,0,L|245:27,1,70,4|0,1:2|1:0,0:0:0:0:
169,102,165774,2,0,L|248:113,1,70,0|8,1:0|0:0,0:0:0:0:
364,187,166125,6,0,L|285:198,1,70,2|0,1:0|1:0,0:0:0:0:
146,267,166476,2,0,L|225:278,1,70,8|8,0:0|0:0,0:0:0:0:
256,373,166826,5,4,1:2:0:0:
256,373,168230,6,0,P|209:360|184:269,1,140,6|8,0:2|0:0,0:0:0:0:
242,213,168756,2,0,P|247:179|256:133,1,70,2|0,0:0|0:0,0:0:0:0:
185,82,169107,2,0,P|148:94|113:99,1,70,2|8,1:0|0:0,0:0:0:0:
40,48,169458,2,0,P|22:91|69:172,1,140,2|0,1:0|1:0,0:0:0:0:
152,184,169984,1,8,0:0:0:0:
161,274,170160,2,0,L|276:257,1,105,2|0,0:0|1:0,0:0:0:0:
279,242,170511,2,0,P|290:213|276:170,1,70,2|8,1:2|0:0,0:0:0:0:
314,91,170862,1,0,1:0:0:0:
333,98,170949,1,0,1:0:0:0:
353,103,171037,6,0,L|337:25,2,70,2|0|8,1:0|1:0|0:0,0:0:0:0:
443,90,171563,2,0,L|420:235,1,140,2|0,1:2|1:0,0:0:0:0:
472,304,172090,1,8,0:0:0:0:
381,311,172265,1,0,1:0:0:0:
360,306,172353,1,0,1:0:0:0:
344,292,172441,6,0,L|358:370,2,70,2|0|8,1:0|1:0|0:0,0:0:0:0:
269,238,172967,1,2,0:0:0:0:
195,290,173142,2,0,L|153:283,1,35,8|8,3:0|3:0,0:0:0:0:
140,291,173318,2,0,P|112:257|136:168,1,140,4|0,1:2|0:0,0:0:0:0:
82,34,173844,6,0,L|220:61,1,140,4|8,1:2|0:0,0:0:0:0:
283,126,174370,1,2,1:0:0:0:
362,80,174546,2,0,L|350:1,1,70,8|2,0:0|1:0,0:0:0:0:
442,0,174897,2,0,L|454:79,1,70,8|2,0:0|1:2,0:0:0:0:
502,145,175248,6,0,P|485:179|483:228,1,70,12|0,0:0|0:0,0:0:0:0:
442,292,175598,2,0,P|414:271|396:242,1,70,8|2,0:0|1:0,0:0:0:0:
396,150,175949,1,8,0:0:0:0:
318,197,176125,1,2,1:2:0:0:
298,205,176212,1,0,1:0:0:0:
278,212,176300,2,0,L|202:200,1,70,8|0,0:0|0:0,0:0:0:0:
126,161,176651,5,12,0:0:0:0:
65,228,176827,2,0,L|26:221,2,35,2|0|8,1:0|1:0|0:0,0:0:0:0:
142,275,177177,1,4,1:2:0:0:
122,364,177353,2,0,L|192:346,1,70,8|0,0:0|0:0,0:0:0:0:
210,353,177616,1,8,0:0:0:0:
228,363,177704,2,0,L|298:345,1,70,8|0,0:0|1:0,0:0:0:0:
431,375,178055,5,12,0:0:0:0:
431,375,178230,1,0,1:0:0:0:
489,305,178405,1,8,0:0:0:0:
489,305,178581,1,2,1:0:0:0:
443,226,178756,1,8,0:0:0:0:
355,238,178932,5,8,0:0:0:0:
334,243,179019,2,0,P|297:221|294:158,1,105,8|12,0:0|0:0,0:0:0:0:
