osu file format v14

[General]
AudioFilename: audio.mp3
AudioLeadIn: 0
PreviewTime: 48143
Countdown: 0
SampleSet: Soft
StackLeniency: 0.3
Mode: 0
LetterboxInBreaks: 0
WidescreenStoryboard: 0

[Editor]
Bookmarks: 9634,20862,32090,74195,85423,96651,113493,130335,137265,137441,137616,137791,137879,138055,138142,138318,138493,138669,138756,138932,139107,139283,139458,139546,139721,139897,140072,140248,140423,140511,140686,140862,141037,141212,141300,141476,141651,168230
DistanceSpacing: 0.9
BeatDivisor: 8
GridSize: 8
TimelineZoom: 1.6

[Metadata]
Title:Zankyo Sanka
TitleUnicode:残響散歌
Artist:Aimer
ArtistUnicode:Aimer
Creator:Flask
Version:Ex
Source:「鬼滅の刃」遊郭編
Tags:anime japanese jpop jrock j-pop j-rock pop rock opening op full version Kimetsu no Yaiba Yuukaku hen Yuukaku-hen season 2 two Demon Slayer: Entertainment District Arc alevi エメ 鬼滅の刃遊郭編 uzui tengen 宇髄天元
BeatmapID:3441090
BeatmapSetID:1684121

[Difficulty]
HPDrainRate:5.5
CircleSize:4.2
OverallDifficulty:8.8
ApproachRate:9.5
SliderMultiplier:2.2
SliderTickRate:1

[Events]
//Background and Video events
0,0,"uhdpaper.com-9051e-pc-hd.jpg",0,0
//Break Periods
//Storyboard Layer 0 (Background)
//Storyboard Layer 1 (Fail)
//Storyboard Layer 2 (Pass)
//Storyboard Layer 3 (Foreground)
//Storyboard Layer 4 (Overlay)
//Storyboard Sound Samples

[TimingPoints]
162,350.877192982456,4,2,1,45,1,0
863,350.877192982456,3,2,1,60,1,0
863,-66.6666666666667,3,2,1,60,0,0
1082,-66.6666666666667,3,2,1,5,0,0
1126,-66.6666666666667,3,2,1,60,0,0
1389,-62.5,3,2,1,60,0,0
1608,-62.5,3,2,1,5,0,0
1652,-62.5,3,2,1,60,0,0
1915,-58.8235294117647,3,2,1,60,0,0
2134,-58.8235294117647,3,2,1,5,0,0
2178,-58.8235294117647,3,2,1,60,0,0
2441,-66.6666666666667,3,2,1,60,0,0
2661,-66.6666666666667,3,2,1,5,0,0
2705,-66.6666666666667,3,2,1,60,0,0
2968,-71.4285714285714,3,2,1,60,0,0
3933,-71.4285714285714,3,2,1,5,0,0
4020,350.877192982456,4,2,1,60,1,0
4020,-125,4,2,1,60,0,0
4370,-125,4,2,1,45,0,0
6827,-105.263157894737,4,2,1,50,0,0
8932,-105.263157894737,4,2,1,60,0,0
9458,-66.6666666666667,4,2,1,60,0,0
9634,-83.3333333333333,4,2,1,75,0,0
14721,-50,4,2,1,75,0,0
15248,-83.3333333333333,4,2,1,75,0,0
19458,-66.6666666666667,4,2,1,75,0,0
20335,-55.5555555555556,4,2,1,75,0,0
21212,-100,4,2,1,60,0,0
30686,-62.5,4,2,1,60,0,0
31739,-55.5555555555556,4,2,1,60,0,0
32090,-125,4,2,1,50,0,0
35248,-90.9090909090909,4,2,1,50,0,0
35774,-125,4,2,1,50,0,0
39283,-83.3333333333333,4,2,1,50,0,0
40511,-100,4,2,1,50,0,0
41739,-83.3333333333333,4,2,1,60,0,0
42791,-71.4285714285714,4,2,1,60,0,0
43318,-100,4,2,1,60,0,0
44721,-83.3333333333333,4,2,1,60,0,0
45072,-66.6666666666667,4,2,1,60,0,0
45598,-90.9090909090909,4,2,1,60,0,0
46125,-66.6666666666667,4,2,1,70,0,0
47353,-50,4,2,1,70,0,0
47704,-71.4285714285714,4,2,1,70,0,0
47879,-58.8235294117647,4,2,1,70,0,0
48055,-200,4,2,1,70,0,0
48405,-40,4,2,1,70,0,0
48932,-83.3333333333333,4,2,1,80,0,1
50686,-66.6666666666667,4,2,1,80,0,1
51037,-83.3333333333333,4,2,1,80,0,1
51739,-71.4285714285714,4,2,1,80,0,1
52265,-83.3333333333333,4,2,1,80,0,1
52791,-74.0740740740741,4,2,1,80,0,1
53493,-83.3333333333333,4,2,1,80,0,1
53844,-74.0740740740741,4,2,1,80,0,1
54546,-83.3333333333333,4,2,1,80,0,1
55423,-66.6666666666667,4,2,1,80,0,1
55774,-83.3333333333333,4,2,1,80,0,1
56827,-66.6666666666667,4,2,1,80,0,1
57353,-74.0740740740741,4,2,1,80,0,1
57704,-83.3333333333333,4,2,1,80,0,1
58756,-66.6666666666667,4,2,1,80,0,1
59634,-50,4,2,1,80,0,1
60160,-83.3333333333333,4,2,1,80,0,1
60511,-66.6666666666667,4,2,1,80,0,1
61212,-83.3333333333333,4,2,1,80,0,1
62265,-66.6666666666667,4,2,1,80,0,1
62967,-83.3333333333333,4,2,1,80,0,1
64370,-74.0740740740741,4,2,1,80,0,1
65248,-66.6666666666667,4,2,1,80,0,1
65774,-83.3333333333333,4,2,1,80,0,1
67177,-74.0740740740741,4,2,1,80,0,1
67528,-83.3333333333333,4,2,1,80,0,1
69984,-66.6666666666667,4,2,1,80,0,1
71563,-83.3333333333333,4,2,1,80,0,1
72090,-68.9655172413793,4,2,1,80,0,1
72791,-100,4,2,1,80,0,0
74195,-83.3333333333333,4,2,1,75,0,0
79283,-50,4,2,1,75,0,0
79809,-83.3333333333333,4,2,1,75,0,0
84019,-66.6666666666667,4,2,1,75,0,0
84897,-55.5555555555556,4,2,1,75,0,0
85423,-100,4,2,1,75,0,0
85774,-100,4,2,1,60,0,0
90160,-76.9230769230769,4,2,1,60,0,0
90511,-100,4,2,1,60,0,0
95248,-62.5,4,2,1,60,0,0
96300,-55.5555555555556,4,2,1,60,0,0
96651,-125,4,2,1,50,0,0
99809,-100,4,2,1,50,0,0
100862,-125,4,2,1,50,0,0
103844,-83.3333333333333,4,2,1,50,0,0
105072,-100,4,2,1,50,0,0
106300,-83.3333333333333,4,2,1,60,0,0
107353,-71.4285714285714,4,2,1,60,0,0
107879,-100,4,2,1,60,0,0
108756,-83.3333333333333,4,2,1,60,0,0
109634,-66.6666666666667,4,2,1,60,0,0
110686,-66.6666666666667,4,2,1,70,0,0
111914,-50,4,2,1,70,0,0
112265,-71.4285714285714,4,2,1,70,0,0
112441,-58.8235294117647,4,2,1,70,0,0
112616,-133.333333333333,4,2,1,70,0,0
112967,-60.6060606060606,4,2,1,70,0,0
113405,-60.6060606060606,4,2,1,5,0,0
113493,-90.9090909090909,4,2,1,70,0,0
117791,-71.4285714285714,4,2,1,70,0,0
118932,-90.9090909090909,4,2,1,70,0,0
122441,-71.4285714285714,4,2,1,70,0,0
123405,-55.5555555555556,4,2,1,70,0,0
123669,-71.4285714285714,4,2,1,70,0,0
124195,-55.5555555555556,4,2,1,70,0,0
124721,-90.9090909090909,4,2,1,70,0,0
128932,-62.5,4,2,1,70,0,0
129458,-45.4545454545455,4,2,1,70,0,0
129634,-62.5,4,2,1,70,0,0
130335,-90.9090909090909,4,2,1,70,0,0
132090,-58.8235294117647,4,2,1,70,0,0
133142,-58.8235294117647,4,2,1,70,0,0
134546,-58.8235294117647,4,2,1,75,0,0
135949,-50,4,2,1,80,0,0
137177,-222.222222222222,4,2,1,70,0,0
137265,-222.222222222222,4,2,2,40,0,0
137704,-222.222222222222,4,2,1,30,0,0
138405,-222.222222222222,4,2,2,20,0,0
140511,-222.222222222222,4,2,1,30,0,0
140686,-222.222222222222,4,2,2,40,0,0
141037,-222.222222222222,4,2,1,50,0,0
141563,-222.222222222222,4,2,2,60,0,0
141914,-222.222222222222,4,2,1,5,0,0
142967,-83.3333333333333,4,2,1,80,0,1
144721,-66.6666666666667,4,2,1,80,0,1
145072,-83.3333333333333,4,2,1,80,0,1
145774,-71.4285714285714,4,2,1,80,0,1
146300,-83.3333333333333,4,2,1,80,0,1
146826,-74.0740740740741,4,2,1,80,0,1
147528,-83.3333333333333,4,2,1,80,0,1
147879,-74.0740740740741,4,2,1,80,0,1
148581,-83.3333333333333,4,2,1,80,0,1
149458,-66.6666666666667,4,2,1,80,0,1
149809,-83.3333333333333,4,2,1,80,0,1
150862,-66.6666666666667,4,2,1,80,0,1
151388,-74.0740740740741,4,2,1,80,0,1
151739,-83.3333333333333,4,2,1,80,0,1
152791,-66.6666666666667,4,2,1,80,0,1
153669,-50,4,2,1,80,0,1
154195,-83.3333333333333,4,2,1,80,0,1
154546,-58.8235294117647,4,2,1,80,0,1
155247,-83.3333333333333,4,2,1,80,0,1
156300,-66.6666666666667,4,2,1,80,0,1
157002,-83.3333333333333,4,2,1,80,0,1
158405,-74.0740740740741,4,2,1,80,0,1
159283,-66.6666666666667,4,2,1,80,0,1
159809,-83.3333333333333,4,2,1,80,0,1
161212,-74.0740740740741,4,2,1,80,0,1
161563,-83.3333333333333,4,2,1,80,0,1
164019,-66.6666666666667,4,2,1,80,0,1
165598,-83.3333333333333,4,2,1,80,0,1
166125,-68.9655172413793,4,2,1,80,0,1
166827,-100,4,2,1,80,0,0
167528,-133.333333333333,4,2,1,45,0,0
168230,-83.3333333333333,4,2,1,75,0,0
173318,-50,4,2,1,75,0,0
173844,-71.4285714285714,4,2,1,80,0,0
179019,-55.5555555555556,4,2,1,80,0,0
179283,-45.4545454545455,4,2,1,90,0,0

[Colours]
Combo1 : 117,255,117
Combo2 : 255,255,0
Combo3 : 255,141,87
Combo4 : 47,187,255
Combo5 : 186,117,255

[HitObjects]
44,68,162,5,8,0:0:0:0:
44,68,512,1,8,0:0:0:0:
308,369,863,6,0,B|336:251|411:335|431:200,1,206.250007867813,4|0,0:0|0:0,0:0:0:0:
427,205,1126,1,0,1:0:0:0:
425,192,1213,1,8,0:0:0:0:
308,369,1389,6,0,P|212:332|221:230,1,220,2|0,1:2|0:0,0:0:0:0:
220,230,1652,2,0,P|261:229|283:265,1,88,0|8,1:0|0:0,0:0:0:0:
96,12,1915,6,0,B|72:43|27:43|27:43|-4:90|10:161|83:182,1,233.750004458428,2|0,1:2|0:0,0:0:0:0:
76,180,2178,1,0,1:0:0:0:
95,174,2266,1,8,0:0:0:0:
96,12,2441,6,0,P|146:-3|186:115,1,206.250007867813,2|0,1:2|0:0,0:0:0:0:
177,124,2705,2,0,P|139:113|129:75,1,82.5000031471254,0|8,1:0|0:0,0:0:0:0:
440,250,2968,6,0,B|496:257|489:327|454:360|403:355|373:310|373:310|398:222|398:222|410:210|410:210|459:33|459:33|448:0|399:-11|359:2|335:54|346:98|380:126|439:128|439:128|501:127|512:167,1,846.999974151612,4|0,1:2|0:0,0:0:0:0:
506,176,4020,1,12,0:0:0:0:
186,47,4370,5,4,3:0:0:0:
112,76,4546,2,0,P|104:54|109:26,3,44,2|0|0|0,0:0|0:0|0:0|0:0,0:0:0:0:
258,72,4897,2,0,P|231:112|182:122,1,88,2|0,3:2|0:0,0:0:0:0:
64,194,5248,2,0,P|40:186|18:180,1,44,2|0,3:2|3:0,0:0:0:0:
6,169,5423,5,4,3:0:0:0:
42,318,5598,2,0,P|92:338|136:363,1,88,2|0,0:0|0:0,0:0:0:0:
172,286,5862,1,8,3:0:0:0:
159,273,5949,2,0,P|123:273|103:334,1,88,2|0,3:2|0:0,0:0:0:0:
329,270,6300,1,2,0:0:0:0:
279,323,6476,2,0,L|293:372,2,44,0|0|0,1:0|3:0|3:0,0:0:0:0:
403,158,6827,6,0,P|456:149|482:200,1,104.499997209549,2|0,0:0|0:0,0:0:0:0:
477,257,7090,2,0,P|475:231|467:207,1,52.2499986047745,8|8,3:0|3:0,0:0:0:0:
333,7,7353,2,0,P|295:33|339:120,1,156.749995814324,2|8,0:0|3:0,0:0:0:0:
347,114,7704,1,2,3:2:0:0:
202,76,7879,1,4,3:0:0:0:
348,134,8055,6,0,B|274:82|272:158|187:93,1,156.749995814324,2|0,0:0|0:0,0:0:0:0:
131,50,8405,1,2,0:0:0:0:
41,140,8581,1,4,3:0:0:0:
49,315,8756,1,2,3:2:0:0:
341,365,8932,6,0,L|377:359,1,26.1249993023873,8|0,3:0|0:0,0:0:0:0:
203,316,9107,2,0,L|184:288,1,26.1249993023873,0|0,3:0|0:0,0:0:0:0:
265,358,9283,2,0,L|277:325,1,26.1249993023873,8|0,3:0|0:0,0:0:0:0:
332,71,9458,2,0,P|304:65|333:80,1,82.5000031471254,2|0,3:0|0:0,0:0:0:0:
425,217,9634,6,0,B|381:182|392:132|392:132|356:186|287:166,1,197.99999395752,6|0,0:2|0:0,0:0:0:0:
285,179,9984,1,8,0:0:0:0:
455,33,10160,2,0,P|491:65|473:145,1,131.99999597168,2|0,0:0|0:0,0:0:0:0:
260,325,10511,2,0,P|235:303|235:259,1,65.9999979858399,2|0,1:0|0:0,0:0:0:0:
309,264,10686,1,8,0:0:0:0:
470,341,10862,6,0,B|421:361|385:308|409:296|365:224|285:275,1,197.99999395752,2|0,1:0|0:0,0:0:0:0:
253,332,11212,2,0,P|282:355|318:351,1,65.9999979858399,0|0,1:0|0:0,0:0:0:0:
405,191,11388,1,8,0:0:0:0:
294,20,11563,6,0,B|237:43|237:43|229:54|229:54|165:79,1,131.99999597168,2|0,0:0|0:0,0:0:0:0:
109,123,11827,1,0,1:0:0:0:
120,141,11914,2,0,B|146:165|146:165|193:153,1,65.9999979858399,2|0,1:2|0:0,0:0:0:0:
42,6,12090,2,0,P|35:45|23:85,1,65.9999979858399,8|0,0:0|0:0,0:0:0:0:
26,337,12265,1,0,1:0:0:0:
77,367,12353,1,0,1:0:0:0:
130,345,12441,6,0,P|157:321|158:281,1,65.9999979858399,2|0,1:0|0:0,0:0:0:0:
246,204,12616,2,0,P|240:172|201:150,1,65.9999979858399,0|0,1:0|0:0,0:0:0:0:
173,72,12791,1,8,0:0:0:0:
84,228,12967,2,0,P|179:259|293:318,1,197.99999395752,2|0,1:2|0:0,0:0:0:0:
330,350,13318,2,0,B|347:349|358:357|358:357|360:334|337:327,1,65.9999979858399,0|0,1:0|0:0,0:0:0:0:
246,204,13493,1,8,0:0:0:0:
463,33,13669,1,0,1:0:0:0:
404,15,13756,1,0,1:0:0:0:
361,54,13844,6,0,P|354:92|373:122,1,65.9999979858399,2|0,1:0|0:0,0:0:0:0:
358,205,14019,2,0,P|387:230|422:228,1,65.9999979858399,0|0,1:0|0:0,0:0:0:0:
500,198,14195,1,8,0:0:0:0:
197,102,14370,1,2,0:0:0:0:
209,27,14546,6,0,B|231:23|242:11|242:11|241:28|254:43,1,65.9999979858399,8|8,3:0|3:0,0:0:0:0:
197,102,14721,2,0,B|197:132|217:155|217:155|173:242|173:242|138:258|124:290|124:290|138:259|121:224|121:224|143:129|143:129|173:123|189:107,1,440,4|0,1:2|0:0,0:0:0:0:
429,157,15248,6,0,B|438:130|464:118|464:118|440:48|368:39|333:91,1,197.99999395752,4|0,0:0|0:0,0:0:0:0:
338,82,15598,1,8,0:0:0:0:
436,259,15774,2,0,B|475:275|475:275|518:239|501:177,1,131.99999597168,2|0,0:0|0:0,0:0:0:0:
282,9,16125,2,0,P|249:31|246:68,1,65.9999979858399,2|0,1:0|0:0,0:0:0:0:
275,144,16300,1,8,0:0:0:0:
68,268,16476,6,0,B|118:253|153:297|144:321|183:365|265:336,1,197.99999395752,2|0,1:0|0:0,0:0:0:0:
307,301,16827,2,0,P|320:293|292:285,1,65.9999979858399,2|0,1:2|0:0,0:0:0:0:
71,354,17002,1,8,0:0:0:0:
184,105,17177,2,0,P|184:154|203:239,1,131.99999597168,2|0,1:2|0:0,0:0:0:0:
296,190,17441,1,0,1:0:0:0:
315,180,17528,2,0,P|300:152|257:142,1,65.9999979858399,2|0,1:2|0:0,0:0:0:0:
176,26,17704,2,0,P|146:29|119:66,1,65.9999979858399,8|0,0:0|0:0,0:0:0:0:
7,230,17879,1,0,1:0:0:0:
22,170,17967,1,0,1:0:0:0:
77,165,18055,6,0,P|117:174|152:185,1,65.9999979858399,2|0,1:0|0:0,0:0:0:0:
258,328,18230,2,0,P|231:351|192:345,1,65.9999979858399,2|0,1:2|0:0,0:0:0:0:
155,108,18405,1,8,0:0:0:0:
258,328,18581,2,0,B|266:194|329:266|331:137,1,197.99999395752,2|0,1:2|0:0,0:0:0:0:
297,81,18932,2,0,P|266:92|261:129,1,65.9999979858399,2|0,1:2|0:0,0:0:0:0:
470,205,19107,1,8,0:0:0:0:
432,20,19283,5,0,1:0:0:0:
420,296,19458,2,0,P|494:285|484:199,1,165.000006294251,12|0,0:0|0:0,0:0:0:0:
407,306,19721,1,4,3:0:0:0:
369,367,19809,2,0,P|327:366|298:318,1,82.5000031471254,0|0,1:0|0:0,0:0:0:0:
122,78,19984,5,8,0:0:0:0:
122,78,20335,2,2,B|141:43|96:35|82:14|82:14|87:40|62:72|53:138|91:193|164:148|173:256|113:279|114:310|114:310|102:282|61:271|70:233,1,494.999984893799,2|0,1:0|0:0,1:0:0:0:
62,227,20862,5,4,1:2:0:0:
62,227,21212,6,0,B|133:200|169:256|158:270|200:318|268:296,1,220,8|2,0:0|0:0,0:0:0:0:
428,266,21739,1,0,1:0:0:0:
479,380,21914,2,0,P|455:330|441:270,1,110,8|0,0:0|0:0,0:0:0:0:
316,214,22265,1,2,0:0:0:0:
373,139,22441,1,0,3:0:0:0:
379,123,22528,1,4,3:0:0:0:
368,106,22616,1,8,0:0:0:0:
266,58,22791,6,0,P|276:112|375:88,1,165,2|0,1:2|0:0,0:0:0:0:
440,74,23142,2,0,P|431:52|400:34,1,55,0|0,1:0|0:0,0:0:0:0:
245,207,23318,1,8,0:0:0:0:
156,181,23493,1,0,1:0:0:0:
91,14,23669,5,2,1:2:0:0:
91,14,24019,2,0,P|136:26|144:82,1,110,8|0,0:0|0:0,0:0:0:0:
88,130,24283,1,4,3:0:0:0:
67,128,24370,1,0,1:0:0:0:
27,277,24546,1,2,1:2:0:0:
127,254,24721,1,8,0:0:0:0:
16,268,24897,2,0,P|16:301|35:328,1,55,0|0,1:2|0:0,0:0:0:0:
180,370,25072,6,0,P|218:354|247:292,1,110,2|0,0:0|0:0,0:0:0:0:
320,354,25335,1,0,1:0:0:0:
305,363,25423,2,0,P|274:366|246:347,1,55,8|0,0:0|0:0,0:0:0:0:
334,192,25598,2,0,P|380:211|396:325,1,165,2|0,1:2|1:0,0:0:0:0:
391,326,25949,1,0,1:0:0:0:
240,201,26125,2,0,P|255:154|267:84,1,110,8|2,0:0|1:2,0:0:0:0:
419,71,26476,5,4,0:0:0:0:
396,0,26651,2,0,P|364:12|346:41,1,55,2|0,0:0|0:0,0:0:0:0:
368,125,26827,2,0,P|394:146|428:147,1,55,8|0,0:0|0:0,0:0:0:0:
493,92,27002,2,0,P|498:58|482:28,1,55,0|0,1:0|0:0,0:0:0:0:
287,101,27177,1,2,0:0:0:0:
419,71,27353,2,0,B|367:85|367:85|360:81|360:81|304:100,1,110,0|8,1:0|0:0,0:0:0:0:
249,118,27616,1,4,3:0:0:0:
231,124,27704,1,0,1:0:0:0:
132,275,27879,5,2,1:2:0:0:
205,333,28055,2,0,P|212:305|221:280,2,55,0|0|8,1:0|1:0|0:0,0:0:0:0:
60,111,28405,2,0,P|75:167|83:229,1,110,2|0,1:2|0:0,0:0:0:0:
132,275,28669,1,4,3:0:0:0:
118,288,28756,2,0,P|95:300|60:293,1,55,0|0,1:0|0:0,0:0:0:0:
177,124,28932,1,10,0:0:0:0:
8,227,29107,2,0,P|9:201|32:174,1,55,2|0,0:0|0:0,0:0:0:0:
213,252,29283,6,0,L|327:286,1,110,2|0,1:2|0:0,0:0:0:0:
334,286,29546,1,0,1:0:0:0:
392,331,29634,2,0,B|412:310|412:310|405:278,1,55,10|0,0:0|0:0,0:0:0:0:
311,167,29809,1,0,1:0:0:0:
296,172,29897,2,0,B|272:134|272:134|296:64,1,110,0|0,1:0|0:0,0:0:0:0:
319,5,30160,1,2,0:0:0:0:
297,172,30335,1,8,0:0:0:0:
479,186,30511,1,8,0:0:0:0:
510,134,30598,1,8,0:0:0:0:
477,86,30686,6,0,B|453:106|453:137|453:137|519:185|496:251,1,176,12|0,0:0|0:0,0:0:0:0:
353,279,30949,1,4,3:0:0:0:
279,272,31037,2,0,B|257:267|245:242|245:242|262:251|289:246,1,88,0|0,1:0|0:0,0:0:0:0:
494,364,31212,6,0,B|435:373|416:330|426:320|406:272|317:277,1,176,12|0,0:2|0:0,0:0:0:0:
162,285,31476,1,8,0:0:0:0:
138,357,31563,2,0,P|175:366|219:331,1,88,12|0,0:0|0:0,0:0:0:0:
194,139,31739,6,0,P|100:145|78:320,1,296.99999093628,12|0,0:0|0:0,0:0:0:0:
207,216,32090,6,0,P|236:211|268:166,1,88,4|0,1:0|0:0,0:0:0:0:
189,228,32441,2,0,P|144:217|122:181,1,88,0|0,1:0|0:0,0:0:0:0:
228,7,32791,2,0,P|208:38|198:150,1,132,0|0,1:0|0:0,0:0:0:0:
190,150,33142,1,8,0:0:0:0:
28,71,33318,1,2,1:2:0:0:
27,0,33493,6,0,P|48:26|99:62,1,88,0|0,1:0|0:0,0:0:0:0:
269,136,33844,2,0,P|300:104|287:63,1,88,0|0,1:0|0:0,0:0:0:0:
190,82,34195,1,0,1:0:0:0:
26,216,34370,1,8,0:0:0:0:
101,252,34546,1,4,3:0:0:0:
20,228,34721,1,8,0:0:0:0:
209,367,34897,6,0,P|198:326|191:278,1,88,2|0,1:2|0:0,0:0:0:0:
69,139,35248,6,0,B|131:119|178:162|163:175|221:235|296:192,1,242.000007385254,4|0,1:2|1:0,0:0:0:0:
465,164,35774,1,0,1:0:0:0:
481,186,35861,1,4,3:0:0:0:
471,211,35949,1,8,0:0:0:0:
379,113,36125,1,2,0:0:0:0:
392,285,36300,5,0,1:0:0:0:
392,285,36651,2,0,P|342:273|308:255,1,88,8|0,0:0|0:0,0:0:0:0:
243,281,36914,1,4,3:0:0:0:
225,286,37002,1,0,1:0:0:0:
388,196,37177,1,8,0:0:0:0:
267,76,37353,1,8,0:0:0:0:
315,13,37528,2,0,P|336:31|341:48,1,44,4|0,3:0|3:0,0:0:0:0:
310,143,37704,5,0,1:0:0:0:
183,112,37879,1,0,1:2:0:0:
56,81,38055,2,0,P|67:157|75:228,1,132,12|0,0:0|0:0,0:0:0:0:
87,223,38405,1,8,0:0:0:0:
36,365,38581,1,0,1:0:0:0:
54,324,38669,1,4,3:0:0:0:
97,318,38756,1,4,3:0:0:0:
141,315,38844,1,8,3:0:0:0:
172,283,38932,1,4,3:0:0:0:
256,363,39107,5,2,1:2:0:0:
447,321,39283,2,0,P|471:292|470:259,1,65.9999979858399,8|0,0:0|0:0,0:0:0:0:
371,284,39458,2,0,P|373:251|395:227,1,65.9999979858399,8|0,0:0|0:0,0:0:0:0:
440,39,39634,1,2,0:1:0:0:
460,181,39809,2,0,B|457:121|457:121|449:114|449:114|443:43,1,131.99999597168,8|0,0:0|0:0,0:0:0:0:
511,12,40072,1,4,3:0:0:0:
509,27,40160,1,0,1:0:0:0:
365,133,40335,2,0,P|339:130|311:102,1,65.9999979858399,0|0,3:0|3:0,0:0:0:0:
196,39,40511,6,0,B|116:10|58:81|58:81|14:52|47:5,1,220,2|8,1:2|0:0,0:0:0:0:
240,125,41037,1,0,0:0:0:0:
128,244,41212,2,0,P|178:238|198:177,1,110,10|0,0:0|0:0,0:0:0:0:
240,125,41476,1,4,3:0:0:0:
229,120,41563,1,0,1:0:0:0:
65,353,41739,6,0,B|83:316|48:290|48:290|28:247|34:198|84:170,1,197.99999395752,12|0,0:2|0:0,0:0:0:0:
25,114,42090,2,0,P|10:152|30:181,1,65.9999979858399,10|0,0:0|0:0,0:0:0:0:
226,319,42265,2,0,B|249:317|256:303|256:303|241:309|209:297,1,65.9999979858399,2|0,1:0|0:0,0:0:0:0:
149,323,42441,1,8,0:0:0:0:
149,323,42791,6,0,P|171:246|309:219,1,230.99999295044,12|0,0:0|0:0,0:0:0:0:
400,339,43142,1,8,0:0:0:0:
411,355,43230,1,8,0:0:0:0:
389,374,43318,6,0,P|400:315|427:255,1,110,4|0,0:0|0:0,0:0:0:0:
305,306,43669,1,8,0:0:0:0:
251,130,43844,1,0,1:0:0:0:
412,23,44019,5,4,3:0:0:0:
466,51,44107,1,4,3:0:0:0:
472,109,44195,2,0,B|475:137|475:137|461:159,1,55,8|0,3:0|3:0,0:0:0:0:
365,169,44370,5,8,1:2:0:0:
367,130,44458,1,0,1:2:0:0:
388,101,44546,1,0,1:0:0:0:
351,83,44634,1,0,1:0:0:0:
329,50,44721,2,0,P|298:61|261:67,1,65.9999979858399,2|0,1:2|1:2,1:2:0:0:
32,157,44897,1,8,0:0:0:0:
0,92,44984,1,4,3:0:0:0:
42,37,45072,6,0,B|79:-20|157:-12|189:34|189:34|171:77|199:114,1,247.500009441376,12|0,0:0|0:0,0:0:0:0:
233,279,45423,1,8,3:0:0:0:
206,295,45511,1,8,3:0:0:0:
174,294,45598,2,0,P|137:289|118:272,1,60.5000018463135,4|0,3:0|3:0,0:0:0:0:
86,199,45774,5,0,1:0:0:0:
125,187,45862,1,0,1:0:0:0:
173,209,45949,1,0,1:0:0:0:
223,187,46037,1,0,1:0:0:0:
272,207,46125,6,0,B|350:239|350:239|355:251|355:251|446:285,1,165.000006294251,12|0,0:0|0:0,0:0:0:0:
429,278,46388,1,0,1:0:0:0:
491,320,46476,2,0,B|529:330|529:330|498:289,1,82.5000031471254,0|0,1:0|0:0,0:0:0:0:
337,112,46651,6,0,P|359:27|436:16,1,165.000006294251,12|0,0:0|0:0,0:0:0:0:
470,121,46914,1,0,1:0:0:0:
434,180,47002,2,0,B|431:142|418:99,1,82.5000031471254,0|0,1:0|0:0,0:0:0:0:
192,310,47177,6,0,P|166:294|194:298,1,82.5000031471254,8|0,0:0|0:0,0:0:0:0:
337,112,47353,2,0,B|255:60|173:124|169:209|169:209|223:206|257:246,1,330,12|0,0:0|0:0,0:0:0:0:
352,276,47704,6,0,B|345:241|345:241|340:235|340:235|336:200,1,76.9999976501466,12|0,0:0|0:0,0:0:0:0:
106,96,47879,6,0,B|114:56|114:56|121:51|121:51|127:6,1,93.500001783371,12|0,0:0|0:0,0:0:0:0:
102,377,48055,6,0,B|72:362|72:362|67:353|67:353|31:337,1,82.5,12|0,0:0|0:0,0:0:0:0:
31,337,48405,6,0,B|64:298|64:298|104:324|104:324|64:289|64:289|124:197|124:197|180:133|180:133|135:206|135:206|69:292|69:292|20:266|20:266|60:295|60:295|27:335,1,687.5,12|0,0:2|0:0,0:0:0:0:
35,171,48932,6,0,B|33:145|2:123|2:123|29:58|90:48|134:93,1,197.99999395752,4|0,1:2|0:0,0:0:0:0:
220,64,49283,2,0,P|186:115|122:85,1,131.99999597168,10|0,0:1|0:0,0:0:0:0:
105,21,49546,1,0,3:0:0:0:
116,0,49634,1,2,1:2:0:0:
298,143,49809,1,2,0:0:0:0:
470,24,49984,1,8,0:0:0:0:
484,219,50160,1,0,1:0:0:0:
510,169,50248,1,0,1:0:0:0:
475,124,50335,6,0,B|448:116|448:116|441:108|441:108|410:100,1,65.9999979858399,2|0,1:2|0:0,0:0:0:0:
162,92,50511,2,0,B|190:83|190:83|195:74|195:74|225:61,1,65.9999979858399,2|0,1:0|0:0,0:0:0:0:
335,24,50686,6,0,P|303:106|265:278,1,247.500009441376,10|0,0:1|0:0,0:0:0:0:
286,342,51037,2,0,P|255:348|225:332,1,65.9999979858399,2|0,1:0|0:0,0:0:0:0:
114,238,51212,2,0,P|104:203|116:175,1,65.9999979858399,2|0,1:0|0:0,0:0:0:0:
262,70,51388,1,8,0:0:0:0:
27,0,51563,1,0,1:0:0:0:
1,54,51651,1,0,1:0:0:0:
36,100,51739,6,0,B|97:135|141:91|133:73|176:19|252:65,1,230.99999295044,4|0,0:0|0:0,0:0:0:0:
262,70,52090,1,8,0:0:0:0:
221,293,52265,2,0,P|187:292|167:261,1,65.9999979858399,0|0,1:0|0:0,0:0:0:0:
286,241,52441,2,0,P|266:297|257:374,1,131.99999597168,6|0,0:2|0:0,0:0:0:0:
509,239,52791,2,0,B|471:186|402:187|402:187|364:129|425:81,1,222.750000849724,8|0,0:0|0:0,0:0:0:0:
499,28,53142,5,0,1:0:0:0:
504,44,53230,2,0,P|489:85|399:74,1,148.500000566483,10|0,0:1|0:0,0:0:0:0:
344,31,53493,2,0,B|351:13|349:-2|349:-2|363:5|390:7,1,65.9999979858399,8|0,0:0|0:0,0:0:0:0:
407,192,53669,1,2,0:0:0:0:
240,364,53844,6,0,P|206:347|171:337,1,74.2500002832413,10|0,0:1|0:0,0:0:0:0:
153,136,54019,2,0,P|119:152|84:162,1,74.2500002832413,2|0,1:0|0:0,0:0:0:0:
31,268,54195,2,0,B|13:261|-5:258|-5:258|14:255|32:245,1,74.2500002832413,8|0,0:0|0:0,0:0:0:0:
120,248,54370,1,8,0:2:0:0:
176,259,54458,1,8,0:2:0:0:
231,268,54546,6,0,B|283:237|284:163|268:174|257:114|310:67,1,197.99999395752,4|0,1:2|0:0,0:0:0:0:
330,16,54897,2,0,P|359:34|367:72,1,65.9999979858399,8|0,0:0|0:0,0:0:0:0:
140,39,55072,1,2,0:0:0:0:
411,132,55248,6,0,P|383:150|338:135,1,65.9999979858399,0|0,1:0|0:0,0:0:0:0:
140,39,55423,2,0,P|156:117|171:213,1,165.000006294251,2|8,1:0|0:0,0:0:0:0:
159,274,55686,1,4,3:0:0:0:
139,275,55774,2,0,P|107:259|100:222,1,65.9999979858399,0|0,1:0|0:0,0:0:0:0:
313,231,55949,6,0,B|370:255|370:255|384:274|384:274|437:295,1,131.99999597168,4|0,1:2|0:0,0:0:0:0:
500,327,56212,1,4,3:0:0:0:
512,332,56300,1,8,0:0:0:0:
280,351,56476,1,2,0:0:0:0:
456,211,56651,1,0,1:0:0:0:
301,14,56827,6,0,P|273:47|295:90,1,82.5000031471254,2|0,1:0|0:0,0:0:0:0:
359,65,57002,1,8,0:0:0:0:
313,227,57177,1,0,1:0:0:0:
278,279,57265,1,0,1:0:0:0:
215,280,57353,6,0,B|170:285|141:242|141:242|140:225|140:225|98:160|23:190,1,222.750000849724,4|0,0:0|0:0,0:0:0:0:
77,80,57704,2,0,P|33:92|37:182,1,131.99999597168,8|0,0:0|0:0,0:0:0:0:
40,277,57967,1,4,3:0:0:0:
65,261,58055,1,0,1:0:0:0:
205,65,58230,2,0,B|222:62|232:45|232:45|237:62|251:79,1,65.9999979858399,2|0,1:0|0:0,0:0:0:0:
427,153,58405,1,8,0:0:0:0:
154,330,58581,1,8,0:0:0:0:
161,260,58669,1,8,0:0:0:0:
230,242,58756,6,0,B|330:270|330:270|361:246|358:203,1,165.000006294251,12|0,0:0|0:0,0:0:0:0:
470,305,59019,1,0,1:0:0:0:
456,379,59107,2,0,P|421:372|401:323,1,82.5000031471254,8|0,0:0|0:0,0:0:0:0:
300,49,59283,1,12,0:0:0:0:
300,49,59634,6,0,B|261:26|215:33|188:79|204:97|164:158|126:107|86:126|86:126|113:104|116:57|173:82,1,330,4|0,0:0|0:0,0:0:0:0:
369,0,59984,1,8,0:0:0:0:
402,60,60072,1,8,0:0:0:0:
352,110,60160,6,0,P|339:152|345:190,1,65.9999979858399,4|0,1:2|0:0,0:0:0:0:
456,354,60335,2,0,P|491:346|507:308,1,65.9999979858399,2|0,1:2|0:0,0:0:0:0:
512,188,60511,6,0,P|432:231|312:361,1,247.500009441376,10|0,0:1|0:0,0:0:0:0:
300,356,60862,1,2,1:2:0:0:
88,218,61037,1,2,0:0:0:0:
73,296,61212,2,0,P|110:302|144:272,1,65.9999979858399,8|0,0:0|0:0,0:0:0:0:
198,142,61388,1,0,1:0:0:0:
209,83,61476,1,0,1:0:0:0:
157,64,61563,6,0,P|127:84|90:86,1,65.9999979858399,2|0,1:2|0:0,0:0:0:0:
289,235,61739,1,0,1:0:0:0:
97,87,61914,2,0,B|163:65|207:103|182:130|229:166|290:141,1,197.99999395752,10|0,0:1|0:0,0:0:0:0:
365,100,62265,6,0,P|388:86|361:95,1,82.5000031471254,2|0,1:0|0:0,0:0:0:0:
445,147,62441,2,0,P|463:111|457:53,1,82.5000031471254,2|0,1:0|0:0,0:0:0:0:
316,17,62616,2,0,P|357:-3|406:4,1,82.5000031471254,10|0,0:2|0:0,0:0:0:0:
509,205,62791,1,0,1:0:0:0:
483,241,62879,1,4,3:0:0:0:
498,288,62967,6,0,B|409:322|409:322|399:343|399:343|310:379,1,197.99999395752,4|0,1:2|0:0,0:0:0:0:
308,379,63318,1,8,0:0:0:0:
364,163,63493,2,0,P|401:163|424:183,1,65.9999979858399,0|0,1:0|0:0,0:0:0:0:
478,379,63669,6,0,P|406:346|373:225,1,197.99999395752,4|0,1:2|0:0,0:0:0:0:
337,25,64019,2,0,P|292:48|311:134,1,131.99999597168,8|0,0:0|0:0,0:0:0:0:
365,143,64283,1,4,3:0:0:0:
383,136,64370,6,0,P|280:92|162:63,1,222.750000849724,4|0,1:2|0:0,0:0:0:0:
100,66,64721,1,8,0:0:0:0:
253,31,64897,1,2,0:0:0:0:
291,255,65072,5,0,1:0:0:0:
245,332,65248,2,0,P|217:322|207:257,1,82.5000031471254,2|0,1:0|0:0,0:0:0:0:
376,236,65423,2,0,P|386:263|342:313,1,82.5000031471254,10|0,0:1|0:0,0:0:0:0:
240,186,65598,1,8,0:0:0:0:
215,143,65686,1,8,0:0:0:0:
241,100,65774,6,0,B|243:72|264:49|264:49|225:-1|174:-3|128:41,1,197.99999395752,4|0,1:2|0:0,0:0:0:0:
65,34,66125,2,0,P|67:66|107:93,1,65.9999979858399,10|0,0:0|0:0,0:0:0:0:
322,111,66300,1,0,0:0:0:0:
133,343,66476,2,0,P|147:290|175:216,1,131.99999597168,2|0,1:2|0:0,0:0:0:0:
45,258,66827,1,8,0:0:0:0:
0,100,67002,1,0,0:0:0:0:
264,258,67177,6,0,B|323:260|369:216|369:216|436:239|422:302,1,222.750000849724,2|0,1:0|0:0,0:0:0:0:
437,371,67528,2,0,P|406:376|377:355,1,65.9999979858399,8|0,0:0|0:0,0:0:0:0:
501,194,67704,1,0,0:0:0:0:
347,34,67879,5,2,1:0:0:0:
137,91,68055,1,0,1:0:0:0:
347,34,68230,1,8,0:0:0:0:
137,91,68405,2,0,P|135:130|154:163,1,65.9999979858399,0|4,1:0|3:0,0:0:0:0:
304,252,68581,6,0,P|310:179|198:116,1,197.99999395752,2|0,1:2|0:0,0:0:0:0:
216,101,68932,1,8,0:0:0:0:
29,135,69107,1,0,3:0:0:0:
1,88,69195,1,4,3:0:0:0:
23,39,69283,2,0,P|49:15|87:13,1,65.9999979858399,2|0,1:0|0:0,0:0:0:0:
216,101,69458,2,0,L|200:176,1,65.9999979858399,0|0,1:0|0:0,0:0:0:0:
126,317,69634,2,0,B|115:266|115:266|94:248|94:248|80:188,1,131.99999597168,8|0,0:0|0:0,0:0:0:0:
56,348,69897,1,0,1:0:0:0:
47,359,69984,6,0,B|67:336|67:336|175:326|175:326|194:299,1,165.000006294251,12|0,0:0|0:0,0:0:0:0:
262,288,70248,1,0,1:0:0:0:
205,234,70335,2,0,B|227:232|244:221|244:221|242:242|253:277,1,82.5000031471254,8|0,0:0|0:0,0:0:0:0:
478,72,70511,6,0,B|450:41|444:-2|444:-2|424:37|380:51,1,165.000006294251,8|0,0:0|0:0,0:0:0:0:
418,120,70774,1,0,1:0:0:0:
396,195,70862,2,0,B|409:163|409:163|403:151|403:151|422:113,1,82.5000031471254,8|0,0:0|0:0,0:0:0:0:
281,19,71037,6,0,P|292:63|296:106,1,82.5000031471254,10|0,0:2|0:0,0:0:0:0:
508,255,71212,2,0,P|476:287|451:322,1,82.5000031471254,0|0,1:0|0:0,0:0:0:0:
357,363,71388,5,4,1:2:0:0:
80,239,71563,2,0,P|70:206|56:167,1,65.9999979858399,0|0,1:0|0:0,0:0:0:0:
151,205,71739,2,0,P|142:174|127:133,1,65.9999979858399,0|0,1:0|0:0,0:0:0:0:
27,357,71914,5,8,0:0:0:0:
256,106,72090,2,0,P|267:69|282:29,1,79.7500024337769,2|0,1:0|0:0,0:0:0:0:
336,133,72265,2,0,P|347:96|362:56,1,79.7500024337769,0|0,1:0|0:0,0:0:0:0:
493,375,72441,5,8,0:0:0:0:
460,370,72528,1,8,0:0:0:0:
424,353,72616,1,8,0:0:0:0:
367,314,72704,1,8,0:0:0:0:
328,251,72791,5,4,1:2:0:0:
328,251,74195,6,0,B|322:221|294:206|294:206|342:130|427:176,1,197.99999395752,6|0,0:2|0:0,0:0:0:0:
433,183,74546,1,8,0:0:0:0:
312,11,74721,2,0,P|265:30|258:112,1,131.99999597168,2|0,0:0|0:0,0:0:0:0:
501,231,75072,2,0,P|517:202|511:167,1,65.9999979858399,2|0,1:0|0:0,0:0:0:0:
433,183,75248,1,8,0:0:0:0:
283,355,75423,6,0,B|213:342|213:342|197:316|197:316|102:299,1,197.99999395752,2|0,1:0|0:0,0:0:0:0:
35,340,75774,2,0,B|52:374|52:374|85:373,1,65.9999979858399,0|0,1:0|0:0,0:0:0:0:
262,255,75949,1,8,0:0:0:0:
153,45,76125,2,0,B|186:89|186:89|143:232,1,197.99999395752,2|0,0:0|1:0,0:0:0:0:
82,279,76476,1,2,1:2:0:0:
51,249,76563,1,0,0:0:0:0:
63,207,76651,1,8,0:0:0:0:
276,5,76827,1,0,1:0:0:0:
299,59,76914,1,0,1:0:0:0:
258,98,77002,6,0,P|288:114|322:140,1,65.9999979858399,2|0,1:0|0:0,0:0:0:0:
485,263,77177,2,0,P|506:239|501:201,1,65.9999979858399,0|0,1:0|0:0,0:0:0:0:
308,308,77353,1,8,0:0:0:0:
473,120,77528,2,0,P|406:155|398:280,1,197.99999395752,2|0,1:2|0:0,0:0:0:0:
402,352,77879,2,0,B|436:367|436:367|439:332,1,65.9999979858399,0|0,1:0|0:0,0:0:0:0:
376,159,78055,1,8,0:0:0:0:
238,283,78230,1,0,1:0:0:0:
200,312,78318,1,0,1:0:0:0:
153,307,78405,6,0,P|117:296|82:292,1,65.9999979858399,2|0,1:0|0:0,0:0:0:0:
106,88,78581,2,0,P|70:99|35:103,1,65.9999979858399,0|0,1:0|0:0,0:0:0:0:
0,211,78756,1,8,0:0:0:0:
284,55,78932,1,2,0:0:0:0:
230,5,79107,6,0,P|211:21|208:61,1,65.9999979858399,8|8,3:0|3:0,0:0:0:0:
335,123,79283,2,0,B|362:190|439:210|461:157|493:167|493:167|474:145|512:97|464:49|405:31|364:55|364:55|391:52|410:62,1,440,4|0,1:2|0:0,0:0:0:0:
87,201,79809,6,0,B|70:251|11:260|11:260|72:262|112:301,1,197.99999395752,4|0,0:0|0:0,0:0:0:0:
158,239,80160,1,8,0:0:0:0:
221,15,80335,2,0,P|158:19|129:76,1,131.99999597168,2|0,0:0|0:0,0:0:0:0:
381,218,80686,2,0,P|402:187|400:154,1,65.9999979858399,2|0,1:0|0:0,0:0:0:0:
328,162,80862,1,8,0:0:0:0:
152,223,81037,6,0,B|198:237|240:193|225:182|270:140|328:162,1,197.99999395752,2|0,1:0|0:0,0:0:0:0:
339,285,81388,2,0,P|312:265|301:233,1,65.9999979858399,0|0,1:0|0:0,0:0:0:0:
367,81,81563,1,8,0:0:0:0:
132,0,81739,2,0,P|155:75|161:140,1,131.99999597168,2|0,1:2|0:0,0:0:0:0:
29,171,82002,1,0,1:0:0:0:
33,147,82090,2,0,P|53:123|97:119,1,65.9999979858399,2|0,1:2|0:0,0:0:0:0:
125,196,82265,2,0,P|104:219|60:223,1,65.9999979858399,8|0,0:0|0:0,0:0:0:0:
18,358,82441,1,0,1:0:0:0:
54,316,82528,1,0,1:0:0:0:
107,330,82616,6,0,P|143:339|179:357,1,65.9999979858399,2|0,1:0|0:0,0:0:0:0:
230,190,82791,2,0,P|266:181|302:163,1,65.9999979858399,2|0,1:2|0:0,0:0:0:0:
452,309,82967,1,8,0:0:0:0:
446,151,83142,2,0,P|394:198|356:329,1,197.99999395752,2|0,1:2|0:0,0:0:0:0:
398,381,83493,2,0,P|424:365|432:324,1,65.9999979858399,2|0,1:2|0:0,0:0:0:0:
285,269,83669,1,8,0:0:0:0:
460,138,83844,5,0,1:0:0:0:
261,70,84019,2,0,B|190:103|190:103|181:118|181:118|109:150,1,165.000006294251,12|0,0:0|0:0,0:0:0:0:
36,79,84283,1,4,3:0:0:0:
65,12,84370,2,0,B|107:25|107:25|109:63,1,82.5000031471254,0|0,1:0|0:0,0:0:0:0:
12,290,84546,5,8,0:0:0:0:
12,290,84897,6,2,B|61:293|75:354|75:354|148:391|242:358|249:242|212:187|156:173|109:174|76:250|135:282,1,494.999984893799,2|0,1:0|0:0,1:0:0:0:
134,277,85423,1,4,1:2:0:0:
438,371,85774,6,0,B|436:267|520:310|531:216|487:159,1,220,8|2,0:0|0:0,0:0:0:0:
409,116,86300,1,0,1:0:0:0:
449,16,86476,2,0,P|491:34|492:103,1,110,10|0,0:0|1:0,0:0:0:0:
369,197,86827,1,2,0:0:0:0:
296,155,87002,2,0,P|273:163|233:173,1,55,0|4,3:0|3:0,0:0:0:0:
165,300,87177,5,8,0:0:0:0:
165,300,87528,1,0,0:0:0:0:
254,327,87704,1,2,1:2:0:0:
95,366,87879,1,8,0:0:0:0:
266,331,88055,2,0,L|200:317,1,55
56,233,88230,5,2,1:2:0:0:
56,233,88581,2,0,B|-2:189|37:128|37:128|82:151,1,165,8|0,0:0|3:0,0:0:0:0:
47,54,88932,2,0,P|26:82|28:112,1,55,0|0,1:0|0:0,0:0:0:0:
94,158,89107,1,2,1:2:0:0:
194,19,89283,1,8,0:0:0:0:
284,33,89458,1,0,1:2:0:0:
390,105,89634,6,0,P|425:67|405:16,1,110,2|0,0:0|1:0,0:0:0:0:
401,13,89897,1,0,1:0:0:0:
392,11,89984,1,8,0:0:0:0:
287,128,90160,6,0,B|324:230|230:215|295:343,1,214.49999018097,2|0,1:2|0:0,0:0:0:0:
354,374,90511,2,0,P|367:353|361:320,1,55,0|0,1:0|0:0,0:0:0:0:
220,172,90686,1,8,0:0:0:0:
363,325,90862,1,2,1:2:0:0:
397,332,90949,1,0,1:0:0:0:
431,306,91037,5,4,0:0:0:0:
490,164,91212,1,2,0:0:0:0:
406,184,91388,1,8,0:0:0:0:
496,154,91563,1,0,1:0:0:0:
345,41,91739,2,0,P|313:35|279:23,1,55,2|0,0:0|0:0,0:0:0:0:
415,47,91914,2,0,P|383:52|349:65,1,55,0|0,1:0|0:0,0:0:0:0:
232,128,92090,2,0,P|222:82|201:15,1,110,8|0,0:0|1:0,0:0:0:0:
24,176,92441,6,0,P|109:196|177:239,1,165,2|0,1:2|1:0,0:0:0:0:
182,307,92791,2,0,P|129:301|107:245,1,110,8|2,0:0|1:2,0:0:0:0:
123,188,93055,1,0,1:0:0:0:
135,179,93142,1,0,1:0:0:0:
56,59,93318,2,0,P|87:57|118:43,1,55,0|0,1:0|0:0,0:0:0:0:
269,18,93493,1,10,0:0:0:0:
171,102,93669,2,0,P|184:81|187:39,1,55,2|0,0:0|0:0,0:0:0:0:
382,22,93844,6,0,P|353:112|340:185,1,165,2|0,1:2|0:0,0:0:0:0:
396,241,94195,2,0,P|438:229|445:168,1,110,10|0,0:0|1:0,0:0:0:0:
220,295,94546,1,0,1:0:0:0:
236,314,94634,2,0,P|293:326|354:349,1,110,8|0,0:0|0:0,0:0:0:0:
409,369,94897,1,8,0:0:0:0:
273,226,95072,1,8,0:0:0:0:
233,195,95160,1,8,0:0:0:0:
249,144,95248,6,0,B|221:83|268:28|268:28|228:20|210:59,1,176,12|0,0:0|0:0,0:0:0:0:
376,135,95511,2,0,P|324:121|314:89,1,88,4|0,3:0|0:0,0:0:0:0:
0,52,95686,5,0,1:0:0:0:
38,118,95774,2,0,B|111:66|111:66|102:10|51:3,1,176,12|0,0:2|0:0,0:0:0:0:
121,196,96037,5,8,0:0:0:0:
73,256,96125,2,0,P|29:254|9:219,1,88,12|0,0:0|0:0,0:0:0:0:
191,125,96300,6,0,B|259:119|259:119|323:165|323:165|329:173|329:173|393:221|393:221|459:216,1,296.99999093628,12|0,0:0|0:0,0:0:0:0:
509,166,96651,6,0,B|478:133|478:133|429:147,1,88,4|0,1:0|0:0,0:0:0:0:
400,265,97002,2,0,B|430:297|430:297|479:283,1,88,0|0,1:0|0:0,0:0:0:0:
364,185,97353,2,0,B|306:200|306:200|296:212|296:212|233:230,1,132,0|0,1:0|0:0,0:0:0:0:
223,234,97704,1,8,0:0:0:0:
322,321,97879,1,2,1:2:0:0:
254,364,98055,6,0,P|212:355|164:345,1,88,0|0,1:0|0:0,0:0:0:0:
90,172,98405,1,0,1:0:0:0:
90,172,98756,1,0,1:0:0:0:
66,361,98932,1,8,0:0:0:0:
95,286,99107,1,4,3:0:0:0:
66,361,99283,1,8,0:0:0:0:
202,233,99458,6,0,P|189:194|180:136,1,88,2|0,1:2|0:0,0:0:0:0:
407,245,99809,6,0,P|385:151|343:22,1,220,4|0,1:2|1:0,0:0:0:0:
272,0,100335,1,0,1:0:0:0:
256,25,100423,1,4,3:0:0:0:
268,51,100511,1,8,0:0:0:0:
428,28,100686,1,2,0:0:0:0:
319,111,100862,6,0,P|363:119|424:49,1,132,0|0,1:0|0:0,0:0:0:0:
428,28,101212,1,8,0:0:0:0:
469,198,101388,2,0,P|444:186|433:172,1,44,0|4,0:0|3:0,0:0:0:0:
493,130,101563,5,0,1:0:0:0:
443,276,101739,1,8,0:0:0:0:
313,187,101914,1,8,0:0:0:0:
249,239,102090,1,4,3:0:0:0:
256,254,102177,1,0,3:0:0:0:
262,268,102265,6,0,P|266:227|278:180,1,88,2|0,1:2|1:2,0:0:0:0:
102,145,102616,2,0,P|93:76|80:7,1,132,12|0,0:0|0:0,0:0:0:0:
93,2,102967,1,8,0:0:0:0:
33,201,103142,1,0,1:0:0:0:
74,226,103230,1,4,3:0:0:0:
122,227,103318,1,4,3:0:0:0:
164,204,103405,1,8,3:0:0:0:
186,161,103493,1,4,3:0:0:0:
320,259,103669,5,2,1:2:0:0:
155,367,103844,2,0,P|141:343|140:302,1,65.9999979858399,8|0,0:0|0:0,0:0:0:0:
238,342,104019,2,0,P|237:309|222:280,1,65.9999979858399,8|0,0:0|0:0,0:0:0:0:
402,174,104195,1,2,0:1:0:0:
258,131,104370,2,0,B|337:132|303:178|392:180,1,131.99999597168,8|0,0:0|0:0,0:0:0:0:
442,152,104634,1,4,3:0:0:0:
452,139,104721,2,0,P|453:113|418:83,1,65.9999979858399,0|0,1:0|0:0,0:0:0:0:
265,211,104897,1,0,1:0:0:0:
485,376,105072,6,0,B|468:306|406:307|410:331|331:315|333:229,1,220,2|8,1:2|0:0,0:0:0:0:
188,258,105598,1,0,3:0:0:0:
167,289,105686,1,0,3:0:0:0:
182,330,105774,2,0,P|235:341|300:362,1,110,10|0,0:0|1:2,0:0:0:0:
91,377,106125,2,0,P|85:349|75:320,1,55,0|0,1:0|0:0,0:0:0:0:
0,187,106300,6,0,B|39:155|36:97|36:97|52:152|105:163,1,197.99999395752,12|0,0:2|0:0,0:0:0:0:
59,233,106651,2,0,P|64:254|56:236,1,65.9999979858399,10|0,0:0|0:0,0:0:0:0:
0,37,106827,2,0,P|30:25|71:38,1,65.9999979858399,2|0,1:0|0:0,0:0:0:0:
222,129,107002,1,8,0:0:0:0:
222,129,107353,6,0,B|202:138|193:154|193:154|165:116|211:45|268:47|311:78|311:78|309:36|262:27,1,307.999990600586,12|8,0:0|0:0,0:0:0:0:
193,3,107791,1,8,0:0:0:0:
178,5,107879,6,0,P|180:35|196:56,1,55,4|0,0:0|0:0,0:0:0:0:
263,223,108055,1,0,3:0:0:0:
305,196,108142,1,0,3:0:0:0:
352,211,108230,2,0,P|365:171|414:49,1,165,8|0,0:0|0:0,0:0:0:0:
469,14,108581,5,4,3:0:0:0:
488,62,108669,1,4,3:0:0:0:
462,114,108756,2,0,P|434:132|397:129,1,65.9999979858399,8|0,3:0|3:0,0:0:0:0:
263,308,108932,1,8,1:2:0:0:
360,381,109107,2,0,P|350:352|344:314,1,65.9999979858399,0|0,1:0|0:0,0:0:0:0:
320,94,109283,5,2,1:2:0:0:
136,206,109458,1,8,0:0:0:0:
102,254,109546,1,4,3:0:0:0:
124,304,109634,2,0,B|140:216|95:249|96:141,1,165.000006294251,12|0,0:0|0:0,0:0:0:0:
74,74,109897,1,0,0:0:0:0:
71,67,109984,5,8,3:0:0:0:
123,19,110072,1,8,3:0:0:0:
145,87,110160,1,4,3:0:0:0:
262,272,110335,5,0,1:0:0:0:
318,285,110423,1,0,1:0:0:0:
359,244,110511,1,0,1:0:0:0:
413,260,110598,1,0,1:0:0:0:
453,222,110686,6,0,P|376:260|391:344,1,165.000006294251,12|0,0:0|0:0,0:0:0:0:
397,342,110949,1,0,1:0:0:0:
472,351,111037,2,0,B|494:335|509:328|509:328|493:333|468:327,1,82.5000031471254,0|0,1:0|0:0,0:0:0:0:
157,333,111212,6,0,B|120:356|78:360|78:360|120:354|163:387,1,165.000006294251,12|0,0:0|0:0,0:0:0:0:
175,357,111476,1,0,1:0:0:0:
254,379,111563,2,0,P|267:354|234:308,1,82.5000031471254,0|0,1:0|0:0,0:0:0:0:
121,170,111739,6,0,P|139:193|124:168,1,82.5000031471254,8|0,0:0|0:0,0:0:0:0:
123,91,111914,2,0,P|142:20|85:103,1,330,12|0,0:0|0:0,0:0:0:0:
113,269,112265,6,0,P|151:270|186:248,1,76.9999976501466,12|0,0:0|0:0,0:0:0:0:
299,29,112441,2,0,P|348:28|379:73,1,93.500001783371,12|0,0:0|0:0,0:0:0:0:
416,286,112616,6,0,B|436:288|434:307|444:319|464:321|464:321|475:300|458:289|450:281|461:254,1,123.750004720688,12|0,0:0|0:0,0:0:0:0:
323,268,112967,6,0,B|358:258|385:265|420:299|429:328|422:362|452:372|491:381|491:381|506:349|516:307|471:300|460:277|453:213|469:184|518:159,1,453.750004327297,4|0,1:2|0:0,0:0:0:0:
299,36,113493,6,0,P|218:56|156:-12,1,181.500005538941,4|0,0:0|0:0,0:0:0:0:
172,0,113844,2,0,P|178:45|126:97,1,121.000003692627,8|0,0:0|0:0,0:0:0:0:
183,187,114195,1,2,0:0:0:0:
24,215,114370,1,0,1:0:0:0:
35,226,114458,1,0,1:0:0:0:
47,237,114546,2,0,B|97:223|97:223|108:206|108:206|159:192,1,121.000003692627,8|0,0:0|0:0,0:0:0:0:
327,195,114897,5,2,0:0:0:0:
391,358,115072,2,0,P|360:359|332:348,1,60.5000018463135,0|0,1:0|1:0,0:0:0:0:
253,363,115248,2,0,P|217:324|227:257,1,121.000003692627,8|0,0:0|0:0,0:0:0:0:
453,68,115598,2,0,P|458:104|467:134,1,60.5000018463135,2|0,1:2|0:0,0:0:0:0:
319,78,115774,2,0,P|347:54|369:32,1,60.5000018463135,2|0,0:0|0:0,0:0:0:0:
413,204,115949,2,0,P|369:175|299:168,1,121.000003692627,8|0,0:0|0:0,0:0:0:0:
240,210,116212,1,0,1:0:0:0:
252,222,116300,5,2,1:2:0:0:
127,329,116476,1,0,1:2:0:0:
109,347,116563,1,0,1:0:0:0:
128,361,116651,2,0,B|121:318|121:318|112:303|112:303|104:238,1,121.000003692627,10|0,0:0|0:0,0:0:0:0:
1,60,117002,2,0,B|-9:90|-9:90|10:119,1,60.5000018463135,2|0,1:2|0:0,0:0:0:0:
159,91,117177,2,0,B|169:61|169:61|150:32,1,60.5000018463135,2|0,0:0|0:0,0:0:0:0:
81,79,117353,1,8,0:0:0:0:
104,243,117528,2,0,L|94:182,1,60.5000018463135,8|4,0:0|3:0,0:0:0:0:
81,79,117704,5,10,0:0:0:0:
159,91,117791,2,0,P|93:98|-2:117,1,153.999995300293,10|0,0:0|0:0,0:0:0:0:
175,207,118055,2,0,P|217:201|251:191,1,76.9999976501466,10|0,0:1|0:0,0:0:0:0:
393,56,118230,1,0,1:0:0:0:
393,56,118493,5,8,0:0:0:0:
450,103,118581,2,0,B|399:81|396:4|396:4|392:80|334:104,1,230.99999295044,8|0,0:0|0:0,0:0:0:0:
395,164,118932,6,0,B|384:258|438:217|431:319|401:359,1,181.500005538941,4|0,1:2|0:0,0:0:0:0:
338,354,119283,2,0,P|333:327|348:294,1,60.5000018463135,2|0,0:0|0:0,0:0:0:0:
491,359,119458,1,8,0:0:0:0:
338,354,119634,2,0,P|279:359|238:254,1,181.500005538941,2|0,1:2|0:0,0:0:0:0:
211,166,119984,2,0,B|219:191|255:209|255:209|262:236|221:275,1,121.000003692627,2|8,1:2|0:0,0:0:0:0:
114,150,120248,1,0,1:0:0:0:
128,157,120335,6,0,P|186:150|205:31,1,181.500005538941,2|0,0:0|0:0,0:0:0:0:
153,9,120686,1,2,0:0:0:0:
65,240,120862,2,0,P|75:226|67:244,1,60.5000018463135,8|0,0:0|0:0,0:0:0:0:
6,280,121037,2,0,P|46:318|118:309,1,121.000003692627,2|0,0:0|0:0,0:0:0:0:
162,260,121300,1,0,1:0:0:0:
148,190,121388,2,0,P|108:152|36:161,1,121.000003692627,2|8,1:2|0:0,0:0:0:0:
182,339,121739,1,0,1:0:0:0:
222,359,121827,1,4,3:0:0:0:
267,336,121914,5,12,0:0:0:0:
440,274,122090,2,0,P|470:287|499:298,1,60.5000018463135,0|0,1:0|0:0,0:0:0:0:
471,371,122265,2,0,P|443:361|416:349,1,60.5000018463135,0|0,1:0|0:0,0:0:0:0:
253,153,122441,5,12,0:0:0:0:
99,211,122616,2,0,P|67:231|29:232,1,76.9999976501466,2|0,1:2|0:0,0:0:0:0:
1,147,122791,2,0,P|32:126|70:125,1,76.9999976501466,0|0,1:0|0:0,0:0:0:0:
245,0,122967,5,12,0:0:0:0:
482,225,123142,2,0,B|447:236|447:236|438:233|438:233|393:249,1,76.9999976501466,0|0,1:0|0:0,0:0:0:0:
297,283,123318,1,0,1:0:0:0:
343,340,123405,2,0,B|311:327|311:327|329:204|329:204|288:185,1,197.99999395752,10|0,0:0|0:0,0:0:0:0:
218,151,123669,2,0,B|183:164|183:164|212:190,1,76.9999976501466,10|0,0:0|0:0,0:0:0:0:
454,27,123844,5,0,1:0:0:0:
454,27,124107,1,0,1:0:0:0:
503,78,124195,6,0,B|459:73|459:73|451:76|451:76|405:70|405:70|383:113|316:145|259:116|246:66|246:66|256:11|311:-8|364:-3|396:62,1,494.999984893799,12|0,0:0|0:0,0:0:0:0:
392,54,124721,5,4,1:2:0:0:
406,235,124897,1,2,0:0:0:0:
396,57,125072,2,0,B|406:141|406:141|397:159|397:159|408:246,1,181.500005538941,10|0,0:2|0:0,0:0:0:0:
448,297,125423,2,0,B|427:317|427:317|388:307,1,60.5000018463135,2|0,1:2|0:0,0:0:0:0:
161,344,125598,1,2,0:0:0:0:
331,349,125774,2,0,B|297:304|297:304|227:322,1,121.000003692627,8|0,0:0|0:0,0:0:0:0:
83,343,126037,1,0,1:0:0:0:
64,351,126125,5,2,1:2:0:0:
192,226,126300,1,2,0:0:0:0:
53,361,126476,2,0,P|40:290|116:221,1,181.500005538941,8|0,0:0|0:0,0:0:0:0:
192,226,126827,2,0,P|190:194|169:168,1,60.5000018463135,2|0,1:2|0:0,0:0:0:0:
37,217,127002,2,0,P|39:249|60:275,1,60.5000018463135,2|0,0:0|0:0,0:0:0:0:
70,65,127177,1,10,0:0:0:0:
338,47,127353,1,0,1:0:0:0:
296,89,127441,1,0,1:0:0:0:
243,76,127528,5,2,1:2:0:0:
314,197,127704,1,2,0:0:0:0:
276,11,127879,2,0,B|259:89|259:89|245:101|245:101|227:189,1,181.500005538941,8|0,0:0|0:0,0:0:0:0:
185,245,128230,2,0,B|210:267|210:267|259:251,1,60.5000018463135,2|0,0:0|0:0,0:0:0:0:
413,121,128405,1,2,0:0:0:0:
228,182,128581,2,0,B|280:162|280:162|298:166|298:166|349:148,1,121.000003692627,8|0,0:0|0:0,0:0:0:0:
369,64,128844,1,0,1:0:0:0:
432,27,128932,6,0,B|423:71|423:71|349:99|349:99|341:153,1,176,12|0,0:0|0:0,0:0:0:0:
512,279,129195,2,0,B|504:227|504:227|430:199|430:199|421:155,1,176,8|0,0:0|0:0,0:0:0:0:
249,53,129458,6,0,B|231:39|231:39|253:7|253:7|280:36|280:36|260:56,1,121.000003692627,12|0,0:0|0:0,0:0:0:0:
178,225,129634,5,0,1:0:0:0:
100,247,129721,2,0,B|81:227|48:217|48:217|41:136|126:130,1,176,8|0,0:0|0:0,0:0:0:0:
273,341,129984,1,8,0:0:0:0:
345,368,130072,1,4,3:0:0:0:
397,359,130160,1,8,3:0:0:0:
424,332,130248,1,8,0:0:0:0:
429,309,130335,6,0,P|416:258|406:176,1,121.000003692627,4|0,1:2|0:0,0:0:0:0:
232,245,130686,1,8,0:0:0:0:
266,102,130862,1,0,1:0:0:0:
48,60,131037,5,4,1:2:0:0:
25,110,131125,1,4,3:0:0:0:
56,147,131212,2,0,P|90:149|114:130,1,60.5000018463135,4|0,3:0|0:0,0:0:0:0:
266,102,131388,5,0,1:0:0:0:
211,104,131476,1,2,1:2:0:0:
167,72,131563,1,2,1:2:0:0:
194,121,131651,1,0,1:2:0:0:
186,175,131739,1,4,1:2:0:0:
56,364,131914,1,0,1:0:0:0:
27,299,132002,1,0,1:0:0:0:
69,239,132090,6,0,B|139:213|178:282|178:282|200:288|200:288|233:367|312:343,1,280.500005350113,8|0,0:0|0:0,0:0:0:0:
457,370,132441,1,10,1:1:0:0:
484,302,132528,1,8,0:0:0:0:
453,242,132616,1,8,0:0:0:0:
397,226,132704,1,8,0:0:0:0:
353,235,132791,1,8,3:0:0:0:
321,217,132879,1,4,3:0:0:0:
310,192,132967,1,8,0:0:0:0:
317,167,133055,1,8,0:0:0:0:
353,106,133142,6,0,B|383:86|403:97|403:97|385:104|374:140,1,93.500001783371,12|0,0:0|0:0,0:0:0:0:
224,255,133318,1,2,1:2:0:0:
135,50,133493,1,0,1:0:0:0:
357,267,133669,6,0,B|342:300|320:302|320:302|330:286|319:251,1,93.500001783371,12|0,0:2|0:0,0:0:0:0:
99,328,133844,1,0,1:0:0:0:
238,86,134019,1,0,1:0:0:0:
421,351,134195,5,12,1:2:0:0:
118,140,134370,1,0,1:0:0:0:
98,193,134458,1,0,1:0:0:0:
130,232,134546,6,0,P|175:242|205:206,1,93.500001783371,12|0,0:2|0:0,0:0:0:0:
440,227,134721,1,2,1:2:0:0:
214,70,134897,1,0,1:0:0:0:
444,12,135072,6,0,P|485:29|484:76,1,93.500001783371,12|0,0:2|0:0,0:0:0:0:
257,330,135248,1,2,1:2:0:0:
480,155,135423,1,0,1:0:0:0:
142,27,135598,5,12,1:2:0:0:
135,18,135686,2,0,B|113:16|93:5|93:5|36:27|27:83|53:140,1,187.000003566742,0|0,1:0|0:0,0:0:0:0:
70,295,135949,6,0,B|62:326|62:326|136:360|136:360|147:284|147:284|114:265,1,220,6|0,1:0|0:0,0:0:0:0:
46,123,136212,1,8,0:0:0:0:
37,111,136300,2,0,B|43:82|43:82|19:71|19:71|10:93|10:93|37:112,1,110,8|0,0:0|0:0,0:0:0:0:
18,198,136476,2,0,B|44:197|69:213|69:213|76:190|109:167,1,110,10|0,0:0|0:0,0:0:0:0:
352,285,136651,5,0,1:0:0:0:
362,296,136739,1,0,1:0:0:0:
307,359,136827,2,0,P|260:342|253:279,1,110,8|0,0:0|0:0,0:0:0:0:
493,161,137002,2,0,P|501:210|450:247,1,110,8|0,2:0|2:0,2:0:0:0:
215,0,137177,6,2,B|181:47|218:93|218:93|274:74|312:107|312:107|359:97|397:119|412:163|412:163|381:201|337:208|302:179|302:179|250:190|204:135|204:135|138:96|89:139|89:139|28:122|-13:194|-13:194|53:242|98:211|98:211|150:219|181:185|181:185|203:263|167:225|144:283|151:359|222:406|296:378|320:332,1,1336.49995921326,14|0,1:1|0:1,0:1:0:0:
317,74,142967,6,0,B|438:31|438:31|409:57|402:89,1,197.99999395752,4|0,1:2|0:0,0:0:0:0:
512,184,143318,2,0,P|536:139|470:106,1,131.99999597168,10|0,0:1|0:0,0:0:0:0:
441,169,143581,1,0,3:0:0:0:
428,177,143669,1,2,1:2:0:0:
246,23,143844,1,2,0:0:0:0:
125,237,144019,1,8,0:0:0:0:
188,161,144195,1,0,1:0:0:0:
225,200,144283,1,0,1:0:0:0:
223,248,144370,6,0,P|235:279|250:308,1,65.9999979858399,2|0,1:2|0:0,0:0:0:0:
39,316,144546,2,0,P|54:345|66:376,1,65.9999979858399,2|0,1:0|0:0,0:0:0:0:
171,377,144721,2,0,P|138:290|71:135,1,247.500009441376,10|0,0:1|0:0,0:0:0:0:
47,80,145072,6,0,P|26:89|5:125,1,65.9999979858399,2|0,1:0|0:0,0:0:0:0:
223,248,145248,2,0,P|220:220|190:190,1,65.9999979858399,2|0,1:0|0:0,0:0:0:0:
39,316,145423,1,8,0:0:0:0:
167,90,145598,1,0,1:0:0:0:
211,60,145686,1,0,1:0:0:0:
256,77,145774,6,0,B|318:77|357:125|357:125|431:105|393:15,1,230.99999295044,4|0,0:0|0:0,0:0:0:0:
385,16,146125,1,8,0:0:0:0:
483,319,146300,2,0,P|455:310|433:270,1,65.9999979858399,0|0,1:0|0:0,0:0:0:0:
476,116,146476,2,0,P|485:187|501:251,1,131.99999597168,6|0,0:2|0:0,0:0:0:0:
256,362,146827,2,0,B|249:312|249:312|356:260|356:260|351:205,1,222.750000849724,8|0,0:0|0:0,0:0:0:0:
303,86,147177,5,0,1:0:0:0:
277,86,147265,2,0,B|262:82|249:69|249:69|283:189,1,148.500000566483,10|0,0:1|0:0,0:0:0:0:
352,207,147528,2,0,B|380:185|380:185|351:164,1,65.9999979858399,8|0,0:0|0:0,0:0:0:0:
301,13,147704,1,2,0:0:0:0:
145,268,147879,6,0,P|110:263|90:229,1,74.2500002832413,10|0,0:1|0:0,0:0:0:0:
0,172,148055,2,0,P|-13:139|6:104,1,74.2500002832413,2|0,1:0|0:0,0:0:0:0:
278,31,148230,2,0,P|276:70|249:93,1,74.2500002832413,8|0,0:0|0:0,0:0:0:0:
181,159,148405,1,8,0:2:0:0:
132,123,148493,1,8,0:2:0:0:
79,142,148581,6,0,B|185:128|130:213|284:197,1,197.99999395752,4|0,1:2|0:0,0:0:0:0:
336,209,148932,2,0,P|337:185|317:148,1,65.9999979858399,8|0,0:0|0:0,0:0:0:0:
96,227,149107,1,2,0:0:0:0:
346,296,149283,2,0,P|384:286|405:259,1,65.9999979858399,0|0,1:0|0:0,0:0:0:0:
96,227,149458,6,0,P|73:190|115:81,1,165.000006294251,2|8,1:0|0:0,0:0:0:0:
180,40,149721,1,4,3:0:0:0:
181,66,149809,2,0,P|161:91|129:92,1,65.9999979858399,0|0,1:0|0:0,0:0:0:0:
22,275,149984,6,0,P|95:252|182:334,1,197.99999395752,4|4,1:2|3:0,0:0:0:0:
232,378,150335,2,0,P|250:362|253:322,1,65.9999979858399,8|0,0:0|0:0,0:0:0:0:
391,199,150511,2,0,P|381:176|347:153,1,65.9999979858399,2|0,0:0|0:0,0:0:0:0:
246,200,150686,1,0,1:0:0:0:
430,25,150862,6,0,B|467:10|467:10|509:40,1,82.5000031471254,2|0,1:0|0:0,0:0:0:0:
458,97,151037,1,8,0:0:0:0:
438,272,151212,1,0,1:0:0:0:
423,323,151300,1,0,1:0:0:0:
460,354,151388,6,0,B|382:331|382:331|360:283|360:283|265:254,1,222.750000849724,4|0,0:0|0:0,0:0:0:0:
121,203,151739,2,0,B|55:209|55:209|114:239,1,131.99999597168,8|0,0:0|0:0,0:0:0:0:
189,234,152002,1,4,3:0:0:0:
198,236,152090,1,0,1:0:0:0:
307,67,152265,2,0,B|338:54|338:54|289:49,1,65.9999979858399,2|0,1:0|0:0,0:0:0:0:
106,0,152441,1,8,0:0:0:0:
265,148,152616,1,8,0:0:0:0:
208,105,152704,1,8,0:0:0:0:
143,133,152791,6,0,B|111:149|71:135|71:135|116:168|106:231,1,165.000006294251,12|0,0:0|0:0,0:0:0:0:
81,376,153055,1,0,1:0:0:0:
15,340,153142,2,0,P|13:307|55:273,1,82.5000031471254,8|0,0:0|0:0,0:0:0:0:
393,249,153318,1,12,0:0:0:0:
393,249,153669,6,0,B|422:244|444:261|444:261|434:196|395:157|332:147|287:179|287:179|317:189|330:232,1,330,4|0,0:0|0:0,0:0:0:0:
306,359,154019,1,8,0:0:0:0:
301,369,154107,1,8,0:0:0:0:
333,295,154195,6,0,B|404:189|307:223|382:96,1,197.99999395752,4|0,1:2|0:0,0:0:0:0:
467,151,154546,6,0,B|427:232|344:200|351:188|267:160|220:266,1,280.500005350113,10|0,0:1|0:0,0:0:0:0:
204,316,154897,1,2,1:2:0:0:
83,77,155072,1,2,0:0:0:0:
16,128,155248,2,0,P|-3:102|1:66,1,65.9999979858399,8|0,0:0|0:0,0:0:0:0:
139,10,155423,1,0,1:0:0:0:
168,51,155511,1,0,1:0:0:0:
157,108,155598,6,0,P|143:141|142:172,1,65.9999979858399,2|0,1:2|0:0,0:0:0:0:
409,120,155774,1,0,0:0:0:0:
141,170,155949,2,0,B|240:152|240:152|251:157|251:157|345:139,1,197.99999395752,10|0,0:1|0:0,0:0:0:0:
494,131,156300,6,0,B|517:96|517:96|475:66,1,82.5000031471254,2|0,1:0|0:0,0:0:0:0:
359,188,156476,2,0,B|377:225|377:225|414:208,1,82.5000031471254,2|0,1:0|0:0,0:0:0:0:
377,43,156651,2,0,B|335:40|335:40|331:81,1,82.5000031471254,10|0,0:2|0:0,0:0:0:0:
481,384,156827,1,0,1:0:0:0:
512,331,156914,1,4,3:0:0:0:
476,283,157002,6,0,B|360:276|417:353|273:325,1,197.99999395752,4|0,1:2|0:0,0:0:0:0:
268,341,157353,1,8,0:0:0:0:
158,137,157528,2,0,P|129:156|129:198,1,65.9999979858399,0|0,1:0|0:0,0:0:0:0:
184,368,157704,6,0,B|170:297|235:263|235:263|231:208|192:197,1,197.99999395752,4|0,1:2|0:0,0:0:0:0:
81,307,158055,2,0,P|128:308|185:377,1,131.99999597168,8|0,0:0|0:0,0:0:0:0:
339,202,158318,1,4,3:0:0:0:
321,207,158405,6,0,P|216:171|150:72,1,222.750000849724,4|0,1:2|0:0,0:0:0:0:
147,12,158756,2,0,P|189:16|214:51,1,74.2500002832413,8|0,0:0|0:0,0:0:0:0:
63,178,158932,1,2,0:0:0:0:
30,151,159019,1,0,1:0:0:0:
43,115,159107,2,0,P|53:83|63:25,1,74.2500002832413,2|0,1:2|0:0,0:0:0:0:
262,98,159283,6,0,P|300:89|340:72,1,82.5000031471254,2|0,1:0|0:0,0:0:0:0:
476,251,159458,1,10,0:1:0:0:
489,196,159546,1,8,0:0:0:0:
455,150,159634,1,8,0:0:0:0:
399,156,159721,1,8,0:0:0:0:
369,198,159809,6,0,B|365:132|316:121|310:128|260:99|265:12,1,197.99999395752,4|0,1:2|0:0,0:0:0:0:
370,28,160160,2,0,P|372:51|360:27,1,65.9999979858399,10|0,0:0|0:0,0:0:0:0:
280,205,160335,1,0,0:0:0:0:
97,155,160511,2,0,P|81:119|132:49,1,131.99999597168,2|0,1:2|0:0,0:0:0:0:
60,308,160862,1,8,0:0:0:0:
193,145,161037,1,0,0:0:0:0:
344,353,161212,6,0,B|311:365|311:365|264:234|264:234|182:258,1,222.750000849724,2|0,1:0|0:0,0:0:0:0:
148,230,161563,2,0,B|126:256|126:256|177:296,1,65.9999979858399,8|0,0:0|0:0,0:0:0:0:
384,186,161739,1,0,0:0:0:0:
204,361,161914,5,2,1:0:0:0:
257,119,162090,1,0,1:0:0:0:
204,361,162265,1,8,0:0:0:0:
257,119,162441,2,0,P|291:124|324:147,1,65.9999979858399,0|4,1:0|3:0,0:0:0:0:
509,274,162616,6,0,P|438:275|391:383,1,197.99999395752,2|0,1:2|0:0,0:0:0:0:
378,373,162967,1,8,0:0:0:0:
384,193,163142,1,0,3:0:0:0:
417,154,163230,1,4,3:0:0:0:
403,105,163318,2,0,P|376:85|342:84,1,65.9999979858399,2|0,1:0|0:0,0:0:0:0:
242,213,163493,2,0,P|215:233|181:234,1,65.9999979858399,0|0,1:0|0:0,0:0:0:0:
68,39,163669,2,0,B|118:37|131:67|127:74|140:96|194:100,1,131.99999597168,8|0,0:0|0:0,0:0:0:0:
58,302,163932,1,0,1:0:0:0:
39,290,164019,6,0,P|25:215|1:124,1,165.000006294251,12|0,0:0|0:0,0:0:0:0:
112,159,164283,1,0,1:0:0:0:
134,233,164370,2,0,P|91:238|60:204,1,82.5000031471254,8|0,0:0|0:0,0:0:0:0:
295,52,164546,6,0,P|371:35|420:96,1,165.000006294251,8|0,0:0|0:0,0:0:0:0:
345,108,164809,1,0,1:0:0:0:
318,183,164897,2,0,B|330:155|330:155|327:139|327:139|345:107,1,82.5000031471254,8|0,0:0|0:0,0:0:0:0:
461,261,165072,6,0,P|423:264|389:237,1,82.5000031471254,10|0,0:2|0:0,0:0:0:0:
220,12,165248,2,0,P|182:9|148:36,1,82.5000031471254,0|0,1:0|0:0,0:0:0:0:
24,367,165423,5,4,1:2:0:0:
103,204,165598,2,0,P|94:176|79:133,1,65.9999979858399,0|0,1:0|0:0,0:0:0:0:
181,180,165774,2,0,P|172:152|157:109,1,65.9999979858399,0|0,1:0|0:0,0:0:0:0:
24,367,165949,5,8,0:0:0:0:
304,236,166125,2,0,P|344:240|375:274,1,79.7500024337769,2|0,1:0|0:0,0:0:0:0:
329,365,166300,2,0,P|289:361|258:327,1,79.7500024337769,0|0,1:0|0:0,0:0:0:0:
336,23,166476,5,8,0:0:0:0:
363,21,166563,1,8,0:0:0:0:
406,28,166651,1,8,0:0:0:0:
457,63,166739,1,8,0:0:0:0:
481,142,166827,5,4,1:2:0:0:
481,142,167528,6,0,B|440:149|415:178|415:178|422:123|471:123,1,165.000006294251,2|2,0:0|0:0,0:0:0:0:
53,335,168230,6,0,B|70:334|84:321|84:321|113:362|176:355|199:310|178:262,1,197.99999395752,6|0,0:2|0:0,0:0:0:0:
173,249,168581,1,8,0:0:0:0:
58,27,168756,2,0,P|8:59|20:127,1,131.99999597168,2|0,0:0|0:0,0:0:0:0:
312,97,169107,2,0,P|302:68|269:47,1,65.9999979858399,2|0,1:0|0:0,0:0:0:0:
235,124,169283,1,8,0:0:0:0:
325,357,169458,6,0,B|382:364|406:317|387:308|436:251|504:276,1,197.99999395752,2|0,1:0|0:0,0:0:0:0:
490,352,169809,2,0,P|487:366|475:343,1,65.9999979858399,0|0,1:0|0:0,0:0:0:0:
281,193,169984,1,8,0:0:0:0:
415,1,170160,2,0,B|427:62|427:62|422:76|422:76|437:135,1,131.99999597168,2|0,0:0|0:0,0:0:0:0:
462,199,170423,1,0,1:0:0:0:
482,192,170511,2,0,B|512:176|512:176|507:135,1,65.9999979858399,2|0,1:2|0:0,0:0:0:0:
327,87,170686,1,8,0:0:0:0:
264,292,170862,1,0,1:0:0:0:
208,313,170949,1,0,1:0:0:0:
163,278,171037,6,0,P|142:253|146:217,1,65.9999979858399,2|0,1:0|0:0,0:0:0:0:
33,75,171212,2,0,P|65:84|106:92,1,65.9999979858399,0|0,1:0|0:0,0:0:0:0:
188,128,171388,1,8,0:0:0:0:
89,354,171563,2,0,B|47:377|47:377|-37:335|-2:247,1,197.99999395752,2|0,1:2|0:0,0:0:0:0:
21,184,171914,2,0,P|57:201|67:237,1,65.9999979858399,0|0,1:0|0:0,0:0:0:0:
256,367,172090,1,8,0:0:0:0:
376,191,172265,1,0,1:0:0:0:
392,137,172353,1,0,1:0:0:0:
352,94,172441,6,0,P|322:87|287:70,1,65.9999979858399,2|0,1:0|0:0,0:0:0:0:
272,207,172616,2,0,P|242:214|207:231,1,65.9999979858399,0|0,1:0|0:0,0:0:0:0:
151,107,172791,1,8,0:0:0:0:
373,318,172967,1,2,0:0:0:0:
450,322,173142,6,0,B|472:349|472:349|437:356,1,65.9999979858399,8|8,3:0|3:0,0:0:0:0:
295,303,173318,2,0,B|257:310|257:310|143:269|143:269|123:213|123:213|178:194|178:194|291:234|291:234|305:276,1,440,4|0,1:2|0:0,0:0:0:0:
496,214,173844,6,0,B|487:168|487:168|367:125|367:125|351:60,1,230.99999295044,4|0,1:2|0:0,0:0:0:0:
459,50,174195,2,0,B|467:104|467:104|442:132,1,76.9999976501466,8|0,0:0|0:0,0:0:0:0:
369,220,174370,1,2,1:0:0:0:
183,41,174546,6,0,B|149:47|149:47|143:55|143:55|102:66,1,76.9999976501466,8|0,0:0|0:0,0:0:0:0:
203,292,174721,1,2,1:0:0:0:
152,244,174809,1,0,1:0:0:0:
86,266,174897,2,0,B|52:260|52:260|46:252|46:252|5:241,1,76.9999976501466,8|0,0:0|0:0,0:0:0:0:
240,122,175072,2,0,B|256:157|256:157|251:168|251:168|268:206,1,76.9999976501466,2|0,1:2|0:0,0:0:0:0:
429,370,175248,6,0,B|453:356|483:356|483:356|502:307|451:250,1,153.999995300293,12|0,0:0|0:0,0:0:0:0:
403,103,175511,1,0,1:0:0:0:
335,137,175598,2,0,P|360:174|403:174,1,76.9999976501466,8|0,0:0|0:0,0:0:0:0:
470,57,175774,2,0,B|469:30|476:18|476:18|462:32|431:31,1,76.9999976501466,2|0,1:0|0:0,0:0:0:0:
191,114,175949,5,8,0:0:0:0:
288,339,176125,1,2,1:2:0:0:
321,278,176212,1,2,1:2:0:0:
275,225,176300,2,0,B|165:240|165:240|136:204|136:204|217:192,1,230.99999295044,8|0,0:0|0:0,0:0:0:0:
59,240,176651,6,0,B|84:268|84:268|83:279|83:279|117:314,1,76.9999976501466,12|0,0:0|0:0,0:0:0:0:
367,369,176827,2,0,B|379:332|379:332|388:328|388:328|402:281,1,76.9999976501466,2|0,1:0|0:0,0:0:0:0:
282,51,177002,1,8,0:0:0:0:
218,227,177177,1,4,1:2:0:0:
254,297,177265,1,0,1:0:0:0:
218,373,177353,6,0,B|251:297|175:315|220:221,1,153.999995300293,8|0,0:0|0:0,0:0:0:0:
131,35,177616,1,8,0:0:0:0:
53,30,177704,2,0,P|53:68|97:97,1,76.9999976501466,8|0,0:0|0:0,0:0:0:0:
349,83,177879,5,0,1:0:0:0:
349,83,177967,1,0,1:0:0:0:
422,101,178055,2,0,B|388:90|388:90|381:92|381:92|327:77,1,76.9999976501466,12|0,0:0|0:0,0:0:0:0:
426,316,178230,2,0,B|452:292|452:292|454:284|454:284|494:245,1,76.9999976501466,0|0,1:0|0:0,0:0:0:0:
237,211,178405,2,0,B|244:245|244:245|249:251|249:251|263:305,1,76.9999976501466,8|0,0:0|0:0,0:0:0:0:
368,186,178581,5,4,1:2:0:0:
368,186,178669,1,0,1:0:0:0:
349,260,178756,2,0,L|367:185,1,76.9999976501466,8|0,0:0|0:0,0:0:0:0:
15,236,178932,5,8,0:0:0:0:
85,354,179019,2,0,B|72:297|72:297|102:257|102:257|78:154,1,197.99999395752,8|0,0:0|0:0,0:0:0:0:
61,70,179283,6,0,B|41:53|41:53|56:22|56:22|76:47|76:47|59:73,1,121.000003692627,12|0,0:0|0:0,0:0:0:0:
